Поиск

(R&B/Soul) Stevie Wonder - Talking Book (Japan SHM-CD) - 2009, FLAC (tracks+.cue), lossless

(R&B/Soul) Stevie Wonder - Talking Book (Japan SHM-CD) - 2009, FLAC (tracks+.cue), lossless
Треклист:
Stevie Wonder - Talking Book (Japan SHM-CD)
Жанр: R&B/Soul
Год выпуска диска: 2009
Производитель диска: Japan
Аудио кодек: FLAC
Тип рипа: tracks+.cue
Битрейт аудио: lossless
Трэклист:
1. You Are The Sunshine Of My Life (2:58)
2. Maybe Your Baby (6:50)
3. You And I (4:38)
4. Tuesday Heartbreak (3:02)
5. You've Got It Bad Girl (4:58)
6. Superstition (4:26)
7. Big Brother (3:33)
8. Blame It On The Sun (3:25)
9. Lookin' For Another Pure Love (4:43)
10. I Believe (When I Fall In Love It Will Be Forever) (4:53)
 
CD1: XLD Log
X Lossless Decoder version 20100323 (116.7)
XLD extraction logfile from 2010-04-14 11:27:24 +0600
Stevie Wonder / Talking Book
Used drive : OPTIARC DVD RW AD-5670S (revision 2AHH)
Use cdparanoia mode : YES (CDParanoia III 10.2 engine)
Disable audio cache : OK for the drive with cache less than 2750KB
Make use of C2 pointers : NO
Read offset correction : 48
Max retry count : 100
TOC of the extracted CD
Track | Start | Length | Start sector | End sector
---------------------------------------------------------
1 | 00:00:00 | 02:59:07 | 0 | 13431
2 | 02:59:07 | 06:50:48 | 13432 | 44229
3 | 09:49:55 | 04:38:17 | 44230 | 65096
4 | 14:27:72 | 03:02:10 | 65097 | 78756
5 | 17:30:07 | 04:58:73 | 78757 | 101179
6 | 22:29:05 | 04:26:17 | 101180 | 121146
7 | 26:55:22 | 03:33:45 | 121147 | 137166
8 | 30:28:67 | 03:25:65 | 137167 | 152606
9 | 33:54:57 | 04:43:40 | 152607 | 173871
10 | 38:38:22 | 04:52:43 | 173872 | 195814
List of alternate offset correction values
# | Absolute | Relative | Confidence
------------------------------------------
1 | -47 | -95 | 1
Track 01
Filename : /Users/gubarenko/Desktop/Stevie Wonder - Talking Book/01 - You Are The Sunshine Of My Life.flac
Pre-gap length : 00:02:00
CRC32 hash (test run) : 6FC4E3AF
CRC32 hash : 6FC4E3AF
CRC32 hash (skip zero) : 1D571D85
AccurateRip signature : A843BBD2
->Accurately ripped! (confidence 1)
(matched with the different offset correction value;
calculated using an additional offset of -95;
the signature after correction is: BC395A12)
Statistics
Read error : 0
Skipped (treated as error) : 0
Edge jitter error (maybe fixed) : 0
Atom jitter error (maybe fixed) : 0
Drift error (maybe fixed) : 0
Dropped bytes error (maybe fixed) : 0
Duplicated bytes error (maybe fixed) : 0
Inconsistency in error sectors : 0
Track 02
Filename : /Users/gubarenko/Desktop/Stevie Wonder - Talking Book/02 - Maybe Your Baby.flac
CRC32 hash (test run) : C2D7F455
CRC32 hash : C2D7F455
CRC32 hash (skip zero) : 0C703D49
AccurateRip signature : E05CF2FA
->Accurately ripped! (confidence 1)
(matched with the different offset correction value;
calculated using an additional offset of -95;
the signature after correction is: 4A2227E4)
Statistics
Read error : 0
Skipped (treated as error) : 0
Edge jitter error (maybe fixed) : 0
Atom jitter error (maybe fixed) : 0
Drift error (maybe fixed) : 0
Dropped bytes error (maybe fixed) : 0
Duplicated bytes error (maybe fixed) : 0
Inconsistency in error sectors : 0
Track 03
Filename : /Users/gubarenko/Desktop/Stevie Wonder - Talking Book/03 - You And I.flac
CRC32 hash (test run) : 17E994BA
CRC32 hash : 17E994BA
CRC32 hash (skip zero) : 36382B04
AccurateRip signature : 87A512C1
->Accurately ripped! (confidence 1)
(matched with the different offset correction value;
calculated using an additional offset of -95;
the signature after correction is: 7D96B776)
Statistics
Read error : 0
Skipped (treated as error) : 0
Edge jitter error (maybe fixed) : 0
Atom jitter error (maybe fixed) : 0
Drift error (maybe fixed) : 0
Dropped bytes error (maybe fixed) : 0
Duplicated bytes error (maybe fixed) : 0
Inconsistency in error sectors : 0
Track 04
Filename : /Users/gubarenko/Desktop/Stevie Wonder - Talking Book/04 - Tuesday Heartbreak.flac
CRC32 hash (test run) : 1CE77E86
CRC32 hash : 1CE77E86
CRC32 hash (skip zero) : 4240627B
AccurateRip signature : BC3EC6CD
->Rip may not be accurate.
Statistics
Read error : 0
Skipped (treated as error) : 0
Edge jitter error (maybe fixed) : 1
Atom jitter error (maybe fixed) : 0
Drift error (maybe fixed) : 0
Dropped bytes error (maybe fixed) : 1
Duplicated bytes error (maybe fixed) : 1
Inconsistency in error sectors : 0
Track 05
Filename : /Users/gubarenko/Desktop/Stevie Wonder - Talking Book/05 - You've Got It Bad Girl.flac
CRC32 hash (test run) : 6CB54575
CRC32 hash : 6CB54575
CRC32 hash (skip zero) : F0B82D4A
AccurateRip signature : 02FF35FC
->Accurately ripped! (confidence 1)
(matched with the different offset correction value;
calculated using an additional offset of -95;
the signature after correction is: 6D46B0D0)
Statistics
Read error : 0
Skipped (treated as error) : 0
Edge jitter error (maybe fixed) : 0
Atom jitter error (maybe fixed) : 0
Drift error (maybe fixed) : 0
Dropped bytes error (maybe fixed) : 0
Duplicated bytes error (maybe fixed) : 0
Inconsistency in error sectors : 0
Track 06
Filename : /Users/gubarenko/Desktop/Stevie Wonder - Talking Book/06 - Superstition.flac
Pre-gap length : 00:01:57
CRC32 hash (test run) : 3312098D
CRC32 hash : 3312098D
CRC32 hash (skip zero) : D7AEEE11
AccurateRip signature : B9E65F00
->Accurately ripped! (confidence 1)
(matched with the different offset correction value;
calculated using an additional offset of -95;
the signature after correction is: CB23E7D2)
Statistics
Read error : 0
Skipped (treated as error) : 0
Edge jitter error (maybe fixed) : 0
Atom jitter error (maybe fixed) : 0
Drift error (maybe fixed) : 0
Dropped bytes error (maybe fixed) : 0
Duplicated bytes error (maybe fixed) : 0
Inconsistency in error sectors : 0
Track 07
Filename : /Users/gubarenko/Desktop/Stevie Wonder - Talking Book/07 - Big Brother.flac
CRC32 hash (test run) : BADB3AA9
CRC32 hash : BADB3AA9
CRC32 hash (skip zero) : A40CFD36
AccurateRip signature : C551B5C1
->Accurately ripped! (confidence 1)
(matched with the different offset correction value;
calculated using an additional offset of -95;
the signature after correction is: B9B4CFB7)
Statistics
Read error : 0
Skipped (treated as error) : 0
Edge jitter error (maybe fixed) : 0
Atom jitter error (maybe fixed) : 0
Drift error (maybe fixed) : 0
Dropped bytes error (maybe fixed) : 0
Duplicated bytes error (maybe fixed) : 0
Inconsistency in error sectors : 0
Track 08
Filename : /Users/gubarenko/Desktop/Stevie Wonder - Talking Book/08 - Blame It On The Sun.flac
CRC32 hash (test run) : 8258C8AB
CRC32 hash : 8258C8AB
CRC32 hash (skip zero) : AFDC9F5B
AccurateRip signature : 12996CBD
->Accurately ripped! (confidence 1)
(matched with the different offset correction value;
calculated using an additional offset of -95;
the signature after correction is: DF6EE7A1)
Statistics
Read error : 0
Skipped (treated as error) : 0
Edge jitter error (maybe fixed) : 0
Atom jitter error (maybe fixed) : 0
Drift error (maybe fixed) : 0
Dropped bytes error (maybe fixed) : 0
Duplicated bytes error (maybe fixed) : 0
Inconsistency in error sectors : 0
Track 09
Filename : /Users/gubarenko/Desktop/Stevie Wonder - Talking Book/09 - Lookin' For Another Pure Love.flac
CRC32 hash (test run) : FCF3325A
CRC32 hash : FCF3325A
CRC32 hash (skip zero) : 782DE6C2
AccurateRip signature : 388AD607
->Accurately ripped! (confidence 1)
(matched with the different offset correction value;
calculated using an additional offset of -95;
the signature after correction is: 892D2C68)
Statistics
Read error : 0
Skipped (treated as error) : 0
Edge jitter error (maybe fixed) : 0
Atom jitter error (maybe fixed) : 0
Drift error (maybe fixed) : 0
Dropped bytes error (maybe fixed) : 0
Duplicated bytes error (maybe fixed) : 0
Inconsistency in error sectors : 0
Track 10
Filename : /Users/gubarenko/Desktop/Stevie Wonder - Talking Book/10 - I Believe (When I Fall In Love It Will Be Forever ).flac
CRC32 hash (test run) : 914A2618
CRC32 hash : 914A2618
CRC32 hash (skip zero) : 0E524A47
AccurateRip signature : C46686C3
->Accurately ripped! (confidence 1)
(matched with the different offset correction value;
calculated using an additional offset of -95;
the signature after correction is: 39BE396A)
Statistics
Read error : 0
Skipped (treated as error) : 0
Edge jitter error (maybe fixed) : 0
Atom jitter error (maybe fixed) : 0
Drift error (maybe fixed) : 0
Dropped bytes error (maybe fixed) : 0
Duplicated bytes error (maybe fixed) : 0
Inconsistency in error sectors : 0
No errors occurred
End of status report
 
CD1: CUE
TITLE "Talking Book"
PERFORMER "Stevie Wonder"
CATALOG 4988005250018
REM GENRE "R&B"
REM DATE 1972
FILE "01 - You Are The Sunshine Of My Life.wav" WAVE
TRACK 01 AUDIO
TITLE "You Are The Sunshine Of My Life"
ISRC USMO17282852
INDEX 01 00:00:00
FILE "02 - Maybe Your Baby.wav" WAVE
TRACK 02 AUDIO
TITLE "Maybe Your Baby"
ISRC USMO17282853
INDEX 01 00:00:00
FILE "03 - You And I.wav" WAVE
TRACK 03 AUDIO
TITLE "You And I"
ISRC USMO17282854
INDEX 01 00:00:00
FILE "04 - Tuesday Heartbreak.wav" WAVE
TRACK 04 AUDIO
TITLE "Tuesday Heartbreak"
ISRC USMO17282855
INDEX 01 00:00:00
FILE "05 - You've Got It Bad Girl.wav" WAVE
TRACK 05 AUDIO
TITLE "You've Got It Bad Girl"
ISRC USMO17282856
INDEX 01 00:00:00
TRACK 06 AUDIO
TITLE "Superstition"
ISRC USMO17200984
INDEX 00 04:57:16
FILE "06 - Superstition.wav" WAVE
INDEX 01 00:00:00
FILE "07 - Big Brother.wav" WAVE
TRACK 07 AUDIO
TITLE "Big Brother"
ISRC USMO17282857
INDEX 01 00:00:00
FILE "08 - Blame It On The Sun.wav" WAVE
TRACK 08 AUDIO
TITLE "Blame It On The Sun"
ISRC USMO17282858
INDEX 01 00:00:00
FILE "09 - Lookin' For Another Pure Love.wav" WAVE
TRACK 09 AUDIO
TITLE "Lookin' For Another Pure Love"
ISRC USMO17282859
INDEX 01 00:00:00
FILE "10 - I Believe (When I Fall In Love It Will Be Forever ).wav" WAVE
TRACK 10 AUDIO
TITLE "I Believe (When I Fall In Love It Will Be Forever )"
ISRC USMO17282779
INDEX 01 00:00:00
 
UICY-93933
Диск куплен тут.
 
Stevie Wonder SHM-CD Cardboard Sleeve Reissues (Universal)
UICY-93863: The Jazz Soul Of Little Stevie
UICY-93864: Tribute To Uncle Ray
UICY-93865: Recorded Live: The 12 Year Old Genius
UICY-93866: With a Song In My Heart
UICY-93867: Stevie At The Beach
UICY-93868: Up-Tight
UICY-93869: Down To Earth
UICY-93870: I Was Made To Love Her
UICY-93871: Someday At Christmas
UICY-93872: Greatest Hits
UICY-93873: Eivets Rednow
UICY-93874: For Once In My Life
UICY-93875: My Cherie Amour
UICY-93929: Signed, Sealed and Delivered
UICY-93930: Stevie Wonder Live
UICY-93931: Where I'm Coming From
UICY-93932: Music Of My Mind
UICY-93933: Talking Book
UICY-93934: Innervisions
UICY-93935: Fulfillingness' First Finale
UICY-93936/7: Songs In The Key Of Life
UICY-93938/9: Journey Through The Secret Life Of Plants
UICY-93940: Hotter Than July
UICY-93986/7: Original Musicquarium
UICY-93942: Woman In Red
UICY-93943: In Square Circle
UICY-93944: Characters
UICY-93945: Jungle Fever
UICY-93946: Conversation Peace
UICY-93947/8: Natural Wonder
* мои раздачи, чужие, скоро будет
* mine, others, soon
Приватный:
Да (DHT отключён)
Размер:
363.92 Мб (381,594,356 байт) » файлов: 16
Участники:
0 раздают, 0 качают (0 участников всего)
Внешние участники:
11 раздают, 4 качают (15 участников всего) [ Обновить ]
Нет сидеров - пишите личное сообщение M0p94ok. Не нравятся торренты? Участники группы Pro-jazz Club могут заказать прямую ссылку на скачивание из облака.
No seeders - write a personal message to M0p94ok. Don't like torrents? Members of Pro-jazz Club group can order a direct download link from the cloud.
04:13
25
Нет комментариев. Ваш будет первым!