Поиск

(R&B/Soul) Stevie Wonder - Music Of My Mind (Japan SHM-CD) - 2009, FLAC (tracks+.cue), lossless

(R&B/Soul) Stevie Wonder - Music Of My Mind (Japan SHM-CD) - 2009, FLAC (tracks+.cue), lossless
Треклист:
Stevie Wonder - Music Of My Mind (Japan SHM-CD)
Жанр: R&B/Soul
Год выпуска диска: 2009
Производитель диска: Japan
Аудио кодек: FLAC
Тип рипа: tracks+.cue
Битрейт аудио: lossless
Трэклист:
01 Love Having You Around 7:24
02 Superwoman 8:08
03 I Love Every Little Thing About You 3:56
04 Sweet Little Girl 4:59
05 Happier Than The Morning Sun 5:18
06 Girl Blue 3:36
07 Seems So Long 4:22
08 Keep On Running 6:40
09 Evil 3:34
 
CD1: XLD Log
X Lossless Decoder version 20100323 (116.7)
XLD extraction logfile from 2010-04-11 19:47:58 +0600
Stevie Wonder / Music Of My Mind
Used drive : OPTIARC DVD RW AD-5670S (revision 2AHH)
Use cdparanoia mode : YES (CDParanoia III 10.2 engine)
Disable audio cache : OK for the drive with cache less than 2750KB
Make use of C2 pointers : NO
Read offset correction : 48
Max retry count : 100
TOC of the extracted CD
Track | Start | Length | Start sector | End sector
---------------------------------------------------------
1 | 00:00:00 | 07:24:07 | 0 | 33306
2 | 07:24:07 | 08:07:55 | 33307 | 69886
3 | 15:31:62 | 03:55:53 | 69887 | 87564
4 | 19:27:40 | 04:59:07 | 87565 | 109996
5 | 24:26:47 | 05:18:15 | 109997 | 133861
6 | 29:44:62 | 03:34:08 | 133862 | 149919
7 | 33:18:70 | 04:24:32 | 149920 | 169751
8 | 37:43:27 | 06:40:08 | 169752 | 199759
9 | 44:23:35 | 03:33:60 | 199760 | 215794
Track 01
Filename : /Users/gubarenko/Desktop/Stevie Wonder - Music Of My Mind/01 - Love Having You Around.flac
Pre-gap length : 00:02:00
CRC32 hash (test run) : 3DDDD0F7
CRC32 hash : 3DDDD0F7
CRC32 hash (skip zero) : 066482AA
AccurateRip signature : 673D516A
->Track not present in AccurateRip database.
Statistics
Read error : 0
Skipped (treated as error) : 0
Edge jitter error (maybe fixed) : 0
Atom jitter error (maybe fixed) : 0
Drift error (maybe fixed) : 0
Dropped bytes error (maybe fixed) : 0
Duplicated bytes error (maybe fixed) : 0
Inconsistency in error sectors : 0
Track 02
Filename : /Users/gubarenko/Desktop/Stevie Wonder - Music Of My Mind/02 - Superwoman (Where Were You When I Needed You).flac
CRC32 hash (test run) : CE3B787F
CRC32 hash : CE3B787F
CRC32 hash (skip zero) : 45475923
AccurateRip signature : C383ACC6
->Track not present in AccurateRip database.
Statistics
Read error : 0
Skipped (treated as error) : 0
Edge jitter error (maybe fixed) : 0
Atom jitter error (maybe fixed) : 0
Drift error (maybe fixed) : 0
Dropped bytes error (maybe fixed) : 0
Duplicated bytes error (maybe fixed) : 0
Inconsistency in error sectors : 0
Track 03
Filename : /Users/gubarenko/Desktop/Stevie Wonder - Music Of My Mind/03 - I Love Every Little Thing About You.flac
CRC32 hash (test run) : 67ABD60B
CRC32 hash : 67ABD60B
CRC32 hash (skip zero) : 9D2294B9
AccurateRip signature : 0EEA92A9
->Track not present in AccurateRip database.
Statistics
Read error : 0
Skipped (treated as error) : 0
Edge jitter error (maybe fixed) : 0
Atom jitter error (maybe fixed) : 0
Drift error (maybe fixed) : 0
Dropped bytes error (maybe fixed) : 0
Duplicated bytes error (maybe fixed) : 0
Inconsistency in error sectors : 0
Track 04
Filename : /Users/gubarenko/Desktop/Stevie Wonder - Music Of My Mind/04 - Sweet Little Girl.flac
CRC32 hash (test run) : 335DE12F
CRC32 hash : 335DE12F
CRC32 hash (skip zero) : 0085B906
AccurateRip signature : 8ECD3E70
->Track not present in AccurateRip database.
Statistics
Read error : 0
Skipped (treated as error) : 0
Edge jitter error (maybe fixed) : 0
Atom jitter error (maybe fixed) : 0
Drift error (maybe fixed) : 0
Dropped bytes error (maybe fixed) : 0
Duplicated bytes error (maybe fixed) : 0
Inconsistency in error sectors : 0
Track 05
Filename : /Users/gubarenko/Desktop/Stevie Wonder - Music Of My Mind/05 - Happier Than The Morning Sun.flac
Pre-gap length : 00:02:50
CRC32 hash (test run) : 5FCC7E8D
CRC32 hash : 5FCC7E8D
CRC32 hash (skip zero) : D959C4F8
AccurateRip signature : 5760C5EA
->Track not present in AccurateRip database.
Statistics
Read error : 0
Skipped (treated as error) : 0
Edge jitter error (maybe fixed) : 0
Atom jitter error (maybe fixed) : 0
Drift error (maybe fixed) : 0
Dropped bytes error (maybe fixed) : 0
Duplicated bytes error (maybe fixed) : 0
Inconsistency in error sectors : 0
Track 06
Filename : /Users/gubarenko/Desktop/Stevie Wonder - Music Of My Mind/06 - Girl Blue.flac
Pre-gap length : 00:00:40
CRC32 hash (test run) : 4DCBADA1
CRC32 hash : 4DCBADA1
CRC32 hash (skip zero) : 2210D724
AccurateRip signature : B0989F0C
->Track not present in AccurateRip database.
Statistics
Read error : 0
Skipped (treated as error) : 0
Edge jitter error (maybe fixed) : 0
Atom jitter error (maybe fixed) : 0
Drift error (maybe fixed) : 0
Dropped bytes error (maybe fixed) : 0
Duplicated bytes error (maybe fixed) : 0
Inconsistency in error sectors : 0
Track 07
Filename : /Users/gubarenko/Desktop/Stevie Wonder - Music Of My Mind/07 - Seems So Long.flac
CRC32 hash (test run) : B5808007
CRC32 hash : B5808007
CRC32 hash (skip zero) : 670054D9
AccurateRip signature : C01B0250
->Track not present in AccurateRip database.
Statistics
Read error : 0
Skipped (treated as error) : 0
Edge jitter error (maybe fixed) : 0
Atom jitter error (maybe fixed) : 0
Drift error (maybe fixed) : 0
Dropped bytes error (maybe fixed) : 0
Duplicated bytes error (maybe fixed) : 0
Inconsistency in error sectors : 0
Track 08
Filename : /Users/gubarenko/Desktop/Stevie Wonder - Music Of My Mind/08 - Keep On Running.flac
Pre-gap length : 00:00:62
CRC32 hash (test run) : 5DA3090A
CRC32 hash : 5DA3090A
CRC32 hash (skip zero) : 969AC42B
AccurateRip signature : 4B8532BE
->Track not present in AccurateRip database.
Statistics
Read error : 0
Skipped (treated as error) : 0
Edge jitter error (maybe fixed) : 0
Atom jitter error (maybe fixed) : 0
Drift error (maybe fixed) : 0
Dropped bytes error (maybe fixed) : 0
Duplicated bytes error (maybe fixed) : 0
Inconsistency in error sectors : 0
Track 09
Filename : /Users/gubarenko/Desktop/Stevie Wonder - Music Of My Mind/09 - Evil.flac
Pre-gap length : 00:00:43
CRC32 hash (test run) : 0F43D972
CRC32 hash : 0F43D972
CRC32 hash (skip zero) : 33B90E50
AccurateRip signature : F8D192E7
->Track not present in AccurateRip database.
Statistics
Read error : 0
Skipped (treated as error) : 0
Edge jitter error (maybe fixed) : 0
Atom jitter error (maybe fixed) : 0
Drift error (maybe fixed) : 0
Dropped bytes error (maybe fixed) : 0
Duplicated bytes error (maybe fixed) : 0
Inconsistency in error sectors : 0
No errors occurred
End of status report
 
CD1: CUE
TITLE "Music Of My Mind"
PERFORMER "Stevie Wonder"
CATALOG 4988005250001
REM GENRE "Soul"
REM DATE 1972
FILE "01 - Love Having You Around.wav" WAVE
TRACK 01 AUDIO
TITLE "Love Having You Around"
ISRC USUMG0000205
INDEX 01 00:00:00
FILE "02 - Superwoman (Where Were You When I Needed You).wav" WAVE
TRACK 02 AUDIO
TITLE "Superwoman (Where Were You When I Needed You)"
ISRC USUMG9900459
INDEX 01 00:00:00
FILE "03 - I Love Every Little Thing About You.wav" WAVE
TRACK 03 AUDIO
TITLE "I Love Every Little Thing About You"
ISRC USUMG9900460
INDEX 01 00:00:00
FILE "04 - Sweet Little Girl.wav" WAVE
TRACK 04 AUDIO
TITLE "Sweet Little Girl"
ISRC USUMG0000206
INDEX 01 00:00:00
TRACK 05 AUDIO
TITLE "Happier Than The Morning Sun"
ISRC USUMG0000207
INDEX 00 04:56:32
FILE "05 - Happier Than The Morning Sun.wav" WAVE
INDEX 01 00:00:00
TRACK 06 AUDIO
TITLE "Girl Blue"
ISRC USUMG0000208
INDEX 00 05:17:50
FILE "06 - Girl Blue.wav" WAVE
INDEX 01 00:00:00
FILE "07 - Seems So Long.wav" WAVE
TRACK 07 AUDIO
TITLE "Seems So Long"
ISRC USUMG0000209
INDEX 01 00:00:00
TRACK 08 AUDIO
TITLE "Keep On Running"
ISRC USUMG0000210
INDEX 00 04:23:45
FILE "08 - Keep On Running.wav" WAVE
INDEX 01 00:00:00
TRACK 09 AUDIO
TITLE "Evil"
ISRC USUMG0000211
INDEX 00 06:39:40
FILE "09 - Evil.wav" WAVE
INDEX 01 00:00:00
 
UICY-93932
Диск куплен тут.
 
Stevie Wonder SHM-CD Cardboard Sleeve Reissues (Universal)
UICY-93863: The Jazz Soul Of Little Stevie
UICY-93864: Tribute To Uncle Ray
UICY-93865: Recorded Live: The 12 Year Old Genius
UICY-93866: With a Song In My Heart
UICY-93867: Stevie At The Beach
UICY-93868: Up-Tight
UICY-93869: Down To Earth
UICY-93870: I Was Made To Love Her
UICY-93871: Someday At Christmas
UICY-93872: Greatest Hits
UICY-93873: Eivets Rednow
UICY-93874: For Once In My Life
UICY-93875: My Cherie Amour
UICY-93929: Signed, Sealed and Delivered
UICY-93930: Stevie Wonder Live
UICY-93931: Where I'm Coming From
UICY-93932: Music Of My Mind
UICY-93933: Talking Book
UICY-93934: Innervisions
UICY-93935: Fulfillingness' First Finale
UICY-93936/7: Songs In The Key Of Life
UICY-93938/9: Journey Through The Secret Life Of Plants
UICY-93940: Hotter Than July
UICY-93986/7: Original Musicquarium
UICY-93942: Woman In Red
UICY-93943: In Square Circle
UICY-93944: Characters
UICY-93945: Jungle Fever
UICY-93946: Conversation Peace
UICY-93947/8: Natural Wonder
* мои раздачи, чужие, скоро будет
* mine, others, soon
Приватный:
Да (DHT отключён)
Размер:
409.07 Мб (428,943,367 байт) » файлов: 15
Участники:
0 раздают, 0 качают (0 участников всего)
Внешние участники:
12 раздают, 4 качают (16 участников всего) [ Обновить ]
Никого нет на раздаче - пишите личное сообщение M0p94ok
No seeders - write personal message to M0p94ok
04:12
19
Нет комментариев. Ваш будет первым!