Поиск

(R&B, Southern Soul, Philly Soul) Wilson Pickett In Philadelphia - 1970, APE (image+.cue), lossless

Треклист:
Wilson Pickett In Philadelphia
Жанр: R&B, Southern Soul, Philly Soul
Год выпуска диска: 1970
Производитель диска: Germany - Warner Music Manufacturing Europe
Аудио кодек: APE
Тип рипа: image+.cue
Битрейт аудио: lossless
Продолжительность: 35:10
Трэклист:
1 Run Joey Run (Gamble, Huff) 2:37
2 Help the Needy (Eli, Fisher) 2:31
3 Come Right Here (Akines, Belmon, Drayton ...) 2:35
4 Bumble Bee (Sting Me) (Akines, Belmon, Drayton ...) 2:13
5 Don't Let the Green Grass Fool You (Akins, Bellman, Drayton ...) 2:46
6 Get Me Back on Time, Engine Number 9, Pt. I/Get Me Back on Time, Engi (Gamble, Huff) 6:27
7 Days Go By (Dozier, Sigler) 4:24
8 International Playboy (Broomer, Dozier, Phillips ...) 2:26
9 Ain't No Doubt About It (Gamble, Huff 2:19
Bonus Tracks:
10 Don't Let the Green Grass Fool You (Akins, Bellman, Drayton ...) 2:47
11 Engine Number 9 (Gamble, Huff) 2:51
12 International Playboy (Broomer, Dozier, Phillips ...) 2:32
Доп. информация:
One day in 1970, Wilson Pickett kicked down the door to Sigma Sound Studios and cut the meanest and funkiest album ever to come out of Gamble & Philly-soul Factory.
Рип сделан с диска из собственной коллекции.
 
EAC extraction logfile
Exact Audio Copy V0.99 prebeta 5 from 4. May 2009
EAC extraction logfile from 13. April 2010, 0:26
Wilson Pickett / In Philadelphia
Used drive : Optiarc DVD RW AD-7200S Adapter: 3 ID: 0
Read mode : Secure
Utilize accurate stream : Yes
Defeat audio cache : Yes
Make use of C2 pointers : No
Read offset correction : 48
Overread into Lead-In and Lead-Out : No
Fill up missing offset samples with silence : Yes
Delete leading and trailing silent blocks : No
Null samples used in CRC calculations : Yes
Used interface : Installed external ASPI interface
Used output format : Internal WAV Routines
Sample format : 44.100 Hz; 16 Bit; Stereo
TOC of the extracted CD
Track | Start | Length | Start sector | End sector
---------------------------------------------------------
1 | 0:00.00 | 2:45.00 | 0 | 12374
2 | 2:45.00 | 2:33.40 | 12375 | 23889
3 | 5:18.40 | 2:39.25 | 23890 | 35839
4 | 7:57.65 | 2:19.10 | 35840 | 46274
5 | 10:17.00 | 2:49.55 | 46275 | 59004
6 | 13:06.55 | 6:27.70 | 59005 | 88099
7 | 19:34.50 | 2:27.62 | 88100 | 99186
8 | 22:02.37 | 2:30.38 | 99187 | 110474
9 | 24:33.00 | 2:24.00 | 110475 | 121274
10 | 26:57.00 | 2:47.45 | 121275 | 133844
11 | 29:44.45 | 2:51.37 | 133845 | 146706
12 | 32:36.07 | 2:32.63 | 146707 | 158169
Range status and errors
Selected range
Filename C:\Documents and Settings\1\Мои документы\EAC\Wilson Pickett In Philadelphia 1970\Wilson Pickett - In Philadelphia.wav
Peak level 97.2 %
Range quality 99.9 %
Copy CRC 66CA21CB
Copy OK
No errors occurred
AccurateRip summary
Track 1 accurately ripped (confidence 4) [A38B12AB]
Track 2 accurately ripped (confidence 4) [79DD5CC7]
Track 3 accurately ripped (confidence 4) [42DF35D3]
Track 4 accurately ripped (confidence 4) [73F2BAA3]
Track 5 accurately ripped (confidence 4) [C7D6B6D5]
Track 6 accurately ripped (confidence 4) [6915355C]
Track 7 accurately ripped (confidence 4) [2163A444]
Track 8 accurately ripped (confidence 4) [594C2E65]
Track 9 accurately ripped (confidence 4) [69F8BFD9]
Track 10 accurately ripped (confidence 4) [302D18F2]
Track 11 accurately ripped (confidence 4) [EF74B23F]
Track 12 accurately ripped (confidence 4) [4B76E7A2]
All tracks accurately ripped
End of status report
Приватный:
Нет (DHT включён)
Размер:
219.28 Мб (229,935,719 байт) » файлов: 13
Участники:
0 раздают, 0 качают (0 участников всего)
Внешние участники:
--- [ Обновить ]
Никого нет на раздаче - пишите личное сообщение M0p94ok
No seeders - write personal message to M0p94ok
04:11
23
Нет комментариев. Ваш будет первым!