Поиск

(R&B, Funk/Soul, Electronic) Roberta Flack - Roberta Flack featuring Donny Hathaway - 1996, APE (image+.cue), lossless

Треклист:
Roberta Flack - Roberta Flack featuring Donny Hathaway
Жанр: Rhythm & Blues, Funk/Soul, Electronic
Год выхода альбома: 1980, March, 3 [LP Atlantic SD-16013, USA]
Год выпуска данного диска: 1996, June, 6 [EAN: 0075678146923]
CD Catalogue #: 81469-2
Производитель диска: USA
Лэйбл: Atlantic/WEA
Аудио кодек: APE
Тип рипа: image+.cue
Битрейт аудио: lossless
Продолжительность: 00:36:47
Источник рипа: лично сама
Tracklist:
01. Only Heaven Can Wait (For Love) (04:06)
(Roberta Flack, Eric Mercury)
02. God Don't Like Ugly (04:37)
(Gwen Guthrie)
03. You Are My Heaven (04:14)
(Eric Mercury, Stevie Wonder)
04. Disguises (02:25)
(Stuart Scharf)
05. Don't Make Me Wait Too Long (07:48)
(Stevie Wonder)
06. Back Together Again (09:48)
(Reggie Lucas, James Mtume)
07. Stay With Me (03:49)
(Gerry Goffin, Michael Masser)
Доп. информация:
"Roberta Flack featuring Donny Hathaway" - это девятый альбом в творческой дискографии Roberta Flack, вышедший на лэйбле Atlantic 3 марта 1980 года. Сессии записи происходили в 1978-1979 гг.
 
Читать далее...
С данного альбома было выпущено 3 сингла: "You Are My Heaven / I'll Love You Forever and Ever" - 15 ноября 1979 года, "Back Together Again / God Don't Like Ugly" - 17 февраля 1980 и "Don't Make Me Wait Too Long / Only Heaven Can Wait (For Love)" - 13 июля 1980 года. Таким образом, из всех 7 треков альбома на сингах вышли 5 из них. Лишь одну песню "I'll Love You Forever and Ever" нельзя найти на самом альбоме (b-side первого сингла). Автором 2 песен пластинки является Stevie Wonder. Его оригинальные аранжировки придали более up-темповое звучание. Альбом задумывался как вторая дуэтная работа между Roberta и Donny Hathaway (первой такой пластинкой был альбом 1972 года "Roberta Flack & Donny Hathaway" - прим.). Но Donny Hathaway записал всего только 2 песни для этого альбома до своей трагической кончины, покончив жизнь самоубийством 13 января 1979 года. Остальную часть работы Roberta Flack закончила уже самостоятельно...
Рип фирменного диска из моей коллекции, сканы обложек и диска (600 dpi) включены в раздачу.
 
EAC Log
Exact Audio Copy V0.99 prebeta 4 from 23. January 2008
EAC extraction logfile from 11. April 2010, 14:26
Roberta Flack & Donny Hathaway / Roberta Flack featuring Donny Hathaway
Used drive : ATAPI DVD DW 8X16X8X16 Adapter: 0 ID: 2
Read mode : Secure
Utilize accurate stream : Yes
Defeat audio cache : Yes
Make use of C2 pointers : No
Read offset correction : 618
Overread into Lead-In and Lead-Out : No
Fill up missing offset samples with silence : Yes
Delete leading and trailing silent blocks : No
Null samples used in CRC calculations : Yes
Used interface : Native Win32 interface for Win NT & 2000
Used output format : Internal WAV Routines
Sample format : 44.100 Hz; 16 Bit; Stereo
TOC of the extracted CD
Track | Start | Length | Start sector | End sector
---------------------------------------------------------
1 | 0:00.32 | 4:06.05 | 32 | 18486
2 | 4:06.37 | 4:37.48 | 18487 | 39309
3 | 8:44.10 | 4:14.50 | 39310 | 58409
4 | 12:58.60 | 2:25.57 | 58410 | 69341
5 | 15:24.42 | 7:48.73 | 69342 | 104514
6 | 23:13.40 | 9:48.47 | 104515 | 148661
7 | 33:02.12 | 3:49.13 | 148662 | 165849
Range status and errors
Selected range
Filename C:\BlondStyle\Roberta Flack featuring Donny Hathaway.wav
Peak level 100.0 %
Range quality 100.0 %
Test CRC 4CEC7F4F
Copy CRC 4CEC7F4F
Copy OK
No errors occurred
AccurateRip summary
Track 1 accurately ripped (confidence 5) [02A27335]
Track 2 accurately ripped (confidence 5) [5A0DFA0C]
Track 3 accurately ripped (confidence 4) [376D5615]
Track 4 accurately ripped (confidence 5) [8485E1F7]
Track 5 accurately ripped (confidence 5) [D2AF01B4]
Track 6 accurately ripped (confidence 5) [43A9AA80]
Track 7 accurately ripped (confidence 5) [1CB475F3]
All tracks accurately ripped
End of status report
 
Tau Analyzer
Приватный:
Нет (DHT включён)
Размер:
217.54 Мб (228,102,021 байт) » файлов: 13
Участники:
0 раздают, 0 качают (0 участников всего)
Внешние участники:
3 раздают, 1 качают (4 участников всего) [ Обновить ]
Никого нет на раздаче - пишите личное сообщение M0p94ok
No seeders - write personal message to M0p94ok
04:10
19
Нет комментариев. Ваш будет первым!