Поиск

(Memphis Soul/Smooth Soul) Al Green - Livin' For You (1973) - 1999, FLAC (image+.cue), lossless

Треклист:
Al Green - Livin' For You (1973)
Жанр: Memphis Soul/Smooth Soul
Год выпуска диска: 1999
Производитель диска: Англия (Hi)
Аудио кодек: FLAC
Тип рипа: image+.cue
Битрейт аудио: lossless
Продолжительность: 39:20
Трэклист:
01. Livin' For You 03:13
02. Home Again 03:59
03. Free at Last 03:30
04. Let's Get Married 05:36
05. So Good To Be Here 02:47
06. Sweet Sixteen 03:30
07. Unchained Melody 05:36
08. My God Is Real 02:46
09. Beware 08:19
 
отчёт ЕАС
Exact Audio Copy V0.99 prebeta 4 from 23. January 2008
Отчёт EAC об извлечении, выполненном 10. апреля 2010, 21:52
Al Green / Livin' For You
Дисковод: Optiarc DVD RW AD-7203S Adapter: 1 ID: 1
Режим чтения : Достоверность
Использование точного потока : Да
Отключение кэша аудио : Да
Использование указателей C2 : Нет
Коррекция смещения при чтении : 48
Способность читать области Lead-in и Lead-out : Нет
Заполнение пропущенных сэмплов тишиной : Да
Удаление блоков с тишиной в начале и конце : Нет
При вычислениях CRC использовались нулевые сэмплы : Да
Интерфейс : Встроенный Win32-интерфейс для Win NT/2000
Выходной формат : Пользовательский кодировщик
Выбранный битрейт : 1024 kBit/s
Качество : Высокий
Добавление ID3-тэга : Нет
Утилита сжатия : C:\Program Files\Exact Audio Copy\Flac\flac.exe
Дополнительные параметры : -V -8 -T "artist=%a" -T "title=%t" -T "album=%g" -T "date=%y" -T "tracknumber=%n" -T "genre=%m" %s
TOC извлечённого CD
Трек | Старт | Длительность | Начальный сектор | Конечный сектор
---------------------------------------------------------------------
1 | 0:00.00 | 3:13.42 | 0 | 14516
2 | 3:13.42 | 3:59.30 | 14517 | 32471
3 | 7:12.72 | 3:30.15 | 32472 | 48236
4 | 10:43.12 | 5:36.65 | 48237 | 73501
5 | 16:20.02 | 2:47.73 | 73502 | 86099
6 | 19:08.00 | 3:30.05 | 86100 | 101854
7 | 22:38.05 | 5:36.67 | 101855 | 127121
8 | 28:14.72 | 2:46.43 | 127122 | 139614
9 | 31:01.40 | 8:19.05 | 139615 | 177044
Характеристики диапазона извлечения и сообщения об ошибках
Выбранный диапазон
Имя файла D:\EAC-FOLDER\Al Green - Livin' For You\Al Green - Livin' For You\Al Green - Livin' For You.wav
Пиковый уровень 94.1 %
Качество диапазона 100.0 %
CRC теста EE978E20
CRC копии EE978E20
Копирование... OK
Ошибок не произошло
AccurateRip: сводка
Трек 1 точное извлечение (доверие 1) [1A4F34D4]
Трек 2 точное извлечение (доверие 1) [21EFF810]
Трек 3 точное извлечение (доверие 1) [5038B3E2]
Трек 4 точное извлечение (доверие 1) [954F63C5]
Трек 5 точное извлечение (доверие 1) [31F1981D]
Трек 6 точное извлечение (доверие 1) [A39B5630]
Трек 7 точное извлечение (доверие 1) [14D91B4D]
Трек 8 точное извлечение (доверие 1) [D3920AB4]
Трек 9 точное извлечение (доверие 1) [86C32812]
Все треки извлечены точно
Конец отчёта
Доп. информация:

Что добавить... Просто люлю этот альбом ... Особенно весною
Рип свой.
Приватный:
Да (DHT отключён)
Размер:
241.71 Мб (253,448,310 байт) » файлов: 8
Участники:
0 раздают, 0 качают (0 участников всего)
Внешние участники:
1 раздают, 0 качают (1 участников всего) [ Обновить ]
Никого нет на раздаче - пишите личное сообщение M0p94ok
No seeders - write personal message to M0p94ok
04:10
14
Нет комментариев. Ваш будет первым!