Поиск

(Soul Jazz, Jazz-Funk) Roy Ayers Ubiquity - Everybody Loves The Sunshine - 1976, FLAC (tracks+.cue), lossless

(Soul Jazz, Jazz-Funk) Roy Ayers Ubiquity - Everybody Loves The Sunshine - 1976, FLAC (tracks+.cue), lossless
Треклист:
Roy Ayers Ubiquity - Everybody Loves The Sunshine - 1976
Жанр: Soul Jazz, Jazz-Funk
Дата выпуска: ®© 1976 PolyGram Records, Inc.
Производитель диска, номер, страна: Polydor 833 844-2
Аудио кодек: FLAC
Тип рипа: (tracks + .cue)
Битрейт аудио: lossless
Включает: Full artwork
Продолжительность: 39:53
Источник: Моя коллекция
Риппер: Мой рип
Трэклист:
1. Hey Uh-What You Say Come On (Allen, Ayers ) - 3:45
2. The Golden Rod (Ayers ) - 3:03
3. Keep on Walking (Vannelli ) - 3:45
4. You and Me My Love (Ayers, OFerral ) - 3:11
5. The Third Eye (Ayers ) - 6:21
6. It Ain't Your Sign It's Your Mind (Ayers ) - 3:28
7. People and the World (Ayers ) - 4:48
8. Everybody Loves the Sunshine (Ayers ) - 3:59
9. Tongue Power (Ayers, OFerral ) - 3:02
10. Lonesome Cowboy (Ayers ) - 4:03
Состав:
Roy Ayers - Percussion, Arranger, Harp, Piano (Electric), Vocals, Vocals (bckgr), Producer, Vibraphone, String Ensemble
Las Chicas - Lead Vocals, Back ground Vocals
Chano O'Ferral - Percussion, Conga, Lead Vocals
Doug Rhodes - Drums
Philip Woo - Piano, Electric Piano, String Ensemble, arp
Ronald "Head" Drayton - Guitar
John "Shaun" Solomon - bass
Ссылки:
http://www.allmusic.com/cg/amg.dll?p=amg&sql=10:3zfpxqegldfe
http://rateyourmusic.com/release/album/roy_ayers/everybody_loves_the_sunshine/
http://en.wikipedia.org/wiki/Roy_Ayers
Рейтинг:Billboard
1976 - Jazz Albums #6
1976 - R&B Albums #10
1976 - The Billboard 200 #51
Издания:
1976 LP Vinyl LP Polydor PD-1-6070
1993 CD Polydor 833844-2
1993 LP Polydor 833 844
1993 CS Polygram 833844
2008 LP Universal International 6070
2009 CD (Japan) PROA-284
2009 CD Universal Distribution 1487768
 
Review by Sam Samuelson
Roy Ayers's had long made his shift into R&B/soul by 1976's Everybody Loves the Sunshine. His recordings of this period can be very hit and miss, and in this particular record, you get both. The title track, "Everybody Loves the Sunshine," is a quintessential song from the mid-'70s. While it might not have slammed the charts like Wild Cherry's "Play That Funky Music," it's still a revered classic. It evokes that feeling of sweltering concrete in Brooklyn where the only relief is the local fire hydrant. Entirely sung by a choir repeating the same lines throughout, the rhythm section rolls along with a perfectly looped laid-back groove. It moves along lazily, hypnotically, and sluggishly as the sun slows things down to the right speed and "folks get down in the sunshine." The rest of the album can be considered incidental, but still mildly interesting.
 
Cue
REM GENRE Soul
REM DATE 1976
REM DISCID 7809590A
REM COMMENT "ExactAudioCopy v0.99pb4"
PERFORMER "Roy Ayers Ubiquity"
TITLE "Everybody Loves The Sunshine"
FILE "01 - Hey Uh-What You Say Come On.wav" WAVE
TRACK 01 AUDIO
TITLE "Hey Uh-What You Say Come On"
PERFORMER "Roy Ayers Ubiquity"
PREGAP 00:00:32
INDEX 01 00:00:00
TRACK 02 AUDIO
TITLE "The Golden Rod"
PERFORMER "Roy Ayers Ubiquity"
INDEX 00 03:45:45
FILE "02 - The Golden Rod.wav" WAVE
INDEX 01 00:00:00
TRACK 03 AUDIO
TITLE "Keep On Walking"
PERFORMER "Roy Ayers Ubiquity"
INDEX 00 03:03:42
FILE "03 - Keep On Walking.wav" WAVE
INDEX 01 00:00:00
TRACK 04 AUDIO
TITLE "You And Me My Love"
PERFORMER "Roy Ayers Ubiquity"
INDEX 00 03:45:55
FILE "04 - You And Me My Love.wav" WAVE
INDEX 01 00:00:00
TRACK 05 AUDIO
TITLE "The Third Eye"
PERFORMER "Roy Ayers Ubiquity"
INDEX 00 03:12:08
FILE "05 - The Third Eye.wav" WAVE
INDEX 01 00:00:00
TRACK 06 AUDIO
TITLE "It Ain't Your Sign It's Your Mind"
PERFORMER "Roy Ayers Ubiquity"
INDEX 00 06:21:63
FILE "06 - It Ain't Your Sign It's Your Mind.wav" WAVE
INDEX 01 00:00:00
TRACK 07 AUDIO
TITLE "People And The World"
PERFORMER "Roy Ayers Ubiquity"
INDEX 00 03:28:48
FILE "07 - People And The World.wav" WAVE
INDEX 01 00:00:00
TRACK 08 AUDIO
TITLE "Everybody Loves The Sunshine"
PERFORMER "Roy Ayers Ubiquity"
INDEX 00 04:48:30
FILE "08 - Everybody Loves The Sunshine.wav" WAVE
INDEX 01 00:00:00
TRACK 09 AUDIO
TITLE "Tongue Power"
PERFORMER "Roy Ayers Ubiquity"
INDEX 00 03:59:47
FILE "09 - Tongue Power.wav" WAVE
INDEX 01 00:00:00
TRACK 10 AUDIO
TITLE "Lonesome Cowboy"
PERFORMER "Roy Ayers Ubiquity"
INDEX 00 03:02:30
FILE "10 - Lonesome Cowboy.wav" WAVE
INDEX 01 00:00:00
 
EAC log
Exact Audio Copy V0.99 prebeta 4 from 23. January 2008
EAC extraction logfile from 7. April 2010, 12:50
Roy Ayers Ubiquity / Everybody Loves The Sunshine
Used drive : HL-DT-STDVD-RAM GH22NP20 Adapter: 0 ID: 0
Read mode : Secure
Utilize accurate stream : Yes
Defeat audio cache : Yes
Make use of C2 pointers : No
Read offset correction : 102
Overread into Lead-In and Lead-Out : No
Fill up missing offset samples with silence : Yes
Delete leading and trailing silent blocks : No
Null samples used in CRC calculations : Yes
Used interface : Installed external ASPI interface
Gap handling : Appended to previous track
Used output format : User Defined Encoder
Selected bitrate : 320 kBit/s
Quality : High
Add ID3 tag : No
Command line compressor : C:\Program Files\Exact Audio Copy\Flac\flac.exe
Additional command line options : -V -8 -T "artist=%a" -T "title=%t" -T "album=%g" -T "date=%y" -T "tracknumber=%n" -T "genre=%m" %s
TOC of the extracted CD
Track | Start | Length | Start sector | End sector
---------------------------------------------------------
1 | 0:00.32 | 3:46.33 | 32 | 17014
2 | 3:46.65 | 3:06.30 | 17015 | 30994
3 | 6:53.20 | 3:48.42 | 30995 | 48136
4 | 10:41.62 | 3:13.70 | 48137 | 62681
5 | 13:55.57 | 6:24.50 | 62682 | 91531
6 | 20:20.32 | 3:31.35 | 91532 | 107391
7 | 23:51.67 | 4:51.18 | 107392 | 129234
8 | 28:43.10 | 4:02.35 | 129235 | 147419
9 | 32:45.45 | 3:04.17 | 147420 | 161236
10 | 35:49.62 | 4:03.50 | 161237 | 179511
Track 1
Filename D:\music\Musicgate's rips\Roy Ayers Ubiquity - Everybody Loves The Sunshine (1976)\01 - Hey Uh-What You Say Come On.wav
Pre-gap length 0:00:02.42
Peak level 99.5 %
Track quality 99.9 %
Test CRC 271D6993
Copy CRC 271D6993
Accurately ripped (confidence 2) [9AE953DE]
Copy OK
Track 2
Filename D:\music\Musicgate's rips\Roy Ayers Ubiquity - Everybody Loves The Sunshine (1976)\02 - The Golden Rod.wav
Pre-gap length 0:00:00.84
Peak level 75.4 %
Track quality 100.0 %
Test CRC 1ABE1010
Copy CRC 1ABE1010
Accurately ripped (confidence 2) [84FF7B40]
Copy OK
Track 3
Filename D:\music\Musicgate's rips\Roy Ayers Ubiquity - Everybody Loves The Sunshine (1976)\03 - Keep On Walking.wav
Pre-gap length 0:00:02.84
Peak level 77.2 %
Track quality 100.0 %
Test CRC 06610575
Copy CRC 06610575
Accurately ripped (confidence 2) [42E85128]
Copy OK
Track 4
Filename D:\music\Musicgate's rips\Roy Ayers Ubiquity - Everybody Loves The Sunshine (1976)\04 - You And Me My Love.wav
Pre-gap length 0:00:02.82
Peak level 82.8 %
Track quality 99.9 %
Test CRC 34351C23
Copy CRC 34351C23
Accurately ripped (confidence 2) [2B79FA79]
Copy OK
Track 5
Filename D:\music\Musicgate's rips\Roy Ayers Ubiquity - Everybody Loves The Sunshine (1976)\05 - The Third Eye.wav
Pre-gap length 0:00:01.82
Peak level 78.0 %
Track quality 100.0 %
Test CRC 29AEB2EC
Copy CRC 29AEB2EC
Accurately ripped (confidence 2) [4CBE188F]
Copy OK
Track 6
Filename D:\music\Musicgate's rips\Roy Ayers Ubiquity - Everybody Loves The Sunshine (1976)\06 - It Ain't Your Sign It's Your Mind.wav
Pre-gap length 0:00:02.82
Peak level 94.0 %
Track quality 100.0 %
Test CRC 1116CAE9
Copy CRC 1116CAE9
Accurately ripped (confidence 2) [4395F13D]
Copy OK
Track 7
Filename D:\music\Musicgate's rips\Roy Ayers Ubiquity - Everybody Loves The Sunshine (1976)\07 - People And The World.wav
Pre-gap length 0:00:02.82
Peak level 82.2 %
Track quality 99.9 %
Test CRC 6741B235
Copy CRC 6741B235
Accurately ripped (confidence 2) [E052A568]
Copy OK
Track 8
Filename D:\music\Musicgate's rips\Roy Ayers Ubiquity - Everybody Loves The Sunshine (1976)\08 - Everybody Loves The Sunshine.wav
Pre-gap length 0:00:02.84
Peak level 95.1 %
Track quality 100.0 %
Test CRC 76366A42
Copy CRC 76366A42
Accurately ripped (confidence 2) [17DCACD2]
Copy OK
Track 9
Filename D:\music\Musicgate's rips\Roy Ayers Ubiquity - Everybody Loves The Sunshine (1976)\09 - Tongue Power.wav
Pre-gap length 0:00:02.84
Peak level 84.7 %
Track quality 100.0 %
Test CRC 6DBD68B6
Copy CRC 6DBD68B6
Accurately ripped (confidence 2) [05032CC0]
Copy OK
Track 10
Filename D:\music\Musicgate's rips\Roy Ayers Ubiquity - Everybody Loves The Sunshine (1976)\10 - Lonesome Cowboy.wav
Pre-gap length 0:00:01.82
Peak level 94.0 %
Track quality 100.0 %
Test CRC 967D29F8
Copy CRC 967D29F8
Accurately ripped (confidence 2) [39251959]
Copy OK
All tracks accurately ripped
No errors occurred
End of status report
 
Tau analyzer screenshoot
Я не сидирую все свои раздачи подолгу, только новые (до 3х первых сидов)
За своими раздачами не слежу, и старые топики не читаю - если нет сидов или раздача находится в архиве, пришлите письмо, и я вернусь
Предлагаю скачавшим максимально долго оставаться на раздаче - весь рейтинг будет ваш.
Заботьтесь о своем рейтинге - конвертируйте в мп3 и выкладывайте в соответствующем разделе
Приватный:
Нет (DHT включён)
Размер:
256.11 Мб (268,551,773 байт) » файлов: 21
Участники:
0 раздают, 0 качают (0 участников всего)
Внешние участники:
5 раздают, 1 качают (6 участников всего) [ Обновить ]
Никого нет на раздаче - пишите личное сообщение M0p94ok
No seeders - write personal message to M0p94ok
04:09
18
Нет комментариев. Ваш будет первым!