Поиск

(Jazz-Funk,Bass) Willi Langer- The Course Of Life - 2001, APE (image+.cue), lossless

Треклист:
Willi Langer- The Course Of Life
Жанр: Jazz-Funk,Bass
Год выпуска диска: 2001
Производитель диска: Jive Music/Austria/
Аудио кодек: APE
Тип рипа: image+.cue
Битрейт аудио: lossless
Продолжительность: 01:01:57
Трэклист:
1.Hate To Be Late
2.All Around The World
3.Hold That Thought
4.84 & More
5.Life Is Hard To Take, Sometimes
6.Where Spirits Dance
7.Never Miss Your Wedding Dance
8.Thank You, Father !
9.F -1 - Weekend
10.Runnin through A Nightmare
11.Max Relax
Доп. информация: Musiciant:
Willi Langer-bass.
Gerald Gratzer-drums,Hannes treiber-keyboards,Wesley Plass-guitar,
Martin Fuss-sax,Bumi Fian-trumpet,Christian Radovan-trombone,
Ada Dyer-vocals,Dirk Erchinger-drums,Stephan Maass-percussion,
Dieter Kolbeck-keyboards,Peter Count Legat-guitar,Tom Lang-drums,
Rens Newland-guitar,Thomas Kugi-sax,Flip Philipp-vibraphone,
Hanness Treiber-keyboards,Oliver Gattringer-drums,Reinhard Theiser-voice,
Klaus Dickbauer-sax.
В проекте принимает участие один из лучших барабанщиков/Thomas Lang/
Рип из личного архива.
 
Отчёт EAC
Exact Audio Copy V0.99 prebeta 4 from 23. January 2008
Отчёт EAC об извлечении, выполненном 6. апреля 2010, 23:59
Willi Langer / The Course Of Life
Дисковод: _NEC DVD_RW ND-2510A Adapter: 1 ID: 0
Режим чтения : Достоверность
Использование точного потока : Да
Отключение кэша аудио : Да
Использование указателей C2 : Нет
Коррекция смещения при чтении : 48
Способность читать области Lead-in и Lead-out : Нет
Заполнение пропущенных сэмплов тишиной : Да
Удаление блоков с тишиной в начале и конце : Нет
При вычислениях CRC использовались нулевые сэмплы : Да
Интерфейс : Установленный внешний ASPI-интерфейс
Выходной формат : Внутренние WAV-операции
Формат сэмплов : 44.100 Гц; 16 бит; стерео
TOC извлечённого CD
Трек | Старт | Длительность | Начальный сектор | Конечный сектор
---------------------------------------------------------------------
1 | 0:00.00 | 6:07.44 | 0 | 27568
2 | 6:07.44 | 6:18.15 | 27569 | 55933
3 | 12:25.59 | 5:18.35 | 55934 | 79818
4 | 17:44.19 | 6:26.46 | 79819 | 108814
5 | 24:10.65 | 5:24.66 | 108815 | 133180
6 | 29:35.56 | 5:25.65 | 133181 | 157620
7 | 35:01.46 | 5:57.61 | 157621 | 184456
8 | 40:59.32 | 5:52.36 | 184457 | 210892
9 | 46:51.68 | 5:24.22 | 210893 | 235214
10 | 52:16.15 | 4:39.08 | 235215 | 256147
11 | 56:55.23 | 5:02.18 | 256148 | 278815
Характеристики диапазона извлечения и сообщения об ошибках
Выбранный диапазон
Имя файла E:\ПРОЕКТ\Willi Langer-The course of Life 2001\Willi Langer - The Course Of Life.wav
Пиковый уровень 97.7 %
Качество диапазона 100.0 %
CRC теста B3BDB07E
CRC копии B3BDB07E
Копирование... OK
Ошибок не произошло
AccurateRip: сводка
Трек 1 нет в базе данных
Трек 2 нет в базе данных
Трек 3 нет в базе данных
Трек 4 нет в базе данных
Трек 5 нет в базе данных
Трек 6 нет в базе данных
Трек 7 нет в базе данных
Трек 8 нет в базе данных
Трек 9 нет в базе данных
Трек 10 нет в базе данных
Трек 11 нет в базе данных
Ни одного трека нет в базе AccurateRip
Конец отчёта
Приватный:
Нет (DHT включён)
Размер:
411.91 Мб (431,920,454 байт) » файлов: 6
Участники:
0 раздают, 0 качают (0 участников всего)
Внешние участники:
2 раздают, 1 качают (3 участников всего) [ Обновить ]
Никого нет на раздаче - пишите личное сообщение M0p94ok
No seeders - write personal message to M0p94ok
04:04
37
Нет комментариев. Ваш будет первым!