Поиск

(Funk, Soul, Disco) The Commodores - 16 releases (1984-2013), FLAC (image+cue\tracks+.cue), lossless

(Funk, Soul, Disco) The Commodores - 16 releases (1984-2013), FLAC (image+cue\tracks+.cue), lossless
Треклист:
The Commodores
Жанр: Funk, Soul
Аудио кодек: FLAC
Тип рипа: image+cue\tracks+.cue
Битрейт аудио: lossless
Продолжительность: 14:04:16
Источники получения релизов: DVG (rutracker), собственные рипы & xbt
20 01 2018 Nightshift обновлён на Motown'ский
 
1984 - All The Great Love Songs (Motown - 530 051-2)

Продолжительность: 58:34
01. The Commodores - Sweet Love [03:27]
02. The Commodores - Just To Be Close To You [06:24]
03. The Commodores - Easy [04:17]
04. The Commodores - Three Times A Lady [03:38]
05. The Commodores - Say Yeah [03:43]
06. The Commodores - Still [03:46]
07. The Commodores - Lovin' You [04:11]
08. The Commodores - Sail On [04:01]
09. The Commodores - Old-Fashion Love [03:24]
10. The Commodores - Jesus Is Love [04:57]
11. The Commodores - Lady (You Bring Me Up) [04:03]
12. The Commodores - Oh No [03:02]
13. The Commodores - This Love [05:18]
14. The Commodores - Lucy [04:16]
 
log and sheet
 
Log
Exact Audio Copy V0.99 prebeta 5 from 4. May 2009
EAC extraction logfile from 17. February 2010, 20:37
The Commodores / All The Great Love Songs
Used drive : SONY DVD RW DW-D22A Adapter: 0 ID: 0
Read mode : Secure
Utilize accurate stream : Yes
Defeat audio cache : Yes
Make use of C2 pointers : No
Read offset correction : 12
Overread into Lead-In and Lead-Out : No
Fill up missing offset samples with silence : Yes
Delete leading and trailing silent blocks : No
Null samples used in CRC calculations : Yes
Used interface : Native Win32 interface for Win NT & 2000
Gap handling : Appended to previous track
Used output format : User Defined Encoder
Selected bitrate : 128 kBit/s
Quality : High
Add ID3 tag : No
Command line compressor : D:\Program Files\Exact Audio Copy\Flac\flac.exe
Additional command line options : -V -8 -T "artist=%a" -T "title=%t" -T "album=%g" -T "date=%y" -T "tracknumber=%n" -T "genre=%m" %s
TOC of the extracted CD
Track | Start | Length | Start sector | End sector
---------------------------------------------------------
1 | 0:00.00 | 3:27.47 | 0 | 15571
2 | 3:27.47 | 6:24.70 | 15572 | 44441
3 | 9:52.42 | 4:17.53 | 44442 | 63769
4 | 14:10.20 | 3:38.15 | 63770 | 80134
5 | 17:48.35 | 3:43.07 | 80135 | 96866
6 | 21:31.42 | 3:46.50 | 96867 | 113866
7 | 25:18.17 | 4:11.35 | 113867 | 132726
8 | 29:29.52 | 4:01.55 | 132727 | 150856
9 | 33:31.32 | 3:24.35 | 150857 | 166191
10 | 36:55.67 | 4:57.15 | 166192 | 188481
11 | 41:53.07 | 4:03.65 | 188482 | 206771
12 | 45:56.72 | 3:02.65 | 206772 | 220486
13 | 48:59.62 | 5:18.10 | 220487 | 244346
14 | 54:17.72 | 4:16.15 | 244347 | 263561
Track 1
Filename 01 - Sweet Love.wav
Pre-gap length 0:00:02.00
Peak level 88.6 %
Track quality 100.0 %
Test CRC 72DA6CB4
Copy CRC 72DA6CB4
Accurately ripped (confidence 4) [FCA308A9]
Copy OK
Track 2
Filename 02 - Just To Be Close To You.wav
Pre-gap length 0:00:01.00
Peak level 66.0 %
Track quality 100.0 %
Test CRC F19814A3
Copy CRC F19814A3
Accurately ripped (confidence 4) [56F897BA]
Copy OK
Track 3
Filename 03 - Easy.wav
Pre-gap length 0:00:01.26
Peak level 94.8 %
Track quality 99.9 %
Test CRC 732F2081
Copy CRC 732F2081
Accurately ripped (confidence 4) [887B8D5F]
Copy OK
Track 4
Filename 04 - Three Times A Lady.wav
Pre-gap length 0:00:00.46
Peak level 91.0 %
Track quality 100.0 %
Test CRC 5EF4CE8B
Copy CRC 5EF4CE8B
Accurately ripped (confidence 4) [0A2BB927]
Copy OK
Track 5
Filename 05 - Say Yeah.wav
Pre-gap length 0:00:00.77
Peak level 76.8 %
Track quality 100.0 %
Test CRC C8937B7B
Copy CRC C8937B7B
Accurately ripped (confidence 4) [60406DB3]
Copy OK
Track 6
Filename 06 - Still.wav
Pre-gap length 0:00:00.56
Peak level 77.6 %
Track quality 100.0 %
Test CRC 258BA9B8
Copy CRC 258BA9B8
Accurately ripped (confidence 4) [0BAC69E4]
Copy OK
Track 7
Filename 07 - Lovin' You.wav
Pre-gap length 0:00:01.80
Peak level 78.9 %
Track quality 100.0 %
Test CRC F73AB996
Copy CRC F73AB996
Accurately ripped (confidence 4) [6F0364B6]
Copy OK
Track 8
Filename 08 - Sail On.wav
Pre-gap length 0:00:01.40
Peak level 78.5 %
Track quality 99.9 %
Test CRC 06EDEB3F
Copy CRC 06EDEB3F
Accurately ripped (confidence 4) [1DB2A6C8]
Copy OK
Track 9
Filename 09 - Old-Fashion Love.wav
Pre-gap length 0:00:01.49
Peak level 100.0 %
Track quality 100.0 %
Test CRC 1D9F8A59
Copy CRC 1D9F8A59
Accurately ripped (confidence 4) [31A65E86]
Copy OK
Track 10
Filename 10 - Jesus Is Love.wav
Pre-gap length 0:00:01.76
Peak level 76.6 %
Track quality 99.9 %
Test CRC FFAEED84
Copy CRC FFAEED84
Accurately ripped (confidence 4) [FE7CBE4A]
Copy OK
Track 11
Filename 11 - Lady (You Bring Me Up).wav
Pre-gap length 0:00:00.73
Peak level 100.0 %
Track quality 100.0 %
Test CRC 263F7892
Copy CRC 263F7892
Accurately ripped (confidence 4) [EE9FB74E]
Copy OK
Track 12
Filename 12 - Oh No.wav
Pre-gap length 0:00:00.62
Peak level 61.6 %
Track quality 100.0 %
Test CRC 45E817DA
Copy CRC 45E817DA
Accurately ripped (confidence 4) [BA56AB99]
Copy OK
Track 13
Filename 13 - This Love.wav
Pre-gap length 0:00:00.80
Peak level 83.0 %
Track quality 99.9 %
Test CRC D866FD22
Copy CRC D866FD22
Accurately ripped (confidence 4) [3F9723C2]
Copy OK
Track 14
Filename 14 - Lucy.wav
Pre-gap length 0:00:00.82
Peak level 93.1 %
Track quality 100.0 %
Test CRC F16EFB3A
Copy CRC F16EFB3A
Accurately ripped (confidence 4) [EA6CFA4B]
Copy OK
All tracks accurately ripped
No errors occurred
End of status report
 
CUE
REM GENRE R&B
REM DATE 1985
REM DISCID B50DBA0E
REM COMMENT "ExactAudioCopy v0.99pb5"
PERFORMER "The Commodores"
TITLE "All the Great Love Songs"
FILE "01 - Sweet Love.wav" WAVE
TRACK 01 AUDIO
TITLE "Sweet Love"
PERFORMER "The Commodores"
INDEX 01 00:00:00
TRACK 02 AUDIO
TITLE "Just To Be Close To You"
PERFORMER "The Commodores"
INDEX 00 03:26:47
FILE "02 - Just To Be Close To You.wav" WAVE
INDEX 01 00:00:00
TRACK 03 AUDIO
TITLE "Easy"
PERFORMER "The Commodores"
INDEX 00 06:23:50
FILE "03 - Easy.wav" WAVE
INDEX 01 00:00:00
TRACK 04 AUDIO
TITLE "Three Times A Lady"
PERFORMER "The Commodores"
INDEX 00 04:17:18
FILE "04 - Three Times A Lady.wav" WAVE
INDEX 01 00:00:00
TRACK 05 AUDIO
TITLE "Say Yeah"
PERFORMER "The Commodores"
INDEX 00 03:37:32
FILE "05 - Say Yeah.wav" WAVE
INDEX 01 00:00:00
TRACK 06 AUDIO
TITLE "Still"
PERFORMER "The Commodores"
INDEX 00 03:42:40
FILE "06 - Still.wav" WAVE
INDEX 01 00:00:00
TRACK 07 AUDIO
TITLE "Lovin' You"
PERFORMER "The Commodores"
INDEX 00 03:44:65
FILE "07 - Lovin' You.wav" WAVE
INDEX 01 00:00:00
TRACK 08 AUDIO
TITLE "Sail On"
PERFORMER "The Commodores"
INDEX 00 04:10:05
FILE "08 - Sail On.wav" WAVE
INDEX 01 00:00:00
TRACK 09 AUDIO
TITLE "Old-Fashion Love"
PERFORMER "The Commodores"
INDEX 00 04:00:18
FILE "09 - Old-Fashion Love.wav" WAVE
INDEX 01 00:00:00
TRACK 10 AUDIO
TITLE "Jesus Is Love"
PERFORMER "The Commodores"
INDEX 00 03:22:53
FILE "10 - Jesus Is Love.wav" WAVE
INDEX 01 00:00:00
TRACK 11 AUDIO
TITLE "Lady (You Bring Me Up)"
PERFORMER "The Commodores"
INDEX 00 04:56:35
FILE "11 - Lady (You Bring Me Up).wav" WAVE
INDEX 01 00:00:00
TRACK 12 AUDIO
TITLE "Oh No"
PERFORMER "The Commodores"
INDEX 00 04:03:18
FILE "12 - Oh No.wav" WAVE
INDEX 01 00:00:00
TRACK 13 AUDIO
TITLE "This Love"
PERFORMER "The Commodores"
INDEX 00 03:02:05
FILE "13 - This Love.wav" WAVE
INDEX 01 00:00:00
TRACK 14 AUDIO
TITLE "Lucy"
PERFORMER "The Commodores"
INDEX 00 05:17:23
FILE "14 - Lucy.wav" WAVE
INDEX 01 00:00:00
 
1985 - Nightshift (ZD72343)
Продолжительность: 39:01
01. Commodores - Animal Instinct [4:50]
02. Commodores - Nightshift [5:07]
03. Commodores - I Keep Running [4:13]
04. Commodores - Lay Back [5:03]
05. Commodores - Slip Of The Tongue [3:54]
06. Commodores - Play This Record Twice [4:27]
07. Commodores - Janet [3:43]
08. Commodores - The Woman In My Life [3:39]
09. Commodores - Lightin' Up The Night [4:07]
 
Log EAC
Exact Audio Copy V1.0 beta 3 from 29. August 2011
EAC extraction logfile from 6. November 2016, 1:51
Commodores / Nightshift
Used drive : ASUS DRW-20B1LT Adapter: 3 ID: 0
Read mode : Secure
Utilize accurate stream : Yes
Defeat audio cache : Yes
Make use of C2 pointers : No
Read offset correction : 6
Overread into Lead-In and Lead-Out : No
Fill up missing offset samples with silence : Yes
Delete leading and trailing silent blocks : No
Null samples used in CRC calculations : Yes
Used interface : Native Win32 interface for Win NT & 2000
Gap handling : Appended to previous track
Used output format : User Defined Encoder
Selected bitrate : 896 kBit/s
Quality : High
Add ID3 tag : No
Command line compressor : C:\Program Files\Exact Audio Copy\Flac\flac.exe
Additional command line options : -8 -V -T "ARTIST=%artist%" -T "TITLE=%title%" -T "ALBUM=%albumtitle%" -T "DATE=%year%" -T "TRACKNUMBER=%tracknr%" -T "GENRE=%genre%" -T "COMMENT=EAC FLAC -8" %source%
TOC of the extracted CD
Track | Start | Length | Start sector | End sector
---------------------------------------------------------
1 | 0:00.32 | 4:49.38 | 32 | 21744
2 | 4:49.70 | 5:06.47 | 21745 | 44741
3 | 9:56.42 | 4:12.60 | 44742 | 63701
4 | 14:09.27 | 5:02.60 | 63702 | 86411
5 | 19:12.12 | 3:53.55 | 86412 | 103941
6 | 23:05.67 | 4:26.40 | 103942 | 123931
7 | 27:32.32 | 3:42.58 | 123932 | 140639
8 | 31:15.15 | 3:38.65 | 140640 | 157054
9 | 34:54.05 | 4:07.35 | 157055 | 175614
Track 1
Filename K:\EACrips\Commodores - Nightshift\01 - Animal Instinct.wav
Pre-gap length 0:00:02.32
Peak level 91.8 %
Extraction speed 3.1 X
Track quality 99.9 %
Test CRC C2B60CF4
Copy CRC C2B60CF4
Accurately ripped (confidence 23) [2F4D977F] (AR v2)
Copy OK
Track 2
Filename K:\EACrips\Commodores - Nightshift\02 - Nightshift.wav
Pre-gap length 0:00:00.18
Peak level 90.8 %
Extraction speed 4.0 X
Track quality 100.0 %
Test CRC 4313B3EB
Copy CRC 4313B3EB
Accurately ripped (confidence 24) [C85083B5] (AR v2)
Copy OK
Track 3
Filename K:\EACrips\Commodores - Nightshift\03 - I Keep Running.wav
Pre-gap length 0:00:01.60
Peak level 95.2 %
Extraction speed 4.2 X
Track quality 100.0 %
Test CRC BFB3F6BB
Copy CRC BFB3F6BB
Accurately ripped (confidence 23) [636ABEDC] (AR v2)
Copy OK
Track 4
Filename K:\EACrips\Commodores - Nightshift\04 - Lay Back.wav
Pre-gap length 0:00:00.72
Peak level 78.7 %
Extraction speed 4.1 X
Track quality 99.9 %
Test CRC 477E8EDD
Copy CRC 477E8EDD
Accurately ripped (confidence 22) [FC6EE0C3] (AR v2)
Copy OK
Track 5
Filename K:\EACrips\Commodores - Nightshift\05 - Slip Of The Tongue.wav
Peak level 89.5 %
Extraction speed 4.0 X
Track quality 99.9 %
Test CRC 1CBF240F
Copy CRC 1CBF240F
Accurately ripped (confidence 22) [225FE854] (AR v2)
Copy OK
Track 6
Filename K:\EACrips\Commodores - Nightshift\06 - Play This Record Twice.wav
Peak level 88.8 %
Extraction speed 5.2 X
Track quality 100.0 %
Test CRC 38FDF350
Copy CRC 38FDF350
Accurately ripped (confidence 23) [CA4F394C] (AR v2)
Copy OK
Track 7
Filename K:\EACrips\Commodores - Nightshift\07 - Janet.wav
Pre-gap length 0:00:00.70
Peak level 92.8 %
Extraction speed 4.3 X
Track quality 99.9 %
Test CRC AE2479BA
Copy CRC AE2479BA
Accurately ripped (confidence 23) [270DA9EA] (AR v2)
Copy OK
Track 8
Filename K:\EACrips\Commodores - Nightshift\08 - The Woman In My Life.wav
Peak level 85.0 %
Extraction speed 5.6 X
Track quality 100.0 %
Test CRC 6D0AB6B7
Copy CRC 6D0AB6B7
Accurately ripped (confidence 24) [F16FDFA8] (AR v2)
Copy OK
Track 9
Filename K:\EACrips\Commodores - Nightshift\09 - Lightin' Up The Night.wav
Pre-gap length 0:00:00.20
Peak level 87.5 %
Extraction speed 5.9 X
Track quality 100.0 %
Test CRC 549650D6
Copy CRC 549650D6
Accurately ripped (confidence 22) [1E5F9B7F] (AR v2)
Copy OK
All tracks accurately ripped
No errors occurred
End of status report
==== Log checksum A95C0309804C1C5F3A8633732B3E4B7168A9C39B9C6BC913FF38D6490E03910A ====
 
CUE
REM GENRE Funk
REM DATE 1985
REM DISCID 88092509
REM COMMENT "ExactAudioCopy v1.0b3"
PERFORMER "Commodores"
TITLE "Nightshift"
FILE "01 - Animal Instinct.wav" WAVE
TRACK 01 AUDIO
TITLE "Animal Instinct"
PERFORMER "Commodores"
PREGAP 00:00:32
INDEX 01 00:00:00
TRACK 02 AUDIO
TITLE "Nightshift"
PERFORMER "Commodores"
INDEX 00 04:49:20
FILE "02 - Nightshift.wav" WAVE
INDEX 01 00:00:00
TRACK 03 AUDIO
TITLE "I Keep Running"
PERFORMER "Commodores"
INDEX 00 05:04:62
FILE "03 - I Keep Running.wav" WAVE
INDEX 01 00:00:00
TRACK 04 AUDIO
TITLE "Lay Back"
PERFORMER "Commodores"
INDEX 00 04:11:63
FILE "04 - Lay Back.wav" WAVE
INDEX 01 00:00:00
FILE "05 - Slip Of The Tongue.wav" WAVE
TRACK 05 AUDIO
TITLE "Slip Of The Tongue"
PERFORMER "Commodores"
INDEX 01 00:00:00
FILE "06 - Play This Record Twice.wav" WAVE
TRACK 06 AUDIO
TITLE "Play This Record Twice"
PERFORMER "Commodores"
INDEX 01 00:00:00
TRACK 07 AUDIO
TITLE "Janet"
PERFORMER "Commodores"
INDEX 00 04:25:45
FILE "07 - Janet.wav" WAVE
INDEX 01 00:00:00
FILE "08 - The Woman In My Life.wav" WAVE
TRACK 08 AUDIO
TITLE "The Woman In My Life"
PERFORMER "Commodores"
INDEX 01 00:00:00
TRACK 09 AUDIO
TITLE "Lightin' Up The Night"
PERFORMER "Commodores"
INDEX 00 03:38:45
FILE "09 - Lightin' Up The Night.wav" WAVE
INDEX 01 00:00:00
 
1986 - United (831194-2)
Продолжительность: 44 min 02 sec
01 - Going' to the Bank [04:20]
02 - Take it from Me [04:02]
03 - United in Love [04:25]
04 - Can't Dance All Night [03:59]
05 - You're the Only Woman I Need [04:42]
06 - Land of the Dreamer [04:28]
07 - Talk to Me [04:45]
08 - I Wanna Rock You [05:24]
09 - Let's Apologize [03:50]
10 - Serious Love [04:02]
 
Log EAC
Exact Audio Copy V0.99 prebeta 5 from 4. May 2009
EAC extraction logfile from 2. February 2010, 22:14
The Commodores / United
Used drive : _NEC DVD_RW ND-4570A Adapter: 2 ID: 0
Read mode : Secure
Utilize accurate stream : Yes
Defeat audio cache : Yes
Make use of C2 pointers : No
Read offset correction : 48
Overread into Lead-In and Lead-Out : No
Fill up missing offset samples with silence : Yes
Delete leading and trailing silent blocks : No
Null samples used in CRC calculations : No
Used interface : Native Win32 interface for Win NT & 2000
Gap handling : Appended to previous track
Used output format : User Defined Encoder
Selected bitrate : 768 kBit/s
Quality : High
Add ID3 tag : No
Command line compressor : C:\Program Files\Exact Audio Copy\FLAC\FLAC.EXE
Additional command line options : -8 -V -T "ARTIST=%a" -T "TITLE=%t" -T "ALBUM=%g" -T "DATE=%y" -T "TRACKNUMBER=%n" -T "GENRE=%m" -T "COMMENT=%e" %s -o %d
TOC of the extracted CD
Track | Start | Length | Start sector | End sector
---------------------------------------------------------
1 | 0:00.33 | 4:20.10 | 33 | 19542
2 | 4:20.43 | 4:02.45 | 19543 | 37737
3 | 8:23.13 | 4:25.62 | 37738 | 57674
4 | 12:49.00 | 3:59.63 | 57675 | 75662
5 | 16:48.63 | 4:42.10 | 75663 | 96822
6 | 21:30.73 | 4:28.22 | 96823 | 116944
7 | 25:59.20 | 4:45.50 | 116945 | 138369
8 | 30:44.70 | 5:24.68 | 138370 | 162737
9 | 36:09.63 | 3:50.72 | 162738 | 180059
10 | 40:00.60 | 4:02.13 | 180060 | 198222
Track 1
Filename C:\01. Going' to the Bank.wav
Pre-gap length 0:00:02.33
Peak level 89.1 %
Track quality 100.0 %
Test CRC 7759A430
Copy CRC 7759A430
Accurately ripped (confidence 5) [9DB9D3D1]
Copy OK
Track 2
Filename C:\02. Take it from Me.wav
Pre-gap length 0:00:01.35
Peak level 83.4 %
Track quality 100.0 %
Test CRC 3944A474
Copy CRC 3944A474
Accurately ripped (confidence 5) [6CCBF248]
Copy OK
Track 3
Filename C:\03. United in Love.wav
Pre-gap length 0:00:01.40
Peak level 66.2 %
Track quality 100.0 %
Test CRC BF50FCE2
Copy CRC BF50FCE2
Accurately ripped (confidence 5) [CA2D22D5]
Copy OK
Track 4
Filename C:\04. Can't Dance All Night.wav
Pre-gap length 0:00:00.27
Peak level 70.0 %
Track quality 100.0 %
Test CRC 5215BEB6
Copy CRC 5215BEB6
Accurately ripped (confidence 5) [F1F23DD6]
Copy OK
Track 5
Filename C:\05. You're the Only Woman I Need.wav
Pre-gap length 0:00:00.40
Peak level 69.3 %
Track quality 100.0 %
Test CRC 54F844CD
Copy CRC 54F844CD
Accurately ripped (confidence 5) [30CC8BCA]
Copy OK
Track 6
Filename C:\06. Land of the Dreamer.wav
Pre-gap length 0:00:00.63
Peak level 71.4 %
Track quality 99.9 %
Test CRC 7F60B2C9
Copy CRC 7F60B2C9
Accurately ripped (confidence 5) [DC3BA465]
Copy OK
Track 7
Filename C:\07. Talk to Me.wav
Peak level 70.5 %
Track quality 100.0 %
Test CRC FBE31FD3
Copy CRC FBE31FD3
Accurately ripped (confidence 5) [E409FD42]
Copy OK
Track 8
Filename C:\08. I Wanna Rock You.wav
Pre-gap length 0:00:01.31
Peak level 62.4 %
Track quality 100.0 %
Test CRC 0F1EB3FA
Copy CRC 0F1EB3FA
Accurately ripped (confidence 5) [94847D8F]
Copy OK
Track 9
Filename C:\09. Let's Apologize.wav
Pre-gap length 0:00:01.33
Peak level 91.3 %
Track quality 100.0 %
Test CRC FBFF8A09
Copy CRC FBFF8A09
Accurately ripped (confidence 5) [960DD141]
Copy OK
Track 10
Filename C:\10. Serious Love.wav
Peak level 90.6 %
Track quality 100.0 %
Test CRC 66ABEEEE
Copy CRC 66ABEEEE
Accurately ripped (confidence 5) [6D54B295]
Copy OK
All tracks accurately ripped
No errors occurred
End of status report
 
CUE
REM GENRE Funk
REM DATE 1986
REM DISCID 680A520A
REM COMMENT "ExactAudioCopy v0.99pb5"
PERFORMER "Commodores"
TITLE "United"
FILE "01. Going' to the Bank.wav" WAVE
TRACK 01 AUDIO
TITLE "Going' to the Bank"
PERFORMER "The Commodores"
PREGAP 00:00:33
INDEX 01 00:00:00
TRACK 02 AUDIO
TITLE "Take it from Me"
PERFORMER "The Commodores"
INDEX 00 04:18:50
FILE "02. Take it from Me.wav" WAVE
INDEX 01 00:00:00
TRACK 03 AUDIO
TITLE "United in Love"
PERFORMER "The Commodores"
INDEX 00 04:01:05
FILE "03. United in Love.wav" WAVE
INDEX 01 00:00:00
TRACK 04 AUDIO
TITLE "Can't Dance All Night"
PERFORMER "The Commodores"
INDEX 00 04:25:35
FILE "04. Can't Dance All Night.wav" WAVE
INDEX 01 00:00:00
TRACK 05 AUDIO
TITLE "You're the Only Woman I Need"
PERFORMER "The Commodores"
INDEX 00 03:59:23
FILE "05. You're the Only Woman I Need.wav" WAVE
INDEX 01 00:00:00
TRACK 06 AUDIO
TITLE "Land of the Dreamer"
PERFORMER "The Commodores"
INDEX 00 04:41:22
FILE "06. Land of the Dreamer.wav" WAVE
INDEX 01 00:00:00
FILE "07. Talk to Me.wav" WAVE
TRACK 07 AUDIO
TITLE "Talk to Me"
PERFORMER "The Commodores"
INDEX 01 00:00:00
TRACK 08 AUDIO
TITLE "I Wanna Rock You"
PERFORMER "The Commodores"
INDEX 00 04:44:19
FILE "08. I Wanna Rock You.wav" WAVE
INDEX 01 00:00:00
TRACK 09 AUDIO
TITLE "Let's Apologize"
PERFORMER "The Commodores"
INDEX 00 05:23:35
FILE "09. Let's Apologize.wav" WAVE
INDEX 01 00:00:00
FILE "10. Serious Love.wav" WAVE
TRACK 10 AUDIO
TITLE "Serious Love"
PERFORMER "The Commodores"
INDEX 01 00:00:00
 
1988 - Rock Solid (835369-2)
Продолжительность: 53 min 23 sec
01 - Grrip [05:37]
02 - Bump the La La [04:44]
03 - Thank You [05:52]
04 - I'm Gonna Need Your Loving [05:41]
05 - Solitaire [04:47]
06 - Homeless [04:49]
07 - Miracle Man [04:40]
08 - Right Here'n Now [04:00]
09 - Stretchhh [03:48]
10 - Ain't Givin' Up [05:02]
11 - So Nice [04:18]
 
Log EAC
Exact Audio Copy V0.99 prebeta 5 from 4. May 2009
EAC extraction logfile from 1. February 2010, 20:30
Commodores / Rock Solid
Used drive : _NEC DVD_RW ND-4570A Adapter: 2 ID: 0
Read mode : Secure
Utilize accurate stream : Yes
Defeat audio cache : Yes
Make use of C2 pointers : No
Read offset correction : 48
Overread into Lead-In and Lead-Out : No
Fill up missing offset samples with silence : Yes
Delete leading and trailing silent blocks : No
Null samples used in CRC calculations : No
Used interface : Native Win32 interface for Win NT & 2000
Gap handling : Appended to previous track
Used output format : User Defined Encoder
Selected bitrate : 768 kBit/s
Quality : High
Add ID3 tag : No
Command line compressor : C:\Program Files\Exact Audio Copy\FLAC\FLAC.EXE
Additional command line options : -6 -V -T "ARTIST=%a" -T "TITLE=%t" -T "ALBUM=%g" -T "DATE=%y" -T "TRACKNUMBER=%n" -T "GENRE=%m" -T "COMMENT=%e" %s -o %d
TOC of the extracted CD
Track | Start | Length | Start sector | End sector
---------------------------------------------------------
1 | 0:00.32 | 5:37.35 | 32 | 25341
2 | 5:37.67 | 4:44.65 | 25342 | 46706
3 | 10:22.57 | 5:52.65 | 46707 | 73171
4 | 16:15.47 | 5:41.55 | 73172 | 98801
5 | 21:57.27 | 4:47.15 | 98802 | 120341
6 | 26:44.42 | 4:49.38 | 120342 | 142054
7 | 31:34.05 | 4:40.02 | 142055 | 163056
8 | 36:14.07 | 4:00.53 | 163057 | 181109
9 | 40:14.60 | 3:48.50 | 181110 | 198259
10 | 44:03.35 | 5:02.32 | 198260 | 220941
11 | 49:05.67 | 4:18.10 | 220942 | 240301
Track 1
Filename C:\Commodores - Rock Solid - 01 - Grrip.wav
Pre-gap length 0:00:02.32
Peak level 93.1 %
Track quality 100.0 %
Test CRC 079278D3
Copy CRC 079278D3
Accurately ripped (confidence 3) [2AF29344]
Copy OK
Track 2
Filename C:\Commodores - Rock Solid - 02 - Bump the La La.wav
Pre-gap length 0:00:02.32
Peak level 92.6 %
Track quality 100.0 %
Test CRC C3EB1CCA
Copy CRC C3EB1CCA
Accurately ripped (confidence 3) [9D4DBBAF]
Copy OK
Track 3
Filename C:\Commodores - Rock Solid - 03 - Thank You.wav
Pre-gap length 0:00:02.05
Peak level 81.3 %
Track quality 100.0 %
Test CRC 49573AEA
Copy CRC 49573AEA
Accurately ripped (confidence 3) [94DC9639]
Copy OK
Track 4
Filename C:\Commodores - Rock Solid - 04 - I'm gonna need your loving.wav
Pre-gap length 0:00:03.10
Peak level 73.4 %
Track quality 100.0 %
Test CRC CD099076
Copy CRC CD099076
Accurately ripped (confidence 3) [96A89EA8]
Copy OK
Track 5
Filename C:\Commodores - Rock Solid - 05 - Solitaire.wav
Pre-gap length 0:00:02.02
Peak level 63.1 %
Track quality 99.9 %
Test CRC 0BF021BD
Copy CRC 0BF021BD
Accurately ripped (confidence 3) [C4C973EE]
Copy OK
Track 6
Filename C:\Commodores - Rock Solid - 06 - Homeless.wav
Pre-gap length 0:00:02.45
Peak level 42.2 %
Track quality 100.0 %
Test CRC C4841510
Copy CRC C4841510
Accurately ripped (confidence 3) [7722AB79]
Copy OK
Track 7
Filename C:\Commodores - Rock Solid - 07 - Miracle Man.wav
Pre-gap length 0:00:01.47
Peak level 81.8 %
Track quality 100.0 %
Test CRC F1AFC912
Copy CRC F1AFC912
Accurately ripped (confidence 3) [C3BFE983]
Copy OK
Track 8
Filename C:\Commodores - Rock Solid - 08 - Right Here'n Now.wav
Pre-gap length 0:00:02.65
Peak level 65.4 %
Track quality 100.0 %
Test CRC F3027DD1
Copy CRC F3027DD1
Accurately ripped (confidence 3) [0BF364E8]
Copy OK
Track 9
Filename C:\Commodores - Rock Solid - 09 - Stretchhh.wav
Pre-gap length 0:00:02.13
Peak level 72.0 %
Track quality 100.0 %
Test CRC 09CD6D15
Copy CRC 09CD6D15
Accurately ripped (confidence 3) [87F0B4EE]
Copy OK
Track 10
Filename C:\Commodores - Rock Solid - 10 - Ain't Givin' up.wav
Pre-gap length 0:00:01.73
Peak level 69.5 %
Track quality 100.0 %
Test CRC 1BEED340
Copy CRC 1BEED340
Accurately ripped (confidence 3) [7FA7AF3A]
Copy OK
Track 11
Filename C:\Commodores - Rock Solid - 11 - So Nice.wav
Pre-gap length 0:00:01.47
Peak level 76.6 %
Track quality 100.0 %
Test CRC 3A482872
Copy CRC 3A482872
Accurately ripped (confidence 3) [0CAD1117]
Copy OK
All tracks accurately ripped
No errors occurred
End of status report
 
CUE
REM GENRE Soul
REM DATE 1988
REM DISCID AB0C840B
REM COMMENT "ExactAudioCopy v0.99pb5"
PERFORMER "Commodores"
TITLE "Rock Solid"
FILE "01. Grrip.wav" WAVE
TRACK 01 AUDIO
TITLE "Grrip"
PERFORMER "Commodores"
PREGAP 00:00:32
INDEX 01 00:00:00
TRACK 02 AUDIO
TITLE "Bump the La La"
PERFORMER "Commodores"
INDEX 00 05:35:03
FILE "02. Bump the La La.wav" WAVE
INDEX 01 00:00:00
TRACK 03 AUDIO
TITLE "Thank You"
PERFORMER "Commodores"
INDEX 00 04:42:60
FILE "03. Thank You.wav" WAVE
INDEX 01 00:00:00
TRACK 04 AUDIO
TITLE "I'm Gonna Need Your Loving"
PERFORMER "Commodores"
INDEX 00 05:49:55
FILE "04. I'm Gonna Need Your Loving.wav" WAVE
INDEX 01 00:00:00
TRACK 05 AUDIO
TITLE "Solitaire"
PERFORMER "Commodores"
INDEX 00 05:39:53
FILE "05. Solitaire.wav" WAVE
INDEX 01 00:00:00
TRACK 06 AUDIO
TITLE "Homeless"
PERFORMER "Commodores"
INDEX 00 04:44:45
FILE "06. Homeless.wav" WAVE
INDEX 01 00:00:00
TRACK 07 AUDIO
TITLE "Miracle Man"
PERFORMER "Commodores"
INDEX 00 04:47:66
FILE "07. Miracle Man.wav" WAVE
INDEX 01 00:00:00
TRACK 08 AUDIO
TITLE "Right Here'n Now"
PERFORMER "Commodores"
INDEX 00 04:37:12
FILE "08. Right Here'n Now.wav" WAVE
INDEX 01 00:00:00
TRACK 09 AUDIO
TITLE "Stretchhh"
PERFORMER "Commodores"
INDEX 00 03:58:40
FILE "09. Stretchhh.wav" WAVE
INDEX 01 00:00:00
TRACK 10 AUDIO
TITLE "Ain't Givin' Up"
PERFORMER "Commodores"
INDEX 00 03:46:52
FILE "10. Ain't Givin' Up.wav" WAVE
INDEX 01 00:00:00
TRACK 11 AUDIO
TITLE "So Nice"
PERFORMER "Commodores"
INDEX 00 05:00:60
FILE "11. So Nice.wav" WAVE
INDEX 01 00:00:00
 
1991 (1978-1979) - Natural High & Midnight Magic (Motown - ZD72455)

Продолжительность: 01:12:26
01. Commodores - Fire Girl [04:16]
02. Commodores - X-Rated Movie [04:44]
03. Commodores - Flying High [03:52]
04. Commodores - Three Times A Lady [03:39]
05. Commodores - Such A Woman [04:12]
06. Commodores - Say Yeah [03:41]
07. Commodores - I Like What You Do [04:49]
08. Commodores - Visions [04:01]
09. Commodores - Gettin' It [03:46]
10. Commodores - Midnight Magic [05:45]
11. Commodores - You're Special [03:36]
12. Commodores - Still [05:50]
13. Commodores - Wonderland [05:26]
14. Commodores - Sexy Lady [03:36]
15. Commodores - Lovin' You [04:32]
16. Commodores - Sail On [05:36]
17. Commodores - 12:01 A.M. (Reprise) [00:59]
 
log and sheet
 
Log
Exact Audio Copy V0.99 prebeta 5 from 4. May 2009
EAC extraction logfile from 11. March 2010, 20:56
Commodores / Natural High/Midnight Magic
Used drive : ASUS DRW-1608P2 Adapter: 0 ID: 0
Read mode : Secure
Utilize accurate stream : Yes
Defeat audio cache : Yes
Make use of C2 pointers : No
Read offset correction : 48
Overread into Lead-In and Lead-Out : No
Fill up missing offset samples with silence : Yes
Delete leading and trailing silent blocks : No
Null samples used in CRC calculations : Yes
Used interface : Native Win32 interface for Win NT & 2000
Gap handling : Appended to previous track
Used output format : User Defined Encoder
Selected bitrate : 1024 kBit/s
Quality : High
Add ID3 tag : No
Command line compressor : C:\Program Files\FLAC\flac.exe
Additional command line options : -5 -V -T "ARTIST=%a" -T "TITLE=%t" -T "ALBUM=%g" -T "DATE=%y" -T "TRACKNUMBER=%n" -T "GENRE=%m" -T "COMMENT=Ripped for yetiisyou" %s
TOC of the extracted CD
Track | Start | Length | Start sector | End sector
---------------------------------------------------------
1 | 0:00.33 | 4:16.10 | 33 | 19242
2 | 4:16.43 | 4:44.72 | 19243 | 40614
3 | 9:01.40 | 3:52.28 | 40615 | 58042
4 | 12:53.68 | 3:39.32 | 58043 | 74499
5 | 16:33.25 | 4:12.08 | 74500 | 93407
6 | 20:45.33 | 3:41.07 | 93408 | 109989
7 | 24:26.40 | 4:49.60 | 109990 | 131724
8 | 29:16.25 | 4:01.23 | 131725 | 149822
9 | 33:17.48 | 3:46.00 | 149823 | 166772
10 | 37:03.48 | 5:45.35 | 166773 | 192682
11 | 42:49.08 | 3:36.02 | 192683 | 208884
12 | 46:25.10 | 5:50.15 | 208885 | 235149
13 | 52:15.25 | 5:26.55 | 235150 | 259654
14 | 57:42.05 | 3:36.53 | 259655 | 275907
15 | 61:18.58 | 4:32.17 | 275908 | 296324
16 | 65:51.00 | 5:36.18 | 296325 | 321542
17 | 71:27.18 | 0:59.60 | 321543 | 326027
Track 1
Filename E:\!Rips\FUNK @ SOUL\Commodores - Natural High & Midnight Magic (ZD72455)\01 – Fire Girl.wav
Pre-gap length 0:00:02.44
Peak level 91.0 %
Track quality 100.0 %
Test CRC DDEE2A1F
Copy CRC DDEE2A1F
Track not present in AccurateRip database
Copy OK
Track 2
Filename E:\!Rips\FUNK @ SOUL\Commodores - Natural High & Midnight Magic (ZD72455)\02 – X-Rated Movie.wav
Pre-gap length 0:00:01.66
Peak level 95.2 %
Track quality 100.0 %
Test CRC 4120C20E
Copy CRC 4120C20E
Track not present in AccurateRip database
Copy OK
Track 3
Filename E:\!Rips\FUNK @ SOUL\Commodores - Natural High & Midnight Magic (ZD72455)\03 – Flying High.wav
Pre-gap length 0:00:02.00
Peak level 90.0 %
Track quality 100.0 %
Test CRC 82EDC8F3
Copy CRC 82EDC8F3
Track not present in AccurateRip database
Copy OK
Track 4
Filename E:\!Rips\FUNK @ SOUL\Commodores - Natural High & Midnight Magic (ZD72455)\04 – Three Times A Lady.wav
Pre-gap length 0:00:01.33
Peak level 91.0 %
Track quality 100.0 %
Test CRC E489C200
Copy CRC E489C200
Track not present in AccurateRip database
Copy OK
Track 5
Filename E:\!Rips\FUNK @ SOUL\Commodores - Natural High & Midnight Magic (ZD72455)\05 – Such A Woman.wav
Pre-gap length 0:00:01.66
Peak level 95.9 %
Track quality 100.0 %
Test CRC AA2073BA
Copy CRC AA2073BA
Track not present in AccurateRip database
Copy OK
Track 6
Filename E:\!Rips\FUNK @ SOUL\Commodores - Natural High & Midnight Magic (ZD72455)\06 – Say Yeah.wav
Pre-gap length 0:00:01.66
Peak level 68.8 %
Track quality 100.0 %
Test CRC 47F73BAB
Copy CRC 47F73BAB
Track not present in AccurateRip database
Copy OK
Track 7
Filename E:\!Rips\FUNK @ SOUL\Commodores - Natural High & Midnight Magic (ZD72455)\07 – I Like What You Do.wav
Peak level 94.9 %
Track quality 100.0 %
Test CRC D688C5D4
Copy CRC D688C5D4
Track not present in AccurateRip database
Copy OK
Track 8
Filename E:\!Rips\FUNK @ SOUL\Commodores - Natural High & Midnight Magic (ZD72455)\08 – Visions.wav
Pre-gap length 0:00:01.33
Peak level 97.1 %
Track quality 100.0 %
Test CRC 9A683A8F
Copy CRC 9A683A8F
Track not present in AccurateRip database
Copy OK
Track 9
Filename E:\!Rips\FUNK @ SOUL\Commodores - Natural High & Midnight Magic (ZD72455)\09 – Gettin' It.wav
Pre-gap length 0:00:01.60
Peak level 79.2 %
Track quality 100.0 %
Test CRC F19EC3D8
Copy CRC F19EC3D8
Track not present in AccurateRip database
Copy OK
Track 10
Filename E:\!Rips\FUNK @ SOUL\Commodores - Natural High & Midnight Magic (ZD72455)\10 – Midnight Magic.wav
Pre-gap length 0:00:00.60
Peak level 83.2 %
Track quality 100.0 %
Test CRC 719439A9
Copy CRC 719439A9
Track not present in AccurateRip database
Copy OK
Track 11
Filename E:\!Rips\FUNK @ SOUL\Commodores - Natural High & Midnight Magic (ZD72455)\11 – You're Special.wav
Peak level 82.0 %
Track quality 100.0 %
Test CRC 23BDE99D
Copy CRC 23BDE99D
Track not present in AccurateRip database
Copy OK
Track 12
Filename E:\!Rips\FUNK @ SOUL\Commodores - Natural High & Midnight Magic (ZD72455)\12 – Still.wav
Pre-gap length 0:00:01.66
Peak level 89.5 %
Track quality 100.0 %
Test CRC 7737BC06
Copy CRC 7737BC06
Track not present in AccurateRip database
Copy OK
Track 13
Filename E:\!Rips\FUNK @ SOUL\Commodores - Natural High & Midnight Magic (ZD72455)\13 – Wonderland.wav
Pre-gap length 0:00:01.00
Peak level 83.1 %
Track quality 99.9 %
Test CRC 29536128
Copy CRC 29536128
Track not present in AccurateRip database
Copy OK
Track 14
Filename E:\!Rips\FUNK @ SOUL\Commodores - Natural High & Midnight Magic (ZD72455)\14 – Sexy Lady.wav
Pre-gap length 0:00:00.66
Peak level 84.8 %
Track quality 100.0 %
Test CRC FD36A968
Copy CRC FD36A968
Track not present in AccurateRip database
Copy OK
Track 15
Filename E:\!Rips\FUNK @ SOUL\Commodores - Natural High & Midnight Magic (ZD72455)\15 – Lovin' You.wav
Pre-gap length 0:00:00.73
Peak level 68.0 %
Track quality 100.0 %
Test CRC 58421BD0
Copy CRC 58421BD0
Track not present in AccurateRip database
Copy OK
Track 16
Filename E:\!Rips\FUNK @ SOUL\Commodores - Natural High & Midnight Magic (ZD72455)\16 – Sail On.wav
Pre-gap length 0:00:01.00
Peak level 60.9 %
Track quality 100.0 %
Test CRC 9BB03832
Copy CRC 9BB03832
Track not present in AccurateRip database
Copy OK
Track 17
Filename E:\!Rips\FUNK @ SOUL\Commodores - Natural High & Midnight Magic (ZD72455)\17 – 12-01 A.M. (Reprise).wav
Pre-gap length 0:00:02.77
Peak level 83.0 %
Track quality 99.8 %
Test CRC AB8184D2
Copy CRC AB8184D2
Track not present in AccurateRip database
Copy OK
None of the tracks are present in the AccurateRip database
No errors occurred
End of status report
 
CUE
REM DISCID 2710FB11
REM COMMENT "ExactAudioCopy v0.99pb5"
PERFORMER "Commodores"
TITLE "Natural High/Midnight Magic"
FILE "01 – Fire Girl.wav" WAVE
TRACK 01 AUDIO
TITLE "Fire Girl"
PERFORMER "Commodores"
PREGAP 00:00:33
INDEX 01 00:00:00
TRACK 02 AUDIO
TITLE "X-Rated Movie"
PERFORMER "Commodores"
INDEX 00 04:14:35
FILE "02 – X-Rated Movie.wav" WAVE
INDEX 01 00:00:00
TRACK 03 AUDIO
TITLE "Flying High"
PERFORMER "Commodores"
INDEX 00 04:42:72
FILE "03 – Flying High.wav" WAVE
INDEX 01 00:00:00
TRACK 04 AUDIO
TITLE "Three Times A Lady"
PERFORMER "Commodores"
INDEX 00 03:51:03
FILE "04 – Three Times A Lady.wav" WAVE
INDEX 01 00:00:00
TRACK 05 AUDIO
TITLE "Such A Woman"
PERFORMER "Commodores"
INDEX 00 03:37:57
FILE "05 – Such A Woman.wav" WAVE
INDEX 01 00:00:00
TRACK 06 AUDIO
TITLE "Say Yeah"
PERFORMER "Commodores"
INDEX 00 04:10:33
FILE "06 – Say Yeah.wav" WAVE
INDEX 01 00:00:00
FILE "07 – I Like What You Do.wav" WAVE
TRACK 07 AUDIO
TITLE "I Like What You Do"
PERFORMER "Commodores"
INDEX 01 00:00:00
TRACK 08 AUDIO
TITLE "Visions"
PERFORMER "Commodores"
INDEX 00 04:48:35
FILE "08 – Visions.wav" WAVE
INDEX 01 00:00:00
TRACK 09 AUDIO
TITLE "Gettin' It"
PERFORMER "Commodores"
INDEX 00 03:59:53
FILE "09 – Gettin' It.wav" WAVE
INDEX 01 00:00:00
TRACK 10 AUDIO
TITLE "Midnight Magic"
PERFORMER "Commodores"
INDEX 00 03:45:30
FILE "10 – Midnight Magic.wav" WAVE
INDEX 01 00:00:00
FILE "11 – You're Special.wav" WAVE
TRACK 11 AUDIO
TITLE "You're Special"
PERFORMER "Commodores"
INDEX 01 00:00:00
TRACK 12 AUDIO
TITLE "Still"
PERFORMER "Commodores"
INDEX 00 03:34:27
FILE "12 – Still.wav" WAVE
INDEX 01 00:00:00
TRACK 13 AUDIO
TITLE "Wonderland"
PERFORMER "Commodores"
INDEX 00 05:49:15
FILE "13 – Wonderland.wav" WAVE
INDEX 01 00:00:00
TRACK 14 AUDIO
TITLE "Sexy Lady"
PERFORMER "Commodores"
INDEX 00 05:26:05
FILE "14 – Sexy Lady.wav" WAVE
INDEX 01 00:00:00
TRACK 15 AUDIO
TITLE "Lovin' You"
PERFORMER "Commodores"
INDEX 00 03:35:73
FILE "15 – Lovin' You.wav" WAVE
INDEX 01 00:00:00
TRACK 16 AUDIO
TITLE "Sail On"
PERFORMER "Commodores"
INDEX 00 04:31:17
FILE "16 – Sail On.wav" WAVE
INDEX 01 00:00:00
TRACK 17 AUDIO
TITLE "12:01 A.M. (Reprise)"
PERFORMER "Commodores"
INDEX 00 05:33:35
FILE "17 – 12-01 A.M. (Reprise).wav" WAVE
INDEX 01 00:00:00
 
1992 (1977) - The Commodores (Motown - 3746352222)

Продолжительность: 38:35
01. The Commodores - Squeeze The Fruit [02:59]
02. The Commodores - Funny Feelings [04:51]
03. The Commodores - Heaven Knows [04:45]
04. The Commodores - Zoom [06:44]
05. The Commodores - Won't You Come Dance With Me [03:48]
06. The Commodores - Brick House [03:28]
07. The Commodores - Funky Situation [03:41]
08. The Commodores - Patch It Up [03:59]
09. The Commodores - Easy [04:16]
 
log and sheet
 
Log
Exact Audio Copy V0.99 prebeta 3 from 28. July 2007
EAC extraction logfile from 4. July 2009, 19:01
The Commodores / The Commodores
Used drive : TSSTcorpCDDVDW SN-S083B Adapter: 2 ID: 0
Read mode : Secure
Utilize accurate stream : Yes
Defeat audio cache : Yes
Make use of C2 pointers : No
Read offset correction : 6
Overread into Lead-In and Lead-Out : No
Fill up missing offset samples with silence : Yes
Delete leading and trailing silent blocks : No
Null samples used in CRC calculations : Yes
Used interface : Installed external ASPI interface
Gap handling : Appended to previous track
Used output format : User Defined Encoder
Selected bitrate : 768 kBit/s
Quality : High
Add ID3 tag : No
Command line compressor : C:\Program Files\Exact Audio Copy\FLAC\FLAC.EXE
Additional command line options : -8 -V -T "ARTIST=%a" -T "TITLE=%t" -T "ALBUM=%g" -T "DATE=%y" -T "TRACKNUMBER=%n" -T "TOTALTRACKS=%x" -T "GENRE=%m" -T "ALBUMARTIST=%v" -T "ALBUM ARTIST=%v" -T "COMMENT=EAC V0.99 prebeta 4, Secure Mode, Test & Copy, Accurat
TOC of the extracted CD
Track | Start | Length | Start sector | End sector
---------------------------------------------------------
1 | 0:00.00 | 2:59.37 | 0 | 13461
2 | 2:59.37 | 4:51.35 | 13462 | 35321
3 | 7:50.72 | 4:45.20 | 35322 | 56716
4 | 12:36.17 | 6:44.10 | 56717 | 87026
5 | 19:20.27 | 3:48.73 | 87027 | 104199
6 | 23:09.25 | 3:28.67 | 104200 | 119866
7 | 26:38.17 | 3:41.48 | 119867 | 136489
8 | 30:19.65 | 3:59.45 | 136490 | 154459
9 | 34:19.35 | 4:16.32 | 154460 | 173691
Track 1
Filename C:\Addis is killing my HDD\01 - Squeeze The Fruit.wav
Pre-gap length 0:00:02.00
Peak level 98.8 %
Track quality 100.0 %
Test CRC 251A2960
Copy CRC 251A2960
Track not present in AccurateRip database
Copy OK
Track 2
Filename C:\Addis is killing my HDD\02 - Funny Feelings.wav
Peak level 100.0 %
Track quality 100.0 %
Test CRC 80B4E688
Copy CRC 80B4E688
Track not present in AccurateRip database
Copy OK
Track 3
Filename C:\Addis is killing my HDD\03 - Heaven Knows.wav
Peak level 100.0 %
Track quality 99.9 %
Test CRC 3AE518C9
Copy CRC 3AE518C9
Track not present in AccurateRip database
Copy OK
Track 4
Filename C:\Addis is killing my HDD\04 - Zoom.wav
Pre-gap length 0:00:00.33
Peak level 100.0 %
Track quality 99.9 %
Test CRC 6C8EB092
Copy CRC 6C8EB092
Track not present in AccurateRip database
Copy OK
Track 5
Filename C:\Addis is killing my HDD\05 - Won't You Come Dance With Me.wav
Pre-gap length 0:00:01.26
Peak level 100.0 %
Track quality 100.0 %
Test CRC BC6241F5
Copy CRC BC6241F5
Track not present in AccurateRip database
Copy OK
Track 6
Filename C:\Addis is killing my HDD\06 - Brick House.wav
Pre-gap length 0:00:01.66
Peak level 100.0 %
Track quality 99.9 %
Test CRC A67FF88C
Copy CRC A67FF88C
Track not present in AccurateRip database
Copy OK
Track 7
Filename C:\Addis is killing my HDD\07 - Funky Situation.wav
Pre-gap length 0:00:01.36
Peak level 100.0 %
Track quality 100.0 %
Test CRC E053224F
Copy CRC E053224F
Track not present in AccurateRip database
Copy OK
Track 8
Filename C:\Addis is killing my HDD\08 - Patch It Up.wav
Pre-gap length 0:00:02.10
Peak level 100.0 %
Track quality 100.0 %
Test CRC 90048623
Copy CRC 90048623
Track not present in AccurateRip database
Copy OK
Track 9
Filename C:\Addis is killing my HDD\09 - Easy.wav
Pre-gap length 0:00:01.20
Peak level 98.2 %
Track quality 100.0 %
Test CRC 9EFD09BB
Copy CRC 9EFD09BB
Track not present in AccurateRip database
Copy OK
None of the tracks are present in the AccurateRip database
No errors occurred
End of status report
 
CUE
REM GENRE Funk
REM DATE 1977
REM DISCID 61090B09
REM COMMENT "ExactAudioCopy v0.99pb3"
PERFORMER "The Commodores"
TITLE "The Commodores"
FILE "01 - Squeeze The Fruit.wav" WAVE
TRACK 01 AUDIO
TITLE "Squeeze The Fruit"
PERFORMER "The Commodores"
INDEX 01 00:00:00
FILE "02 - Funny Feelings.wav" WAVE
TRACK 02 AUDIO
TITLE "Funny Feelings"
PERFORMER "The Commodores"
INDEX 01 00:00:00
FILE "03 - Heaven Knows.wav" WAVE
TRACK 03 AUDIO
TITLE "Heaven Knows"
PERFORMER "The Commodores"
INDEX 01 00:00:00
TRACK 04 AUDIO
TITLE "Zoom"
PERFORMER "The Commodores"
INDEX 00 04:44:70
FILE "04 - Zoom.wav" WAVE
INDEX 01 00:00:00
TRACK 05 AUDIO
TITLE "Won't You Come Dance With Me"
PERFORMER "The Commodores"
INDEX 00 06:42:65
FILE "05 - Won't You Come Dance With Me.wav" WAVE
INDEX 01 00:00:00
TRACK 06 AUDIO
TITLE "Brick House"
PERFORMER "The Commodores"
INDEX 00 03:47:23
FILE "06 - Brick House.wav" WAVE
INDEX 01 00:00:00
TRACK 07 AUDIO
TITLE "Funky Situation"
PERFORMER "The Commodores"
INDEX 00 03:27:40
FILE "07 - Funky Situation.wav" WAVE
INDEX 01 00:00:00
TRACK 08 AUDIO
TITLE "Patch It Up"
PERFORMER "The Commodores"
INDEX 00 03:39:40
FILE "08 - Patch It Up.wav" WAVE
INDEX 01 00:00:00
TRACK 09 AUDIO
TITLE "Easy"
PERFORMER "The Commodores"
INDEX 00 03:58:30
FILE "09 - Easy.wav" WAVE
INDEX 01 00:00:00
 
1997 - The Ultimate Collection (314 530 501-2)
Продолжительность: 75 min 01 sec
01 - Machine Gun [02:38]
02 - Slippery When Wet [03:17]
03 - Sweet Love [06:33]
04 - Just To Be Close To You [06:21]
05 - Fancy Dancer [04:22]
06 - Girl, I Think The World About You [04:33]
07 - Easy [04:15]
08 - Zoom [06:38]
09 - Brick House [03:26]
10 - Too Hot Ta Trot [05:36]
11 - Three Times A Lady [06:38]
12 - Still [05:48]
13 - Old-fashion Love [04:58]
14 - Lady (You Bring Me Up) [04:49]
15 - Nightshift [05:03]
 
Log EAC
Exact Audio Copy V0.99 prebeta 5 from 4. May 2009
Отчёт EAC об извлечении, выполненном 5. апреля 2010, 23:50
The Commodores / The Ultimate Collection
Дисковод: ASUS DRW-2014L1 Adapter: 0 ID: 1
Режим чтения : Достоверность
Использование точного потока : Да
Отключение кэша аудио : Да
Использование указателей C2 : Нет
Коррекция смещения при чтении : 6
Способность читать области Lead-in и Lead-out : Да
Заполнение пропущенных сэмплов тишиной : Да
Удаление блоков с тишиной в начале и конце : Нет
При вычислениях CRC использовались нулевые сэмплы : Да
Интерфейс : Встроенный Win32-интерфейс для Win NT/2000
Выходной формат : Пользовательский кодировщик
Выбранный битрейт : 1024 kBit/s
Качество : Высокий
Добавление ID3-тэга : Нет
Утилита сжатия : C:\Program Files\Exact Audio Copy\FLAC\FLAC.EXE
Дополнительные параметры : -8 -V %s
TOC извлечённого CD
Трек | Старт | Длительность | Начальный сектор | Конечный сектор
---------------------------------------------------------------------
1 | 0:00.00 | 2:38.34 | 0 | 11883
2 | 2:38.34 | 3:17.20 | 11884 | 26678
3 | 5:55.54 | 6:33.40 | 26679 | 56193
4 | 12:29.19 | 6:21.38 | 56194 | 84806
5 | 18:50.57 | 4:22.56 | 84807 | 104512
6 | 23:13.38 | 4:33.11 | 104513 | 124998
7 | 27:46.49 | 4:15.01 | 124999 | 144124
8 | 32:01.50 | 6:38.03 | 144125 | 173977
9 | 38:39.53 | 3:26.38 | 173978 | 189465
10 | 42:06.16 | 5:36.31 | 189466 | 214696
11 | 47:42.47 | 6:38.38 | 214697 | 244584
12 | 54:21.10 | 5:48.11 | 244585 | 270695
13 | 60:09.21 | 4:58.18 | 270696 | 293063
14 | 65:07.39 | 4:49.56 | 293064 | 314794
15 | 69:57.20 | 5:03.70 | 314795 | 337589
Характеристики диапазона извлечения и сообщения об ошибках
Выбранный диапазон
Имя файла C:\Commodores\1997 - The Ultimate Collection.wav
Пиковый уровень 98.8 %
Качество диапазона 100.0 %
CRC теста 9EB51E6C
CRC копии 9EB51E6C
Копирование... OK
Ошибок не произошло
AccurateRip: сводка
Ни одного трека нет в базе AccurateRip
Конец отчёта
 
CUE
REM GENRE Funk
REM DATE 1997
REM DISCID D411950F
REM COMMENT "ExactAudioCopy v0.99pb5"
PERFORMER "The Commodores"
TITLE "The Ultimate Collection"
FILE "1997 - The Ultimate Collection.flac" WAVE
TRACK 01 AUDIO
TITLE "Machine Gun"
PERFORMER "The Commodores"
INDEX 01 00:00:00
TRACK 02 AUDIO
TITLE "Slippery When Wet"
PERFORMER "The Commodores"
INDEX 01 02:38:34
TRACK 03 AUDIO
TITLE "Sweet Love"
PERFORMER "The Commodores"
INDEX 01 05:55:54
TRACK 04 AUDIO
TITLE "Just To Be Close To You"
PERFORMER "The Commodores"
INDEX 01 12:29:19
TRACK 05 AUDIO
TITLE "Fancy Dancer"
PERFORMER "The Commodores"
INDEX 01 18:50:57
TRACK 06 AUDIO
TITLE "Girl, I Think The World About You"
PERFORMER "The Commodores"
INDEX 01 23:13:38
TRACK 07 AUDIO
TITLE "Easy"
PERFORMER "The Commodores"
INDEX 01 27:46:49
TRACK 08 AUDIO
TITLE "Zoom"
PERFORMER "The Commodores"
INDEX 01 32:01:50
TRACK 09 AUDIO
TITLE "Brick House"
PERFORMER "The Commodores"
INDEX 01 38:39:53
TRACK 10 AUDIO
TITLE "Too Hot Ta Trot"
PERFORMER "The Commodores"
INDEX 01 42:06:16
TRACK 11 AUDIO
TITLE "Three Times A Lady"
PERFORMER "The Commodores"
INDEX 01 47:42:47
TRACK 12 AUDIO
TITLE "Still"
PERFORMER "The Commodores"
INDEX 01 54:21:10
TRACK 13 AUDIO
TITLE "Old-fashion Love"
PERFORMER "The Commodores"
INDEX 01 60:09:21
TRACK 14 AUDIO
TITLE "Lady (You Bring Me Up)"
PERFORMER "The Commodores"
INDEX 01 65:07:39
TRACK 15 AUDIO
TITLE "Nightshift"
PERFORMER "The Commodores"
INDEX 01 69:57:20
 
1975 - Caught In the Act (374 635 240-2) (1991 remaster)
Продолжительность 38 Min 12 sec
[03:32] 01. Wide Open
[03:20] 02. Slippery When Wet
[02:53] 03. The Bump
[03:24] 04. I'm Ready
[05:53] 05. This Is Your Life
[03:45] 06. Let's Do It Right
[03:50] 07. Better Never Than Forever
[03:56] 08. Look What You've Done To Me
[06:33] 09. You Don't Know That I Know
[01:00] 10. Wide Open (Reprise)

 
Log EAC
Exact Audio Copy V0.99 prebeta 5 from 4. May 2009
Отчёт EAC об извлечении, выполненном 5. апреля 2010, 14:04
Commodores / Caught In The Act
Дисковод: ASUS DRW-2014L1 Adapter: 0 ID: 1
Режим чтения : Достоверность
Использование точного потока : Да
Отключение кэша аудио : Да
Использование указателей C2 : Нет
Коррекция смещения при чтении : 6
Способность читать области Lead-in и Lead-out : Да
Заполнение пропущенных сэмплов тишиной : Да
Удаление блоков с тишиной в начале и конце : Нет
При вычислениях CRC использовались нулевые сэмплы : Да
Интерфейс : Встроенный Win32-интерфейс для Win NT/2000
Выходной формат : Пользовательский кодировщик
Выбранный битрейт : 1024 kBit/s
Качество : Высокий
Добавление ID3-тэга : Нет
Утилита сжатия : C:\Program Files\Exact Audio Copy\FLAC\FLAC.EXE
Дополнительные параметры : -8 -V %s
TOC извлечённого CD
Трек | Старт | Длительность | Начальный сектор | Конечный сектор
---------------------------------------------------------------------
1 | 0:00.00 | 3:32.53 | 0 | 15952
2 | 3:32.53 | 3:20.62 | 15953 | 31014
3 | 6:53.40 | 2:53.38 | 31015 | 44027
4 | 9:47.03 | 3:24.55 | 44028 | 59382
5 | 13:11.58 | 5:53.60 | 59383 | 85917
6 | 19:05.43 | 3:45.22 | 85918 | 102814
7 | 22:50.65 | 3:50.15 | 102815 | 120079
8 | 26:41.05 | 3:56.23 | 120080 | 137802
9 | 30:37.28 | 6:33.67 | 137803 | 167344
10 | 37:11.20 | 1:00.65 | 167345 | 171909
Характеристики диапазона извлечения и сообщения об ошибках
Выбранный диапазон
Имя файла C:\Commodores\1975 - Caught In The Act.wav
Пиковый уровень 100.0 %
Качество диапазона 100.0 %
CRC теста 52F51B4F
CRC копии 52F51B4F
Копирование... OK
Ошибок не произошло
AccurateRip: сводка
Трек 1 нет в базе данных
Трек 2 нет в базе данных
Трек 3 нет в базе данных
Трек 4 нет в базе данных
Трек 5 нет в базе данных
Трек 6 нет в базе данных
Трек 7 нет в базе данных
Трек 8 нет в базе данных
Трек 9 нет в базе данных
Трек 10 нет в базе данных
Ни одного трека нет в базе AccurateRip
Конец отчёта
 
CUE
REM GENRE R&B
REM DATE 1975
REM DISCID 7F08F40A
REM COMMENT "ExactAudioCopy v0.99pb5"
PERFORMER "Commodores"
TITLE "Caught In The Act"
FILE "1975 - Caught In The Act.flac" WAVE
TRACK 01 AUDIO
TITLE "Wide Open"
PERFORMER "Commodores"
INDEX 01 00:00:00
TRACK 02 AUDIO
TITLE "Slippery When Wet"
PERFORMER "Commodores"
INDEX 00 03:31:15
INDEX 01 03:32:53
TRACK 03 AUDIO
TITLE "The Bump"
PERFORMER "Commodores"
INDEX 00 06:52:12
INDEX 01 06:53:40
TRACK 04 AUDIO
TITLE "I'm Ready"
PERFORMER "Commodores"
INDEX 00 09:45:38
INDEX 01 09:47:03
TRACK 05 AUDIO
TITLE "This Is Your Life"
PERFORMER "Commodores"
INDEX 00 13:10:09
INDEX 01 13:11:58
TRACK 06 AUDIO
TITLE "Let's Do It Right"
PERFORMER "Commodores"
INDEX 00 19:03:74
INDEX 01 19:05:43
TRACK 07 AUDIO
TITLE "Better Never Than Forever"
PERFORMER "Commodores"
INDEX 00 22:49:42
INDEX 01 22:50:65
TRACK 08 AUDIO
TITLE "Look What You've Done To Me"
PERFORMER "Commodores"
INDEX 00 26:39:31
INDEX 01 26:41:05
TRACK 09 AUDIO
TITLE "You Don't Know That I Know"
PERFORMER "Commodores"
INDEX 00 30:35:73
INDEX 01 30:37:28
TRACK 10 AUDIO
TITLE "Wide Open (Reprise)"
PERFORMER "Commodores"
INDEX 01 37:11:20
 
1998 (1974) - Machine Gun (Motown - 530 935-2)

Продолжительность: 36:07
01. Commodores - Machine Gun [02:41]
02. Commodores - Young Girls Are My Weakness [03:02]
03. Commodores - I Feel Sanctified [03:46]
04. Commodores - Bump [04:10]
05. Commodores - Rapid Fire [03:04]
06. Commodores - Assembly Line [05:12]
07. Commodores - Zoo (The Human Zoo) [03:05]
08. Commodores - Gonna Blow Your Mind [05:42]
09. Commodores - There's a Song in My Heart [02:42]
10. Commodores - Superman [02:38]
 
log and sheet
 
Log
EAC extraction logfile from 4. December 2006, 13:20 for CD
Commodores / Machine Gun
Used drive : ASUS CRW-4816A Adapter: 1 ID: 0
Read mode : Secure with NO C2, accurate stream, disable cache
Read offset correction : 12
Overread into Lead-In and Lead-Out : No
Used output format : Internal WAV Routines
44.100 Hz; 16 Bit; Stereo
Other options :
Fill up missing offset samples with silence : Yes
Delete leading and trailing silent blocks : No
Native Win32 interface for Win NT & 2000
Track 1
Filename C:\Temp\Commodores\01 - Machine Gun.wav
Pre-gap length 0:00:02.00
Peak level 96.4 %
Track quality 100.0 %
Test CRC BA2CF978
Copy CRC BA2CF978
Copy OK
Track 2
Filename C:\Temp\Commodores\02 - Young Girls are My Weakness.wav
Pre-gap length 0:00:01.66
Peak level 100.0 %
Track quality 100.0 %
Test CRC 7FC5931E
Copy CRC 7FC5931E
Copy OK
Track 3
Filename C:\Temp\Commodores\03 - I Feel Sanctified.wav
Pre-gap length 0:00:01.09
Peak level 100.0 %
Track quality 100.0 %
Test CRC A6DB9A40
Copy CRC A6DB9A40
Copy OK
Track 4
Filename C:\Temp\Commodores\04 - The Bump.wav
Pre-gap length 0:00:01.86
Peak level 100.0 %
Track quality 99.9 %
Test CRC 4756747C
Copy CRC 4756747C
Copy OK
Track 5
Filename C:\Temp\Commodores\05 - Rapid Fire.wav
Pre-gap length 0:00:02.29
Peak level 100.0 %
Track quality 100.0 %
Test CRC B1497B2B
Copy CRC B1497B2B
Copy OK
Track 6
Filename C:\Temp\Commodores\06 - The Assembly Line.wav
Pre-gap length 0:00:02.73
Peak level 100.0 %
Track quality 100.0 %
Test CRC 14ABB8EE
Copy CRC 14ABB8EE
Copy OK
Track 7
Filename C:\Temp\Commodores\07 - The Zoo (The Human Zoo).wav
Pre-gap length 0:00:03.69
Peak level 100.0 %
Track quality 100.0 %
Test CRC 44F068D1
Copy CRC 44F068D1
Copy OK
Track 8
Filename C:\Temp\Commodores\08 - Gonna Blow Your Mind.wav
Pre-gap length 0:00:01.53
Peak level 100.0 %
Track quality 100.0 %
Test CRC 381DB08C
Copy CRC 381DB08C
Copy OK
Track 9
Filename C:\Temp\Commodores\09 - There's a Song in My Heart.wav
Pre-gap length 0:00:01.26
Peak level 100.0 %
Track quality 100.0 %
Test CRC 59B1EA0D
Copy CRC 59B1EA0D
Copy OK
Track 10
Filename C:\Temp\Commodores\10 - Superman.wav
Pre-gap length 0:00:01.17
Peak level 100.0 %
Track quality 100.0 %
Test CRC 978C5D74
Copy CRC 978C5D74
Copy OK
No errors occured
End of status report
 
CUE
REM GENRE Funk
REM DATE 1974
REM DISCID 6B08770A
REM COMMENT "ExactAudioCopy v0.95b4"
PERFORMER "Commodores"
TITLE "Machine Gun"
FILE "01 - Machine Gun.wav" WAVE
TRACK 01 AUDIO
TITLE "Machine Gun"
PERFORMER "Commodores"
INDEX 01 00:00:00
TRACK 02 AUDIO
TITLE "Young Girls are My Weakness"
PERFORMER "Commodores"
INDEX 00 02:39:35
FILE "02 - Young Girls are My Weakness.wav" WAVE
INDEX 01 00:00:00
TRACK 03 AUDIO
TITLE "I Feel Sanctified"
PERFORMER "Commodores"
INDEX 00 03:01:45
FILE "03 - I Feel Sanctified.wav" WAVE
INDEX 01 00:00:00
TRACK 04 AUDIO
TITLE "The Bump"
PERFORMER "Commodores"
INDEX 00 03:44:58
FILE "04 - The Bump.wav" WAVE
INDEX 01 00:00:00
TRACK 05 AUDIO
TITLE "Rapid Fire"
PERFORMER "Commodores"
INDEX 00 04:08:30
FILE "05 - Rapid Fire.wav" WAVE
INDEX 01 00:00:00
TRACK 06 AUDIO
TITLE "The Assembly Line"
PERFORMER "Commodores"
INDEX 00 03:01:28
FILE "06 - The Assembly Line.wav" WAVE
INDEX 01 00:00:00
TRACK 07 AUDIO
TITLE "The Zoo (The Human Zoo)"
PERFORMER "Commodores"
INDEX 00 05:08:30
FILE "07 - The Zoo (The Human Zoo).wav" WAVE
INDEX 01 00:00:00
TRACK 08 AUDIO
TITLE "Gonna Blow Your Mind"
PERFORMER "Commodores"
INDEX 00 03:04:18
FILE "08 - Gonna Blow Your Mind.wav" WAVE
INDEX 01 00:00:00
TRACK 09 AUDIO
TITLE "There's a Song in My Heart"
PERFORMER "Commodores"
INDEX 00 05:41:17
FILE "09 - There's a Song in My Heart.wav" WAVE
INDEX 01 00:00:00
TRACK 10 AUDIO
TITLE "Superman"
PERFORMER "Commodores"
INDEX 00 02:41:45
FILE "10 - Superman.wav" WAVE
INDEX 01 00:00:00
 
2001 - Anthology (314 585 088-2)
Продолжительность: 02:31:16
CD 1
01 - Machine Gun [02:41]
02 - I Feel Sanctified [03:47]
03 - Are You Happy [03:08]
04 - The Bump [04:11]
05 - Slippery When Wet [03:21]
06 - This Is Your Life [05:55]
07 - Gimme My Mule [05:16]
08 - Sweet Love [06:36]
09 - Cebu [04:53]
10 - Fancy Dancer [04:28]
11 - High On Sunshine [04:24]
12 - Just To Be Close To You [06:25]
13 - Brick House (12' Version) [06:14]
14 - Zoom [07:06]
15 - Easy [04:51]
CD 2
01 - Come Inside. Live [03:22]
02 - Too Hot Ta Trot [05:41]
03 - Flying High [05:13]
04 - Say Yeah [05:44]
05 - Three Times A Lady [06:42]
06 - Sail On [05:36]
07 - Still [05:51]
08 - Old-Fashion Love [05:00]
09 - Heroes [05:27]
10 - Jesus Is Love [06:08]
11 - Lady (You Bring Me Up) [04:53]
12 - Oh No [03:03]
13 - Painted Picture [04:58]
14 - Lay Back [05:04]
15 - Nightshift [05:04]
 
Log EAC CD 1
Exact Audio Copy V0.99 prebeta 5 from 4. May 2009
Отчёт EAC об извлечении, выполненном 8. сентября 2009, 5:38
The Commodores / Anthology CD1
Дисковод: ASUS DRW-2014L1 Adapter: 0 ID: 1
Режим чтения : Достоверность
Использование точного потока : Да
Отключение кэша аудио : Да
Использование указателей C2 : Нет
Коррекция смещения при чтении : 6
Способность читать области Lead-in и Lead-out : Да
Заполнение пропущенных сэмплов тишиной : Да
Удаление блоков с тишиной в начале и конце : Нет
При вычислениях CRC использовались нулевые сэмплы : Да
Интерфейс : Установленный внешний ASPI-интерфейс
Выходной формат : Пользовательский кодировщик
Выбранный битрейт : 1024 kBit/s
Качество : Высокий
Добавление ID3-тэга : Нет
Утилита сжатия : C:\Program Files\FLAC\flac.exe
Дополнительные параметры : -8 -V %s
TOC извлечённого CD
Трек | Старт | Длительность | Начальный сектор | Конечный сектор
---------------------------------------------------------------------
1 | 0:00.00 | 2:41.68 | 0 | 12142
2 | 2:41.68 | 3:47.55 | 12143 | 29222
3 | 6:29.48 | 3:08.65 | 29223 | 43387
4 | 9:38.38 | 4:11.48 | 43388 | 62260
5 | 13:50.11 | 3:21.51 | 62261 | 77386
6 | 17:11.62 | 5:55.42 | 77387 | 104053
7 | 23:07.29 | 5:16.10 | 104054 | 127763
8 | 28:23.39 | 6:36.50 | 127764 | 157513
9 | 35:00.14 | 4:53.07 | 157514 | 179495
10 | 39:53.21 | 4:28.38 | 179496 | 199633
11 | 44:21.59 | 4:24.02 | 199634 | 219435
12 | 48:45.61 | 6:25.15 | 219436 | 248325
13 | 55:11.01 | 6:14.25 | 248326 | 276400
14 | 61:25.26 | 7:06.25 | 276401 | 308375
15 | 68:31.51 | 4:51.09 | 308376 | 330209
Характеристики диапазона извлечения и сообщения об ошибках
Выбранный диапазон
Имя файла E:\The Commodores\2001 - Anthology CD1.wav
Пиковый уровень 100.0 %
Качество диапазона 100.0 %
CRC теста 94ADB323
CRC копии 94ADB323
Копирование... OK
Ошибок не произошло
AccurateRip: сводка
Трек 1 точное извлечение (доверие 11) [647325BB]
Трек 2 точное извлечение (доверие 11) [CB96642E]
Трек 3 точное извлечение (доверие 11) [661457ED]
Трек 4 точное извлечение (доверие 11) [0A6106EC]
Трек 5 точное извлечение (доверие 11) [5E678185]
Трек 6 точное извлечение (доверие 11) [460AC241]
Трек 7 точное извлечение (доверие 12) [20C7A119]
Трек 8 точное извлечение (доверие 12) [8B683649]
Трек 9 точное извлечение (доверие 11) [113EA008]
Трек 10 точное извлечение (доверие 11) [D9242BEC]
Трек 11 точное извлечение (доверие 12) [FAC66720]
Трек 12 точное извлечение (доверие 11) [E3DB1568]
Трек 13 точное извлечение (доверие 11) [23C432E4]
Трек 14 точное извлечение (доверие 12) [5DA33633]
Трек 15 точное извлечение (доверие 11) [1B1699E0]
Все треки извлечены точно
Конец отчёта
 
CUE
REM GENRE Funk
REM DATE 2001
REM DISCID C411320F
REM COMMENT "ExactAudioCopy v0.99pb5"
PERFORMER "The Commodores"
TITLE "Anthology CD1"
FILE "2001 - Anthology CD1.flac" WAVE
TRACK 01 AUDIO
TITLE "Machine Gun"
PERFORMER "The Commodores"
INDEX 01 00:00:00
TRACK 02 AUDIO
TITLE "I Feel Sanctified"
PERFORMER "The Commodores"
INDEX 01 02:41:68
TRACK 03 AUDIO
TITLE "Are You Happy"
PERFORMER "The Commodores"
INDEX 01 06:29:48
TRACK 04 AUDIO
TITLE "The Bump"
PERFORMER "The Commodores"
INDEX 01 09:38:38
TRACK 05 AUDIO
TITLE "Slippery When Wet"
PERFORMER "The Commodores"
INDEX 01 13:50:11
TRACK 06 AUDIO
TITLE "This Is Your Life"
PERFORMER "The Commodores"
INDEX 01 17:11:62
TRACK 07 AUDIO
TITLE "Gimme My Mule"
PERFORMER "The Commodores"
INDEX 01 23:07:29
TRACK 08 AUDIO
TITLE "Sweet Love"
PERFORMER "The Commodores"
INDEX 01 28:23:39
TRACK 09 AUDIO
TITLE "Cebu"
PERFORMER "The Commodores"
INDEX 01 35:00:14
TRACK 10 AUDIO
TITLE "Fancy Dancer"
PERFORMER "The Commodores"
INDEX 01 39:53:21
TRACK 11 AUDIO
TITLE "High On Sunshine"
PERFORMER "The Commodores"
INDEX 01 44:21:59
TRACK 12 AUDIO
TITLE "Just To Be Close To You"
PERFORMER "The Commodores"
INDEX 01 48:45:61
TRACK 13 AUDIO
TITLE "Brick House (12' Version)"
PERFORMER "The Commodores"
INDEX 01 55:11:01
TRACK 14 AUDIO
TITLE "Zoom"
PERFORMER "The Commodores"
INDEX 01 61:25:26
TRACK 15 AUDIO
TITLE "Easy"
PERFORMER "The Commodores"
INDEX 01 68:31:51
 
Log EAC CD 2
Exact Audio Copy V0.99 prebeta 5 from 4. May 2009
Отчёт EAC об извлечении, выполненном 8. сентября 2009, 6:18
The Commodores / Anthology CD2
Дисковод: ASUS DRW-2014L1 Adapter: 0 ID: 1
Режим чтения : Достоверность
Использование точного потока : Да
Отключение кэша аудио : Да
Использование указателей C2 : Нет
Коррекция смещения при чтении : 6
Способность читать области Lead-in и Lead-out : Да
Заполнение пропущенных сэмплов тишиной : Да
Удаление блоков с тишиной в начале и конце : Нет
При вычислениях CRC использовались нулевые сэмплы : Да
Интерфейс : Установленный внешний ASPI-интерфейс
Выходной формат : Пользовательский кодировщик
Выбранный битрейт : 1024 kBit/s
Качество : Высокий
Добавление ID3-тэга : Нет
Утилита сжатия : C:\Program Files\FLAC\flac.exe
Дополнительные параметры : -8 -V %s
TOC извлечённого CD
Трек | Старт | Длительность | Начальный сектор | Конечный сектор
---------------------------------------------------------------------
1 | 0:00.00 | 3:22.19 | 0 | 15168
2 | 3:22.19 | 5:41.19 | 15169 | 40762
3 | 9:03.38 | 5:13.50 | 40763 | 64287
4 | 14:17.13 | 5:44.26 | 64288 | 90113
5 | 20:01.39 | 6:42.16 | 90114 | 120279
6 | 26:43.55 | 5:36.43 | 120280 | 145522
7 | 32:20.23 | 5:51.28 | 145523 | 171875
8 | 38:11.51 | 5:00.00 | 171876 | 194375
9 | 43:11.51 | 5:27.65 | 194376 | 218965
10 | 48:39.41 | 6:08.30 | 218966 | 246595
11 | 54:47.71 | 4:53.18 | 246596 | 268588
12 | 59:41.14 | 3:03.55 | 268589 | 282368
13 | 62:44.69 | 4:58.57 | 282369 | 304775
14 | 67:43.51 | 5:04.61 | 304776 | 327636
15 | 72:48.37 | 5:04.67 | 327637 | 350503
Характеристики диапазона извлечения и сообщения об ошибках
Выбранный диапазон
Имя файла E:\The Commodores\2001 - Anthology CD2.wav
Пиковый уровень 100.0 %
Качество диапазона 100.0 %
CRC теста 7A176839
CRC копии 7A176839
Копирование... OK
Ошибок не произошло
AccurateRip: сводка
Трек 1 точное извлечение (доверие 11) [5BA2C5F2]
Трек 2 точное извлечение (доверие 11) [CC934FFB]
Трек 3 точное извлечение (доверие 12) [CF617582]
Трек 4 точное извлечение (доверие 12) [32A108D0]
Трек 5 точное извлечение (доверие 12) [B88DDDC7]
Трек 6 точное извлечение (доверие 12) [88554D31]
Трек 7 точное извлечение (доверие 13) [2F446862]
Трек 8 точное извлечение (доверие 13) [84BA5300]
Трек 9 точное извлечение (доверие 12) [3FE5410A]
Трек 10 точное извлечение (доверие 12) [AE9B0393]
Трек 11 точное извлечение (доверие 12) [42373202]
Трек 12 точное извлечение (доверие 11) [AEC4FFA7]
Трек 13 точное извлечение (доверие 11) [AE932D6A]
Трек 14 точность не определена (доверие 11) [8EF22C99], AccurateRip вернул [57A3C2E9]
Трек 15 точность не определена (доверие 11) [04080F1C], AccurateRip вернул [4D83D049]
13 (тринадцать) треков извлечены точно
2 (два) трека не прошли проверку AccurateRip
Не все треки прошли проверку AccurateRip
Конец отчёта
 
CUE
REM GENRE Funk
REM DATE 2001
REM DISCID DB12410F
REM COMMENT "ExactAudioCopy v0.99pb5"
PERFORMER "The Commodores"
TITLE "Anthology CD2"
FILE "2001 - Anthology CD2.flac" WAVE
TRACK 01 AUDIO
TITLE "Come Inside. Live"
PERFORMER "The Commodores"
INDEX 01 00:00:00
TRACK 02 AUDIO
TITLE "Too Hot Ta Trot"
PERFORMER "The Commodores"
INDEX 01 03:22:19
TRACK 03 AUDIO
TITLE "Flying High"
PERFORMER "The Commodores"
INDEX 01 09:03:38
TRACK 04 AUDIO
TITLE "Say Yeah"
PERFORMER "The Commodores"
INDEX 01 14:17:13
TRACK 05 AUDIO
TITLE "Three Times A Lady"
PERFORMER "The Commodores"
INDEX 01 20:01:39
TRACK 06 AUDIO
TITLE "Sail On"
PERFORMER "The Commodores"
INDEX 01 26:43:55
TRACK 07 AUDIO
TITLE "Still"
PERFORMER "The Commodores"
INDEX 01 32:20:23
TRACK 08 AUDIO
TITLE "Old-Fashion Love"
PERFORMER "The Commodores"
INDEX 01 38:11:51
TRACK 09 AUDIO
TITLE "Heroes"
PERFORMER "The Commodores"
INDEX 01 43:11:51
TRACK 10 AUDIO
TITLE "Jesus Is Love"
PERFORMER "The Commodores"
INDEX 01 48:39:41
TRACK 11 AUDIO
TITLE "Lady (You Bring Me Up)"
PERFORMER "The Commodores"
INDEX 01 54:47:71
TRACK 12 AUDIO
TITLE "Oh No"
PERFORMER "The Commodores"
INDEX 01 59:41:14
TRACK 13 AUDIO
TITLE "Painted Picture"
PERFORMER "The Commodores"
INDEX 01 62:44:69
TRACK 14 AUDIO
TITLE "Lay Back"
PERFORMER "The Commodores"
INDEX 01 67:43:51
TRACK 15 AUDIO
TITLE "Nightshift"
PERFORMER "The Commodores"
INDEX 01 72:48:37
 
2001 (1981) - In The Pocket (Motown - 3746354382)

Продолжительность: 37:02
1. The Commodores - Lady (You Bring Me Up) [04:53]
2. The Commodores - Saturday Night [04:57]
3. The Commodores - Keep On Taking Me Higher [05:20]
4. The Commodores - Oh No [03:04]
5. The Commodores - Why You Wanna Try Me [04:37]
6. The Commodores - This Love [05:17]
7. The Commodores - Been Loving You [03:55]
8. The Commodores - Lucy [04:55]
 
log and sheet
 
Log
Exact Audio Copy V1.0 beta 3 from 29. August 2011
EAC extraction logfile from 19. January 2013, 19:54
Commodores / In The Pocket
Used drive : HL-DT-STCD-RW GCE-8526B Adapter: 3 ID: 1
Read mode : Secure
Utilize accurate stream : Yes
Defeat audio cache : Yes
Make use of C2 pointers : No
Read offset correction : 6
Overread into Lead-In and Lead-Out : No
Fill up missing offset samples with silence : Yes
Delete leading and trailing silent blocks : No
Null samples used in CRC calculations : Yes
Used interface : Native Win32 interface for Win NT & 2000
Gap handling : Appended to previous track
Used output format : Internal WAV Routines
Sample format : 44.100 Hz; 16 Bit; Stereo
TOC of the extracted CD
Track | Start | Length | Start sector | End sector
---------------------------------------------------------
1 | 0:00.00 | 4:53.17 | 0 | 21991
2 | 4:53.17 | 4:57.53 | 21992 | 44319
3 | 9:50.70 | 5:20.17 | 44320 | 68336
4 | 15:11.12 | 3:04.23 | 68337 | 82159
5 | 18:15.35 | 4:37.60 | 82160 | 102994
6 | 22:53.20 | 5:17.35 | 102995 | 126804
7 | 28:10.55 | 3:55.60 | 126805 | 144489
8 | 32:06.40 | 4:55.52 | 144490 | 166666
Track 1
Filename D:\Commodores - In The Pocket (1981) [flac]\01 Lady (You Bring Me Up).wav
Pre-gap length 0:00:02.00
Peak level 100.0 %
Extraction speed 3.1 X
Track quality 100.0 %
Test CRC 09F67834
Copy CRC 09F67834
Accurately ripped (confidence 5) [5D2E298E] (AR v1)
Copy OK
Track 2
Filename D:\Commodores - In The Pocket (1981) [flac]\02 Saturday Night.wav
Pre-gap length 0:00:04.00
Peak level 100.0 %
Extraction speed 3.4 X
Track quality 100.0 %
Test CRC CF3CEB17
Copy CRC CF3CEB17
Accurately ripped (confidence 5) [E81CDBD5] (AR v1)
Copy OK
Track 3
Filename D:\Commodores - In The Pocket (1981) [flac]\03 Keep On Taking Me Higher.wav
Pre-gap length 0:00:04.25
Peak level 100.0 %
Extraction speed 3.8 X
Track quality 100.0 %
Test CRC CB7C3F94
Copy CRC CB7C3F94
Accurately ripped (confidence 5) [B224EA77] (AR v1)
Copy OK
Track 4
Filename D:\Commodores - In The Pocket (1981) [flac]\04 Oh No.wav
Pre-gap length 0:00:04.15
Peak level 86.6 %
Extraction speed 3.8 X
Track quality 100.0 %
Test CRC E2D966FA
Copy CRC E2D966FA
Accurately ripped (confidence 5) [4933C550] (AR v1)
Copy OK
Track 5
Filename D:\Commodores - In The Pocket (1981) [flac]\05 Why You Wanna Try Me.wav
Pre-gap length 0:00:03.58
Peak level 100.0 %
Extraction speed 4.2 X
Track quality 100.0 %
Test CRC 619863F3
Copy CRC 619863F3
Accurately ripped (confidence 5) [019E20D7] (AR v1)
Copy OK
Track 6
Filename D:\Commodores - In The Pocket (1981) [flac]\06 This Love.wav
Pre-gap length 0:00:02.28
Peak level 100.0 %
Extraction speed 4.5 X
Track quality 100.0 %
Test CRC BC8B0487
Copy CRC BC8B0487
Accurately ripped (confidence 5) [396481B0] (AR v1)
Copy OK
Track 7
Filename D:\Commodores - In The Pocket (1981) [flac]\07 Been Loving You.wav
Pre-gap length 0:00:03.10
Peak level 100.0 %
Extraction speed 4.6 X
Track quality 100.0 %
Test CRC DE49B437
Copy CRC DE49B437
Accurately ripped (confidence 5) [85D6571F] (AR v1)
Copy OK
Track 8
Filename D:\Commodores - In The Pocket (1981) [flac]\08 Lucy.wav
Pre-gap length 0:00:02.45
Peak level 100.0 %
Extraction speed 4.9 X
Track quality 100.0 %
Test CRC B3189F42
Copy CRC B3189F42
Accurately ripped (confidence 5) [F8AE4D8E] (AR v1)
Copy OK
All tracks accurately ripped
No errors occurred
End of status report
==== Log checksum 5C62F7EC57FC12D18E7A0C02B0A75FD92351F9546AE7061AEDAC55384AC6DD3C ====
 
CUE
REM GENRE "Soul Funk"
REM DATE 1981
REM DISCID 7608AE08
REM COMMENT "ExactAudioCopy v1.0b3"
PERFORMER "Commodores"
TITLE "In The Pocket"
FILE "01 Lady (You Bring Me Up).wav" WAVE
TRACK 01 AUDIO
TITLE "Lady (You Bring Me Up)"
PERFORMER "Commodores"
INDEX 01 00:00:00
TRACK 02 AUDIO
TITLE "Saturday Night"
PERFORMER "Commodores"
INDEX 00 04:49:17
FILE "02 Saturday Night.wav" WAVE
INDEX 01 00:00:00
TRACK 03 AUDIO
TITLE "Keep On Taking Me Higher"
PERFORMER "Commodores"
INDEX 00 04:53:28
FILE "03 Keep On Taking Me Higher.wav" WAVE
INDEX 01 00:00:00
TRACK 04 AUDIO
TITLE "Oh No"
PERFORMER "Commodores"
INDEX 00 05:16:02
FILE "04 Oh No.wav" WAVE
INDEX 01 00:00:00
TRACK 05 AUDIO
TITLE "Why You Wanna Try Me"
PERFORMER "Commodores"
INDEX 00 03:00:40
FILE "05 Why You Wanna Try Me.wav" WAVE
INDEX 01 00:00:00
TRACK 06 AUDIO
TITLE "This Love"
PERFORMER "Commodores"
INDEX 00 04:35:32
FILE "06 This Love.wav" WAVE
INDEX 01 00:00:00
TRACK 07 AUDIO
TITLE "Been Loving You"
PERFORMER "Commodores"
INDEX 00 05:14:25
FILE "07 Been Loving You.wav" WAVE
INDEX 01 00:00:00
TRACK 08 AUDIO
TITLE "Lucy"
PERFORMER "Commodores"
INDEX 00 03:53:15
FILE "08 Lucy.wav" WAVE
INDEX 01 00:00:00
 
2002 - The Collection (Spectrum - 544 983-2)

Продолжительность: 01:08:51
01. The Commodores - Brick house [03:36]
02. The Commodores - I feel sanctified [03:44]
03. The Commodores - The zoo (The human zoo) [03:07]
04. The Commodores - The bump [04:05]
05. The Commodores - Slippery when wet [02:57]
06. The Commodores - Gonna blow your mind [05:40]
07. The Commodores - Gimme my mule [05:08]
08. The Commodores - Cebu [04:51]
09. The Commodores - Fancy dancer [04:27]
10. The Commodores - Squeeze the fruit [02:56]
11. The Commodores - Won't you come dance with me [04:04]
12. The Commodores - Too hot ta trot [03:30]
13. The Commodores - Funky situation [04:02]
14. The Commodores - Flying high [03:49]
15. The Commodores - Wonderland [05:25]
16. The Commodores - X-rated movie [04:44]
17. The Commodores - Machine gun [02:40]
 
log and sheet
 
Log
Exact Audio Copy V0.99 prebeta 3 from 28. July 2007
EAC extraction logfile from 28. December 2009, 22:49
The Commodores / The Collection
Used drive : Optiarc DVD RW AD-7530A Adapter: 1 ID: 0
Read mode : Secure
Utilize accurate stream : Yes
Defeat audio cache : Yes
Make use of C2 pointers : No
Read offset correction : 6
Overread into Lead-In and Lead-Out : No
Fill up missing offset samples with silence : Yes
Delete leading and trailing silent blocks : No
Null samples used in CRC calculations : Yes
Used interface : Native Win32 interface for Win NT & 2000
Gap handling : Appended to previous track
Used output format : User Defined Encoder
Selected bitrate : 1024 kBit/s
Quality : High
Add ID3 tag : No
Command line compressor : C:\Program Files\Exact Audio Copy\Flac\flac.exe
Additional command line options : -V -8 -T "artist=%a" -T "title=%t" -T "album=%g" -T "date=%y" -T "tracknumber=%n" -T "genre=%m" %s
TOC of the extracted CD
Track | Start | Length | Start sector | End sector
---------------------------------------------------------
1 | 0:00.00 | 3:36.46 | 0 | 16245
2 | 3:36.46 | 3:44.71 | 16246 | 33116
3 | 7:21.42 | 3:07.12 | 33117 | 47153
4 | 10:28.54 | 4:05.01 | 47154 | 65529
5 | 14:33.55 | 2:57.73 | 65530 | 78877
6 | 17:31.53 | 5:40.12 | 78878 | 104389
7 | 23:11.65 | 5:08.33 | 104390 | 127522
8 | 28:20.23 | 4:51.12 | 127523 | 149359
9 | 33:11.35 | 4:27.11 | 149360 | 169395
10 | 37:38.46 | 2:56.26 | 169396 | 182621
11 | 40:34.72 | 4:04.39 | 182622 | 200960
12 | 44:39.36 | 3:30.02 | 200961 | 216712
13 | 48:09.38 | 4:02.33 | 216713 | 234895
14 | 52:11.71 | 3:49.31 | 234896 | 252101
15 | 56:01.27 | 5:25.69 | 252102 | 276545
16 | 61:27.21 | 4:44.09 | 276546 | 297854
17 | 66:11.30 | 2:40.30 | 297855 | 309884
Track 1
Filename C:\downloads\Rips\The Commodores - 2002 - The Collection\01 - Brick house.wav
Pre-gap length 0:00:02.00
Peak level 80.7 %
Track quality 100.0 %
Test CRC 4DD913D0
Copy CRC 4DD913D0
Cannot be verified as accurate (confidence 2) [0E07F14F], AccurateRip returned [6BE2D2A3]
Copy OK
Track 2
Filename C:\downloads\Rips\The Commodores - 2002 - The Collection\02 - I feel sanctified.wav
Pre-gap length 0:00:00.76
Peak level 79.0 %
Track quality 100.0 %
Test CRC 65BF6365
Copy CRC 65BF6365
Cannot be verified as accurate (confidence 2) [9AE6B8D2], AccurateRip returned [8A9995C4]
Copy OK
Track 3
Filename C:\downloads\Rips\The Commodores - 2002 - The Collection\03 - The zoo (The human zoo).wav
Pre-gap length 0:00:00.76
Peak level 71.2 %
Track quality 100.0 %
Test CRC 2613E5D7
Copy CRC 2613E5D7
Cannot be verified as accurate (confidence 2) [62BAC31C], AccurateRip returned [02F97222]
Copy OK
Track 4
Filename C:\downloads\Rips\The Commodores - 2002 - The Collection\04 - The bump.wav
Pre-gap length 0:00:00.76
Peak level 80.1 %
Track quality 100.0 %
Test CRC AA7DC160
Copy CRC AA7DC160
Cannot be verified as accurate (confidence 2) [E81D3123], AccurateRip returned [1735E33D]
Copy OK
Track 5
Filename C:\downloads\Rips\The Commodores - 2002 - The Collection\05 - Slippery when wet.wav
Pre-gap length 0:00:00.76
Peak level 76.2 %
Track quality 99.9 %
Test CRC F86442F9
Copy CRC F86442F9
Cannot be verified as accurate (confidence 2) [26C23E30], AccurateRip returned [DF477B94]
Copy OK
Track 6
Filename C:\downloads\Rips\The Commodores - 2002 - The Collection\06 - Gonna blow your mind.wav
Pre-gap length 0:00:00.76
Peak level 71.3 %
Track quality 100.0 %
Test CRC AB7B0D94
Copy CRC AB7B0D94
Cannot be verified as accurate (confidence 2) [D560F03B], AccurateRip returned [81890055]
Copy OK
Track 7
Filename C:\downloads\Rips\The Commodores - 2002 - The Collection\07 - Gimme my mule.wav
Pre-gap length 0:00:00.76
Peak level 80.9 %
Track quality 100.0 %
Test CRC 72BA61C1
Copy CRC 72BA61C1
Cannot be verified as accurate (confidence 2) [63C5FF95], AccurateRip returned [5DF25EA9]
Copy OK
Track 8
Filename C:\downloads\Rips\The Commodores - 2002 - The Collection\08 - Cebu.wav
Pre-gap length 0:00:00.76
Peak level 79.6 %
Track quality 100.0 %
Test CRC 31611AA3
Copy CRC 31611AA3
Cannot be verified as accurate (confidence 2) [F4AA0119], AccurateRip returned [59CB1E8D]
Copy OK
Track 9
Filename C:\downloads\Rips\The Commodores - 2002 - The Collection\09 - Fancy dancer.wav
Pre-gap length 0:00:00.76
Peak level 84.0 %
Track quality 100.0 %
Test CRC A39435C3
Copy CRC A39435C3
Cannot be verified as accurate (confidence 2) [DC58F2B9], AccurateRip returned [BAA89E2D]
Copy OK
Track 10
Filename C:\downloads\Rips\The Commodores - 2002 - The Collection\10 - Squeeze the fruit.wav
Pre-gap length 0:00:00.76
Peak level 87.8 %
Track quality 100.0 %
Test CRC A971C9A9
Copy CRC A971C9A9
Cannot be verified as accurate (confidence 2) [C284D67D], AccurateRip returned [8E5C8B2D]
Copy OK
Track 11
Filename C:\downloads\Rips\The Commodores - 2002 - The Collection\11 - Won't you come dance with me.wav
Pre-gap length 0:00:00.76
Peak level 82.2 %
Track quality 100.0 %
Test CRC 434D0489
Copy CRC 434D0489
Cannot be verified as accurate (confidence 2) [DB81C830], AccurateRip returned [821CAE76]
Copy OK
Track 12
Filename C:\downloads\Rips\The Commodores - 2002 - The Collection\12 - Too hot ta trot.wav
Pre-gap length 0:00:00.76
Peak level 82.6 %
Track quality 100.0 %
Test CRC E846E207
Copy CRC E846E207
Cannot be verified as accurate (confidence 2) [2BA3596B], AccurateRip returned [D2820D95]
Copy OK
Track 13
Filename C:\downloads\Rips\The Commodores - 2002 - The Collection\13 - Funky situation.wav
Pre-gap length 0:00:00.76
Peak level 82.7 %
Track quality 100.0 %
Test CRC D156B692
Copy CRC D156B692
Cannot be verified as accurate (confidence 2) [9E2ECD70], AccurateRip returned [9E5BC1CC]
Copy OK
Track 14
Filename C:\downloads\Rips\The Commodores - 2002 - The Collection\14 - Flying high.wav
Pre-gap length 0:00:00.76
Peak level 88.4 %
Track quality 100.0 %
Test CRC 89D59DB0
Copy CRC 89D59DB0
Cannot be verified as accurate (confidence 2) [34CB9E21], AccurateRip returned [13BC760F]
Copy OK
Track 15
Filename C:\downloads\Rips\The Commodores - 2002 - The Collection\15 - Wonderland.wav
Pre-gap length 0:00:00.76
Peak level 86.2 %
Track quality 100.0 %
Test CRC 218413CF
Copy CRC 218413CF
Cannot be verified as accurate (confidence 2) [0F05F99D], AccurateRip returned [8F6710AD]
Copy OK
Track 16
Filename C:\downloads\Rips\The Commodores - 2002 - The Collection\16 - X-rated movie.wav
Pre-gap length 0:00:00.76
Peak level 89.7 %
Track quality 100.0 %
Test CRC 74A9757A
Copy CRC 74A9757A
Cannot be verified as accurate (confidence 2) [28BF8183], AccurateRip returned [BAC28B19]
Copy OK
Track 17
Filename C:\downloads\Rips\The Commodores - 2002 - The Collection\17 - Machine gun.wav
Pre-gap length 0:00:00.76
Peak level 84.7 %
Track quality 99.9 %
Test CRC EC922042
Copy CRC EC922042
Cannot be verified as accurate (confidence 2) [18F11E1D], AccurateRip returned [E5F81883]
Copy OK
No tracks could be verified as accurate
You may have a different pressing from the one(s) in the database
No errors occurred
End of status report
 
CUE
REM GENRE Dance
REM DATE 2002
REM DISCID F5102311
REM COMMENT "ExactAudioCopy v0.99pb3"
FILE "01 - Brick house.wav" WAVE
TRACK 01 AUDIO
INDEX 01 00:00:00
TRACK 02 AUDIO
INDEX 00 03:35:64
FILE "02 - I feel sanctified.wav" WAVE
INDEX 01 00:00:00
TRACK 03 AUDIO
INDEX 00 03:44:14
FILE "03 - The zoo (The human zoo).wav" WAVE
INDEX 01 00:00:00
TRACK 04 AUDIO
INDEX 00 03:06:30
FILE "04 - The bump.wav" WAVE
INDEX 01 00:00:00
TRACK 05 AUDIO
INDEX 00 04:04:19
FILE "05 - Slippery when wet.wav" WAVE
INDEX 01 00:00:00
TRACK 06 AUDIO
INDEX 00 02:57:16
FILE "06 - Gonna blow your mind.wav" WAVE
INDEX 01 00:00:00
TRACK 07 AUDIO
INDEX 00 05:39:30
FILE "07 - Gimme my mule.wav" WAVE
INDEX 01 00:00:00
TRACK 08 AUDIO
INDEX 00 05:07:51
FILE "08 - Cebu.wav" WAVE
INDEX 01 00:00:00
TRACK 09 AUDIO
INDEX 00 04:50:30
FILE "09 - Fancy dancer.wav" WAVE
INDEX 01 00:00:00
TRACK 10 AUDIO
INDEX 00 04:26:29
FILE "10 - Squeeze the fruit.wav" WAVE
INDEX 01 00:00:00
TRACK 11 AUDIO
INDEX 00 02:55:44
FILE "11 - Won't you come dance with me.wav" WAVE
INDEX 01 00:00:00
TRACK 12 AUDIO
INDEX 00 04:03:57
FILE "12 - Too hot ta trot.wav" WAVE
INDEX 01 00:00:00
TRACK 13 AUDIO
INDEX 00 03:29:20
FILE "13 - Funky situation.wav" WAVE
INDEX 01 00:00:00
TRACK 14 AUDIO
INDEX 00 04:01:51
FILE "14 - Flying high.wav" WAVE
INDEX 01 00:00:00
TRACK 15 AUDIO
INDEX 00 03:48:49
FILE "15 - Wonderland.wav" WAVE
INDEX 01 00:00:00
TRACK 16 AUDIO
INDEX 00 05:25:12
FILE "16 - X-rated movie.wav" WAVE
INDEX 01 00:00:00
TRACK 17 AUDIO
INDEX 00 04:43:27
FILE "17 - Machine gun.wav" WAVE
INDEX 01 00:00:00
 
2002 (1977) - Commodores Live! (440 017 214-2)
Продолжительность: 73 min 13 sec
01 - Won't You Come Dance With Me [03:42]
02 - Slippery When Wet [03:02]
03 - Come Inside [03:26]
04 - Just To Be Close To You [07:15]
05 - Funny Feelings [05:19]
06 - Fancy Dancer [04:59]
07 - Sweet Love [08:41]
08 - Zoom [10:19]
09 - Easy [07:29]
10 - I Feel Sanctified [02:56]
11 - Brick House [10:20]
12 - Too Hot Ta Trot (Studio Version) [05:38]

 
Log EAC
Exact Audio Copy V0.99 prebeta 5 from 4. May 2009
Отчёт EAC об извлечении, выполненном 5. апреля 2010, 17:26
Commodores / Live!
Дисковод: ASUS DRW-2014L1 Adapter: 0 ID: 1
Режим чтения : Достоверность
Использование точного потока : Да
Отключение кэша аудио : Да
Использование указателей C2 : Нет
Коррекция смещения при чтении : 6
Способность читать области Lead-in и Lead-out : Да
Заполнение пропущенных сэмплов тишиной : Да
Удаление блоков с тишиной в начале и конце : Нет
При вычислениях CRC использовались нулевые сэмплы : Да
Интерфейс : Встроенный Win32-интерфейс для Win NT/2000
Выходной формат : Пользовательский кодировщик
Выбранный битрейт : 1024 kBit/s
Качество : Высокий
Добавление ID3-тэга : Нет
Утилита сжатия : C:\Program Files\Exact Audio Copy\FLAC\FLAC.EXE
Дополнительные параметры : -8 -V %s
TOC извлечённого CD
Трек | Старт | Длительность | Начальный сектор | Конечный сектор
---------------------------------------------------------------------
1 | 0:00.33 | 3:42.30 | 33 | 16712
2 | 3:42.63 | 3:02.45 | 16713 | 30407
3 | 6:45.33 | 3:26.25 | 30408 | 45882
4 | 10:11.58 | 7:15.50 | 45883 | 78557
5 | 17:27.33 | 5:19.57 | 78558 | 102539
6 | 22:47.15 | 4:59.48 | 102540 | 125012
7 | 27:46.63 | 8:41.45 | 125013 | 164132
8 | 36:28.33 | 10:19.47 | 164133 | 210604
9 | 46:48.05 | 7:29.28 | 210605 | 244307
10 | 54:17.33 | 2:56.60 | 244308 | 257567
11 | 57:14.18 | 10:20.65 | 257568 | 304132
12 | 67:35.08 | 5:38.72 | 304133 | 329554
Характеристики диапазона извлечения и сообщения об ошибках
Выбранный диапазон
Имя файла C:\Commodores\1977 - Live!.wav
Пиковый уровень 83.2 %
Качество диапазона 100.0 %
CRC теста 3E57E0C3
CRC копии 3E57E0C3
Копирование... OK
Ошибок не произошло
AccurateRip: сводка
Трек 1 точное извлечение (доверие 3) [3CB52587]
Трек 2 точное извлечение (доверие 3) [4A9A2A9D]
Трек 3 точное извлечение (доверие 3) [AB6983D2]
Трек 4 точное извлечение (доверие 3) [EE7219E0]
Трек 5 точное извлечение (доверие 3) [63638C69]
Трек 6 точное извлечение (доверие 3) [3E749AFC]
Трек 7 точное извлечение (доверие 3) [43931AA4]
Трек 8 точное извлечение (доверие 3) [4E2AA140]
Трек 9 точное извлечение (доверие 3) [CF33986B]
Трек 10 точное извлечение (доверие 3) [F97F0B65]
Трек 11 точное извлечение (доверие 3) [27B7585A]
Трек 12 точное извлечение (доверие 3) [655000F5]
Все треки извлечены точно
Конец отчёта
 
CUE
REM GENRE Funk
REM DATE 1977
REM DISCID 9F112A0C
REM COMMENT "ExactAudioCopy v0.99pb5"
PERFORMER "Commodores"
TITLE "Live!"
FILE "1977 - Live!.flac" WAVE
TRACK 01 AUDIO
TITLE "Won't You Come Dance With Me"
PERFORMER "Commodores"
INDEX 00 00:00:00
INDEX 01 00:00:33
TRACK 02 AUDIO
TITLE "Slippery When Wet"
PERFORMER "Commodores"
INDEX 00 03:42:55
INDEX 01 03:42:63
TRACK 03 AUDIO
TITLE "Come Inside"
PERFORMER "Commodores"
INDEX 00 06:45:25
INDEX 01 06:45:33
TRACK 04 AUDIO
TITLE "Just To Be Close To You"
PERFORMER "Commodores"
INDEX 00 10:11:50
INDEX 01 10:11:58
TRACK 05 AUDIO
TITLE "Funny Feelings"
PERFORMER "Commodores"
INDEX 00 17:25:47
INDEX 01 17:27:33
TRACK 06 AUDIO
TITLE "Fancy Dancer"
PERFORMER "Commodores"
INDEX 00 22:47:07
INDEX 01 22:47:15
TRACK 07 AUDIO
TITLE "Sweet Love"
PERFORMER "Commodores"
INDEX 00 27:46:55
INDEX 01 27:46:63
TRACK 08 AUDIO
TITLE "Zoom"
PERFORMER "Commodores"
INDEX 00 36:26:35
INDEX 01 36:28:33
TRACK 09 AUDIO
TITLE "Easy"
PERFORMER "Commodores"
INDEX 00 46:47:72
INDEX 01 46:48:05
TRACK 10 AUDIO
TITLE "I Feel Sanctified"
PERFORMER "Commodores"
INDEX 00 54:15:32
INDEX 01 54:17:33
TRACK 11 AUDIO
TITLE "Brick House"
PERFORMER "Commodores"
INDEX 00 57:14:10
INDEX 01 57:14:18
TRACK 12 AUDIO
TITLE "Too Hot Ta Trot (Studio Version)"
PERFORMER "Commodores"
INDEX 00 67:33:24
INDEX 01 67:35:08
Приватный:
Нет (DHT включён)
Размер:
6.19 Гб (6,651,197,972 байт) » файлов: 320
Участники:
0 раздают, 0 качают (0 участников всего)
Внешние участники:
7 раздают, 2 качают (9 участников всего) [ Обновить ]
Нет сидеров - пишите личное сообщение M0p94ok. Не нравятся торренты? Участники группы Pro-jazz Club могут заказать прямую ссылку на скачивание из облака.
No seeders - write a personal message to M0p94ok. Don't like torrents? Members of Pro-jazz Club group can order a direct download link from the cloud.
04:04
27
Нет комментариев. Ваш будет первым!