Поиск

(Jazz, Soul, R&B) Ray Charles - Best of Ray Charles - Hit the road jack - 2004, FLAC (image+.cue), lossless

Треклист:
Best of Ray Charles. Hit the road jack.
Жанр: Jazz, Soul, R&B
Год выпуска диска: 2004
Производитель диска: Россия, SOME WAX
Аудио кодек: FLAC
Тип рипа: image+.cue
Битрейт аудио: lossless
Продолжительность: 1 час 03 минуты 54 секунды
Трэклист:
1. Busted
2. Gejrgia on my mind
3. Hit the road jack
4. Losing hand
5. Unchain my heart
6. Lsurrender dear
7. Sinners prayer
8. I've got a woman
9. A fool for you
10. Drown in my
11 .Hallelujah, i love her so
12. Night time is the right time
13. Whatd i say. Pts 1&2
14. Sticks and stones
15. I can't stop loving you
16. You are my sunshine
17. One mint julep
18. Lets go get stoned
19. Sweet sixteen bars
Доп. информация: Прилагается два файла CUE. Один обычный, другой с (RPG в имени) с установками параметров риплей ган (потрековая нормализация выполненная в программе Foobar).
Подробности процесса извлечения:
 
скрытый текст
Exact Audio Copy V0.99 prebeta 5 from 4. May 2009
Отчёт EAC об извлечении, выполненном 7. апреля 2010, 23:50
Ray Charles / The best of Ray Charles
Дисковод: Optiarc DVD RW AD-5170A Adapter: 1 ID: 0
Режим чтения : Достоверность
Использование точного потока : Да
Отключение кэша аудио : Да
Использование указателей C2 : Нет
Коррекция смещения при чтении : 48
Способность читать области Lead-in и Lead-out : Нет
Заполнение пропущенных сэмплов тишиной : Да
Удаление блоков с тишиной в начале и конце : Нет
При вычислениях CRC использовались нулевые сэмплы : Да
Интерфейс : Встроенный Win32-интерфейс для Win NT/2000
Выходной формат : Пользовательский кодировщик
Выбранный битрейт : 896 kBit/s
Качество : Высокий
Добавление ID3-тэга : Нет
Утилита сжатия : C:\Program Files\Exact Audio Copy\FLAC\FLAC.EXE
Дополнительные параметры : -6 -V -T "ARTIST=%a" -T "TITLE=%t" -T "ALBUM=%g" -T "DATE=%y" -T "TRACKNUMBER=%n" -T "GENRE=%m" -T "COMMENT=%e" %s -o %d
TOC извлечённого CD
Трек | Старт | Длительность | Начальный сектор | Конечный сектор
---------------------------------------------------------------------
1 | 0:00.00 | 2:10.74 | 0 | 9823
2 | 2:10.74 | 3:38.74 | 9824 | 26247
3 | 5:49.73 | 1:58.41 | 26248 | 35138
4 | 7:48.39 | 3:11.66 | 35139 | 49529
5 | 11:00.30 | 2:51.49 | 49530 | 62403
6 | 13:52.04 | 5:05.34 | 62404 | 85312
7 | 18:57.38 | 3:25.30 | 85313 | 100717
8 | 22:22.68 | 2:54.64 | 100718 | 113831
9 | 25:17.57 | 3:07.41 | 113832 | 127897
10 | 28:25.23 | 3:21.22 | 127898 | 142994
11 | 31:46.45 | 2:33.51 | 142995 | 154520
12 | 34:20.21 | 3:24.09 | 154521 | 169829
13 | 37:44.30 | 6:27.51 | 169830 | 198905
14 | 44:12.06 | 2:14.31 | 198906 | 208986
15 | 46:26.37 | 4:12.74 | 208987 | 227960
16 | 50:39.36 | 2:59.72 | 227961 | 241457
17 | 53:39.33 | 3:05.17 | 241458 | 255349
18 | 56:44.50 | 3:03.51 | 255350 | 269125
19 | 59:48.26 | 4:05.46 | 269126 | 287546
Характеристики диапазона извлечения и сообщения об ошибках
Выбранный диапазон
Имя файла E:\Torrents\Ray_Charles-The-best-2004\Ray Charles - The best of Ray Charles.wav
Пиковый уровень 81.2 %
Качество диапазона 100.0 %
CRC копии D7172B51
Копирование... OK
Ошибок не произошло
AccurateRip: сводка
Трек 1 точное извлечение (доверие 1) [530DA472]
Трек 2 точное извлечение (доверие 1) [050D49AF]
Трек 3 точное извлечение (доверие 1) [62797A70]
Трек 4 точное извлечение (доверие 1) [5950C6C4]
Трек 5 точное извлечение (доверие 1) [03C542F6]
Трек 6 точное извлечение (доверие 1) [92EC77FA]
Трек 7 точное извлечение (доверие 1) [48EEDBD0]
Трек 8 точное извлечение (доверие 1) [319623DE]
Трек 9 точное извлечение (доверие 1) [1E861E7D]
Трек 10 точное извлечение (доверие 1) [C6C9C79E]
Трек 11 точное извлечение (доверие 1) [B083C270]
Трек 12 точное извлечение (доверие 1) [C5F1546A]
Трек 13 точное извлечение (доверие 1) [DFC9933D]
Трек 14 точное извлечение (доверие 1) [C6E0EAB7]
Трек 15 точное извлечение (доверие 1) [1E47BD2C]
Трек 16 точное извлечение (доверие 1) [59E934CE]
Трек 17 точное извлечение (доверие 1) [169E962C]
Трек 18 точное извлечение (доверие 1) [5A31AF73]
Трек 19 точное извлечение (доверие 1) [C08B08E4]
Все треки извлечены точно
Конец отчёта
Файл CUE (обычный):
 
скрытый текст
REM GENRE Jazz
REM DATE 2004
REM DISCID F60EF913
REM COMMENT ExactAudioCopy v0.99pb5
PERFORMER "Ray Charles"
TITLE "The best of Ray Charles. Hit the road jack"
FILE "Ray Charles - The best of Ray Charles-Hit the road jack.flac" WAVE
TRACK 01 AUDIO
TITLE "Busted"
INDEX 01 00:00:00
TRACK 02 AUDIO
TITLE "Gejrgia on my mind"
INDEX 01 02:10:74
TRACK 03 AUDIO
TITLE "Hit the road jack"
INDEX 01 05:49:73
TRACK 04 AUDIO
TITLE "Losing hand"
INDEX 01 07:48:39
TRACK 05 AUDIO
TITLE "Unchain my heart"
INDEX 01 11:00:30
TRACK 06 AUDIO
TITLE "Lsurrender dear"
INDEX 01 13:52:04
TRACK 07 AUDIO
TITLE "Sinners prayer"
INDEX 01 18:57:38
TRACK 08 AUDIO
TITLE "I've got a woman"
INDEX 01 22:22:68
TRACK 09 AUDIO
TITLE "A fool for you"
INDEX 01 25:17:57
TRACK 10 AUDIO
TITLE "Drown in my"
INDEX 01 28:25:23
TRACK 11 AUDIO
TITLE "Hallelujah, i love her so"
INDEX 01 31:46:45
TRACK 12 AUDIO
TITLE "Night time is the right time"
INDEX 01 34:20:21
TRACK 13 AUDIO
TITLE "Whatd i say. Pts 1&2"
INDEX 01 37:44:30
TRACK 14 AUDIO
TITLE "Sticks and stones"
INDEX 01 44:12:06
TRACK 15 AUDIO
TITLE "I can't stop loving you"
INDEX 01 46:26:37
TRACK 16 AUDIO
TITLE "You are my sunshine"
INDEX 01 50:39:36
TRACK 17 AUDIO
TITLE "One mint julep"
INDEX 01 53:39:33
TRACK 18 AUDIO
TITLE "Lets go get stoned"
INDEX 01 56:44:50
TRACK 19 AUDIO
TITLE "Sweet sixteen bars"
INDEX 01 59:48:26
Эстрада
Ленни Марлин. Норвежская певица! 2003 ---> http://rutracker.org/forum/viewtopic.php?t=2809627
Ленни Марлин. Норвежская певица! 2005 --->http://rutracker.org/forum/viewtopic.php?t=3373593
Kylie Minogue, Greatest Hits 87-97 [2 CD] ---> http://rutracker.org/forum/viewtopic.php?t=2790652
Ray Charles - Best of Ray Charles ---> http://rutracker.org/forum/viewtopic.php?t=2882759
Vera Lynn - Sincerely Yours: 22 Great Songs ---> http://rutracker.org/forum/viewtopic.php?t=3192246
Д. Жинкин и И.Сидорова. Купил у исполнителей в электрички! Звучание и исполнение супер! ---> http://rutracker.org/forum/viewtopic.php?t=2743989
AC/DC. The Best [2 CD] ---> http://rutracker.org/forum/viewtopic.php?t=4048852
Академическая музыка
William Boyce. 8 Symphonies 1 [CD] Барокко ---> http://rutracker.org/forum/viewtopic.php?t=3284088
Арканжелло Корелли. Барокко. 10[CD] ---> http://rutracker.org/forum/viewtopic.php?t=3214336
Раннии симфонии Йозефа Гайдана 4[CD] ---> .http://rutracker.org/forum/viewtopic.php?t=2790256
"Высокая месса" кантата для хора и оркестра. Иоган Себасьтьян Бах. 1992. [2CD] ---> http://rutracker.org/forum/viewtopic.php?t=2733579
Antonio Caldara (1670-1736). Кантаты любви ---> http://rutracker.org/forum/viewtopic.php?t=3060055
Сборник клавесинной музыки периода барокко ---> http://rutracker.org/forum/viewtopic.php?t=3005555
Приватный:
Нет (DHT включён)
Размер:
337.20 Мб (353,575,300 байт) » файлов: 5
Участники:
0 раздают, 0 качают (0 участников всего)
Внешние участники:
10 раздают, 3 качают (13 участников всего) [ Обновить ]
Нет сидеров - пишите личное сообщение M0p94ok. Не нравятся торренты? Участники группы Pro-jazz Club могут заказать прямую ссылку на скачивание из облака.
No seeders - write a personal message to M0p94ok. Don't like torrents? Members of Pro-jazz Club group can order a direct download link from the cloud.
04:02
32
Нет комментариев. Ваш будет первым!