Поиск

(Soul Jazz/Vocal Jazz) Jose James - Blackmagic - 2010, FLAC (tracks+.cue), lossless

Треклист:
José James - Blackmagic
Жанр: Soul Jazz/Vocal Jazz
Год выпуска диска: 2010
Страна: United States of America (New York City, New York)
Производитель диска: Brownswood Recordings [BWOOD041CDP]]
Аудио кодек: FLAC
Тип рипа: tracks+.cue
Битрейт аудио: lossless
Продолжительность: 01:07:15
Релиз: SLAM (what.cd)
Огромная благодарность C96 Bolo за подготовку и создание релиза на трекере.
Список песен:
01. Code (04:55)
02. Touch (04:19)
03. Lay You Down (05:06)
04. Promise In Love (04:36)
05. Warrior (05:55)
06. Made For Love (03:51)
07. Save Your Love For Me (03:33)
08. The Greater Good (04:19)
09. Blackmagic (04:03)
10. Detroit Loveletter (04:02)
11. Love Conversation feat. Jordana de Lovely (05:16)
12. Beauty (04:10)
13. No Tellin' (02:39)
14. The Light (Bonus Track) (10:32)
 
Лог EAC
Exact Audio Copy V0.99 prebeta 5 from 4. May 2009
EAC extraction logfile from 26. February 2010, 9:37
Jose James / Blackmagic
Used drive : HP DVD Writer 940d Adapter: 2 ID: 0
Read mode : Secure
Utilize accurate stream : Yes
Defeat audio cache : Yes
Make use of C2 pointers : No
Read offset correction : 6
Overread into Lead-In and Lead-Out : No
Fill up missing offset samples with silence : Yes
Delete leading and trailing silent blocks : No
Null samples used in CRC calculations : Yes
Used interface : Native Win32 interface for Win NT & 2000
Gap handling : Appended to previous track
Used output format : User Defined Encoder
Selected bitrate : 320 kBit/s
Quality : High
Add ID3 tag : No
Command line compressor : C:\Program Files\Exact Audio Copy\FLAC\FLAC.EXE
Additional command line options : -V -8 -T "artist=%a" -T "title=%t" -T "album=%g" -T "date=%y" -T "tracknumber=%n" -T "genre=%m" %s
TOC of the extracted CD
Track | Start | Length | Start sector | End sector
---------------------------------------------------------
1 | 0:00.00 | 4:54.55 | 0 | 22104
2 | 4:54.55 | 4:18.68 | 22105 | 41522
3 | 9:13.48 | 5:05.40 | 41523 | 64437
4 | 14:19.13 | 4:35.50 | 64438 | 85112
5 | 18:54.63 | 5:55.10 | 85113 | 111747
6 | 24:49.73 | 3:50.72 | 111748 | 129069
7 | 28:40.70 | 3:32.44 | 129070 | 145013
8 | 32:13.39 | 4:19.15 | 145014 | 164453
9 | 36:32.54 | 4:03.36 | 164454 | 182714
10 | 40:36.15 | 4:01.42 | 182715 | 200831
11 | 44:37.57 | 5:16.29 | 200832 | 224560
12 | 49:54.11 | 4:10.02 | 224561 | 243312
13 | 54:04.13 | 2:39.34 | 243313 | 255271
14 | 56:43.47 | 10:31.51 | 255272 | 302647
Track 1
Filename D:\OINK\Upload\Jose James - 2009 - Blackmagic\01 - Jose James - Code.wav
Pre-gap length 0:00:02.00
Peak level 100.0 %
Track quality 100.0 %
Test CRC 7DCACDA5
Copy CRC 7DCACDA5
Track not present in AccurateRip database
Copy OK
Track 2
Filename D:\OINK\Upload\Jose James - 2009 - Blackmagic\02 - Jose James - Touch.wav
Peak level 99.7 %
Track quality 100.0 %
Test CRC A6E3F297
Copy CRC A6E3F297
Track not present in AccurateRip database
Copy OK
Track 3
Filename D:\OINK\Upload\Jose James - 2009 - Blackmagic\03 - Jose James - Lay You Down.wav
Peak level 99.6 %
Track quality 100.0 %
Test CRC C03533A6
Copy CRC C03533A6
Track not present in AccurateRip database
Copy OK
Track 4
Filename D:\OINK\Upload\Jose James - 2009 - Blackmagic\04 - Jose James - Promise In Love.wav
Peak level 100.0 %
Track quality 100.0 %
Test CRC D839B007
Copy CRC D839B007
Track not present in AccurateRip database
Copy OK
Track 5
Filename D:\OINK\Upload\Jose James - 2009 - Blackmagic\05 - Jose James - Warrior.wav
Peak level 99.7 %
Track quality 100.0 %
Test CRC 79004226
Copy CRC 79004226
Track not present in AccurateRip database
Copy OK
Track 6
Filename D:\OINK\Upload\Jose James - 2009 - Blackmagic\06 - Jose James - Made For Love.wav
Pre-gap length 0:00:00.08
Peak level 90.9 %
Track quality 100.0 %
Test CRC BC4A4D8C
Copy CRC BC4A4D8C
Track not present in AccurateRip database
Copy OK
Track 7
Filename D:\OINK\Upload\Jose James - 2009 - Blackmagic\07 - Jose James - Save Your Love For Me.wav
Pre-gap length 0:00:00.08
Peak level 98.9 %
Track quality 100.0 %
Test CRC F6D1A1F4
Copy CRC F6D1A1F4
Track not present in AccurateRip database
Copy OK
Track 8
Filename D:\OINK\Upload\Jose James - 2009 - Blackmagic\08 - Jose James - The Greater Good.wav
Peak level 99.6 %
Track quality 100.0 %
Test CRC 6868ED11
Copy CRC 6868ED11
Track not present in AccurateRip database
Copy OK
Track 9
Filename D:\OINK\Upload\Jose James - 2009 - Blackmagic\09 - Jose James - Blackmagic.wav
Peak level 98.9 %
Track quality 100.0 %
Test CRC 49F37713
Copy CRC 49F37713
Track not present in AccurateRip database
Copy OK
Track 10
Filename D:\OINK\Upload\Jose James - 2009 - Blackmagic\10 - Jose James - Detroit Loveletter.wav
Pre-gap length 0:00:00.33
Peak level 100.0 %
Track quality 100.0 %
Test CRC 267B0354
Copy CRC 267B0354
Track not present in AccurateRip database
Copy OK
Track 11
Filename D:\OINK\Upload\Jose James - 2009 - Blackmagic\11 - Jose James - Love Conversation feat. Jordana de Lovely.wav
Pre-gap length 0:00:00.20
Peak level 98.9 %
Track quality 100.0 %
Test CRC 992AE639
Copy CRC 992AE639
Track not present in AccurateRip database
Copy OK
Track 12
Filename D:\OINK\Upload\Jose James - 2009 - Blackmagic\12 - Jose James - Beauty.wav
Peak level 98.9 %
Track quality 99.9 %
Test CRC 9A080D84
Copy CRC 9A080D84
Track not present in AccurateRip database
Copy OK
Track 13
Filename D:\OINK\Upload\Jose James - 2009 - Blackmagic\13 - Jose James - No Tellin'.wav
Peak level 98.9 %
Track quality 100.0 %
Test CRC BA9E67CA
Copy CRC BA9E67CA
Track not present in AccurateRip database
Copy OK
Track 14
Filename D:\OINK\Upload\Jose James - 2009 - Blackmagic\14 - Jose James - The Light (Bonus Track).wav
Pre-gap length 0:00:01.61
Peak level 98.9 %
Track quality 100.0 %
Test CRC 608938F6
Copy CRC 608938F6
Track not present in AccurateRip database
Copy OK
None of the tracks are present in the AccurateRip database
No errors occurred
End of status report
 
CUE-Файл
REM GENRE Jazz
REM DATE 2010
PERFORMER "Jose James"
TITLE "Blackmagic"
FILE "01 - Jose James - Code.flac" WAVE
TRACK 01 AUDIO
TITLE "Code"
INDEX 01 00:00:00
FILE "02 - Jose James - Touch.flac" WAVE
TRACK 02 AUDIO
TITLE "Touch"
INDEX 01 00:00:00
FILE "03 - Jose James - Lay You Down.flac" WAVE
TRACK 03 AUDIO
TITLE "Lay You Down"
INDEX 01 00:00:00
FILE "04 - Jose James - Promise In Love.flac" WAVE
TRACK 04 AUDIO
TITLE "Promise In Love"
INDEX 01 00:00:00
FILE "05 - Jose James - Warrior.flac" WAVE
TRACK 05 AUDIO
TITLE "Warrior"
INDEX 01 00:00:00
FILE "06 - Jose James - Made For Love.flac" WAVE
TRACK 06 AUDIO
TITLE "Made For Love"
INDEX 01 00:00:00
FILE "07 - Jose James - Save Your Love For Me.flac" WAVE
TRACK 07 AUDIO
TITLE "Save Your Love For Me"
INDEX 01 00:00:00
FILE "08 - Jose James - The Greater Good.flac" WAVE
TRACK 08 AUDIO
TITLE "The Greater Good"
INDEX 01 00:00:00
FILE "09 - Jose James - Blackmagic.flac" WAVE
TRACK 09 AUDIO
TITLE "Blackmagic"
INDEX 01 00:00:00
FILE "10 - Jose James - Detroit Loveletter.flac" WAVE
TRACK 10 AUDIO
TITLE "Detroit Loveletter"
INDEX 01 00:00:00
FILE "11 - Jose James - Love Conversation feat. Jordana de Lovely.flac" WAVE
TRACK 11 AUDIO
TITLE "Love Conversation feat. Jordana de Lovely"
INDEX 01 00:00:00
FILE "12 - Jose James - Beauty.flac" WAVE
TRACK 12 AUDIO
TITLE "Beauty"
INDEX 01 00:00:00
FILE "13 - Jose James - No Tellin'.flac" WAVE
TRACK 13 AUDIO
TITLE "No Tellin'"
INDEX 01 00:00:00
FILE "14 - Jose James - The Light (Bonus Track).flac" WAVE
TRACK 14 AUDIO
TITLE "The Light (Bonus Track)"
INDEX 01 00:00:00
 
Спектральный анализ

Цитата:
"Благодаря яркому прошлогоднему дебюту Хосе Джеймса The Dreamer, повышенный интерес к творчеству этого новичка соул-музыки обеспечен надолго.
В жилах этого молодого дарования течет коктейль из латиноамериканских и ирландских кровей, что, возможно, и позволило его притягательной тропической чувственности стать доступной европейскому слушателю. Джеймс (Jose James) привнес южный колорит в спокойные гармонии треков, а также усилил лирические переживания музыки нотками соула.
В его новой пластинке звучит современная версия джаза, где наряду с живыми инструментами вроде фортепиано, духовых, гитары и натуральной ритм-секции, нашлось место и электронным звукам. Несмотря на это, джаз не теряет своего интеллигентного шарма и в исполнении Джеймса звучит по-настоящему благородно. Такая музыка отлично подходит для вечера у камина с бокалом хорошего коньяка в руках."
(c) znaki.fm


Приватный:
Нет (DHT включён)
Размер:
401.49 Мб (420,991,960 байт) » файлов: 17
Участники:
0 раздают, 1 качают (1 участников всего)
Внешние участники:
2 раздают, 1 качают (3 участников всего) [ Обновить ]
Скорость:
43.47 Кб/c 0/c
04:01
70
Нет комментариев. Ваш будет первым!