Поиск

(Funk) Stanton Moore - Groove Alchemy- 2010, FLAC (tracks+.cue), lossless

Треклист:
Stanton Moore - Groove Alchemy
Жанр: Funk
Год выпуска : 2010
Лейбл: Telarc
Аудио кодек: FLAC
Тип рипа: tracks+.cue
Битрейт аудио: lossless
Продолжительность: 00:54:12
Рип: filesenderr - What CD


01. Squash Blossom (4:32)
02. Pie-Eyed Manc (4:49)
03. Pot Licker (4:35)
04. Root Cellar (4:47)
05. Keep on Gwine (5:23)
06. Neeps and Tatties (6:18)
07. Up To Here (3:57)
08. Knocker (5:10)
09. Shiftless (5:12)
10. Cleanse This House (4:13)
11. Aletta (2:10)
12. He Stopped Loving Her Today (3:09)

 
XLD
X Lossless Decoder version 20100412 (117.3)
XLD extraction logfile from 2010-04-14 11:37:40 -0400
Stanton Moore / Groove Alchemy
Used drive : MATSHITA DVD-R UJ-857E (revision ZF1E)
Use cdparanoia mode : YES (CDParanoia III 10.2 engine)
Disable audio cache : OK for the drive with cache less than 2750KB
Make use of C2 pointers : NO
Read offset correction : 102
Max retry count : 100
TOC of the extracted CD
Track | Start | Length | Start sector | End sector
---------------------------------------------------------
1 | 00:00:00 | 04:32:22 | 0 | 20421
2 | 04:32:22 | 04:48:41 | 20422 | 42062
3 | 09:20:63 | 04:35:16 | 42063 | 62703
4 | 13:56:04 | 04:46:47 | 62704 | 84200
5 | 18:42:51 | 05:22:63 | 84201 | 108413
6 | 24:05:39 | 06:17:58 | 108414 | 136746
7 | 30:23:22 | 03:57:01 | 136747 | 154522
8 | 34:20:23 | 05:09:40 | 154523 | 177737
9 | 39:29:63 | 05:11:63 | 177738 | 201125
10 | 44:41:51 | 04:12:54 | 201126 | 220079
11 | 48:54:30 | 02:09:45 | 220080 | 229799
12 | 51:04:00 | 03:08:74 | 229800 | 243973
All Tracks
Album gain : -5.69 dB
Peak : 0.997681
Track 01
Filename : /Users/joel/Desktop/Stanton Moore - 2010 Groove Alchemy [flac]/01 Stanton Moore - Squash Blossom.flac
Pre-gap length : 00:02:00
Track gain : -6.28 dB
Peak : 0.997681
CRC32 hash (test run) : C6BC0C9A
CRC32 hash : C6BC0C9A
CRC32 hash (skip zero) : FB90FFF9
AccurateRip signature : B1A5F757
->Track not present in AccurateRip database.
Statistics
Read error : 0
Skipped (treated as error) : 0
Edge jitter error (maybe fixed) : 0
Atom jitter error (maybe fixed) : 0
Drift error (maybe fixed) : 0
Dropped bytes error (maybe fixed) : 0
Duplicated bytes error (maybe fixed) : 0
Track 02
Filename : /Users/joel/Desktop/Stanton Moore - 2010 Groove Alchemy [flac]/02 Stanton Moore - Pie-Eyed Manc.flac
Track gain : -4.00 dB
Peak : 0.965454
CRC32 hash (test run) : 3BAAC56F
CRC32 hash : 3BAAC56F
CRC32 hash (skip zero) : 9AEE8A37
AccurateRip signature : AC7A51B8
->Track not present in AccurateRip database.
Statistics
Read error : 0
Skipped (treated as error) : 0
Edge jitter error (maybe fixed) : 0
Atom jitter error (maybe fixed) : 0
Drift error (maybe fixed) : 0
Dropped bytes error (maybe fixed) : 0
Duplicated bytes error (maybe fixed) : 0
Track 03
Filename : /Users/joel/Desktop/Stanton Moore - 2010 Groove Alchemy [flac]/03 Stanton Moore - Pot Licker.flac
Track gain : -6.58 dB
Peak : 0.940399
CRC32 hash (test run) : DCC43140
CRC32 hash : DCC43140
CRC32 hash (skip zero) : 231FD84F
AccurateRip signature : 196EB9C8
->Track not present in AccurateRip database.
Statistics
Read error : 0
Skipped (treated as error) : 0
Edge jitter error (maybe fixed) : 0
Atom jitter error (maybe fixed) : 0
Drift error (maybe fixed) : 0
Dropped bytes error (maybe fixed) : 0
Duplicated bytes error (maybe fixed) : 0
Track 04
Filename : /Users/joel/Desktop/Stanton Moore - 2010 Groove Alchemy [flac]/04 Stanton Moore - Root Cellar.flac
Track gain : -6.13 dB
Peak : 0.982788
CRC32 hash (test run) : 481BE11B
CRC32 hash : 481BE11B
CRC32 hash (skip zero) : 9471A307
AccurateRip signature : 91D217C5
->Track not present in AccurateRip database.
Statistics
Read error : 0
Skipped (treated as error) : 0
Edge jitter error (maybe fixed) : 0
Atom jitter error (maybe fixed) : 0
Drift error (maybe fixed) : 0
Dropped bytes error (maybe fixed) : 0
Duplicated bytes error (maybe fixed) : 0
Track 05
Filename : /Users/joel/Desktop/Stanton Moore - 2010 Groove Alchemy [flac]/05 Stanton Moore - Keep on Gwine.flac
Track gain : -5.89 dB
Peak : 0.997681
CRC32 hash (test run) : A7B48413
CRC32 hash : A7B48413
CRC32 hash (skip zero) : 318C7B64
AccurateRip signature : CFDAC94A
->Track not present in AccurateRip database.
Statistics
Read error : 0
Skipped (treated as error) : 0
Edge jitter error (maybe fixed) : 0
Atom jitter error (maybe fixed) : 0
Drift error (maybe fixed) : 0
Dropped bytes error (maybe fixed) : 0
Duplicated bytes error (maybe fixed) : 0
Track 06
Filename : /Users/joel/Desktop/Stanton Moore - 2010 Groove Alchemy [flac]/06 Stanton Moore - Neeps and Tatties.flac
Track gain : -5.73 dB
Peak : 0.997681
CRC32 hash (test run) : 5F869AFA
CRC32 hash : 5F869AFA
CRC32 hash (skip zero) : DA47038C
AccurateRip signature : B20319A0
->Track not present in AccurateRip database.
Statistics
Read error : 0
Skipped (treated as error) : 0
Edge jitter error (maybe fixed) : 0
Atom jitter error (maybe fixed) : 0
Drift error (maybe fixed) : 0
Dropped bytes error (maybe fixed) : 0
Duplicated bytes error (maybe fixed) : 0
Track 07
Filename : /Users/joel/Desktop/Stanton Moore - 2010 Groove Alchemy [flac]/07 Stanton Moore - Up To Here.flac
Track gain : -4.94 dB
Peak : 0.955048
CRC32 hash (test run) : A499CC80
CRC32 hash : A499CC80
CRC32 hash (skip zero) : FF64D874
AccurateRip signature : 99B23D1D
->Track not present in AccurateRip database.
Statistics
Read error : 0
Skipped (treated as error) : 0
Edge jitter error (maybe fixed) : 0
Atom jitter error (maybe fixed) : 0
Drift error (maybe fixed) : 0
Dropped bytes error (maybe fixed) : 0
Duplicated bytes error (maybe fixed) : 0
Track 08
Filename : /Users/joel/Desktop/Stanton Moore - 2010 Groove Alchemy [flac]/08 Stanton Moore - Knocker.flac
Track gain : -5.91 dB
Peak : 0.996704
CRC32 hash (test run) : 1ED8295B
CRC32 hash : 1ED8295B
CRC32 hash (skip zero) : 1F13A807
AccurateRip signature : 503FF536
->Track not present in AccurateRip database.
Statistics
Read error : 0
Skipped (treated as error) : 0
Edge jitter error (maybe fixed) : 0
Atom jitter error (maybe fixed) : 0
Drift error (maybe fixed) : 0
Dropped bytes error (maybe fixed) : 0
Duplicated bytes error (maybe fixed) : 0
Track 09
Filename : /Users/joel/Desktop/Stanton Moore - 2010 Groove Alchemy [flac]/09 Stanton Moore - Shiftless.flac
Track gain : -5.65 dB
Peak : 0.966980
CRC32 hash (test run) : 6FA71193
CRC32 hash : 6FA71193
CRC32 hash (skip zero) : A1ECCD6A
AccurateRip signature : 3F5D3BF4
->Track not present in AccurateRip database.
Statistics
Read error : 0
Skipped (treated as error) : 0
Edge jitter error (maybe fixed) : 0
Atom jitter error (maybe fixed) : 0
Drift error (maybe fixed) : 0
Dropped bytes error (maybe fixed) : 0
Duplicated bytes error (maybe fixed) : 0
Track 10
Filename : /Users/joel/Desktop/Stanton Moore - 2010 Groove Alchemy [flac]/10 Stanton Moore - Cleanse This House.flac
Track gain : -4.94 dB
Peak : 0.990112
CRC32 hash (test run) : F5DE0728
CRC32 hash : F5DE0728
CRC32 hash (skip zero) : 494EBE05
AccurateRip signature : A951B753
->Track not present in AccurateRip database.
Statistics
Read error : 0
Skipped (treated as error) : 0
Edge jitter error (maybe fixed) : 0
Atom jitter error (maybe fixed) : 0
Drift error (maybe fixed) : 0
Dropped bytes error (maybe fixed) : 0
Duplicated bytes error (maybe fixed) : 0
Track 11
Filename : /Users/joel/Desktop/Stanton Moore - 2010 Groove Alchemy [flac]/11 Stanton Moore - Aletta.flac
Track gain : -4.46 dB
Peak : 0.987335
CRC32 hash (test run) : 894D4E96
CRC32 hash : 894D4E96
CRC32 hash (skip zero) : 6B670648
AccurateRip signature : 7ECCAD72
->Track not present in AccurateRip database.
Statistics
Read error : 0
Skipped (treated as error) : 0
Edge jitter error (maybe fixed) : 0
Atom jitter error (maybe fixed) : 0
Drift error (maybe fixed) : 0
Dropped bytes error (maybe fixed) : 0
Duplicated bytes error (maybe fixed) : 0
Track 12
Filename : /Users/joel/Desktop/Stanton Moore - 2010 Groove Alchemy [flac]/12 Stanton Moore - He Stopped Loving Her Today.flac
Track gain : -3.59 dB
Peak : 0.978546
CRC32 hash (test run) : B0D46B7E
CRC32 hash : B0D46B7E
CRC32 hash (skip zero) : 37439037
AccurateRip signature : 6CBD130A
->Track not present in AccurateRip database.
Statistics
Read error : 0
Skipped (treated as error) : 0
Edge jitter error (maybe fixed) : 0
Atom jitter error (maybe fixed) : 0
Drift error (maybe fixed) : 0
Dropped bytes error (maybe fixed) : 0
Duplicated bytes error (maybe fixed) : 0
No errors occurred
End of status report
 
CUE
PERFORMER "Stanton Moore"
TITLE "Groove Alchemy"
CATALOG 0888072318908
REM GENRE "Jazz"
REM DATE 2010
REM REPLAYGAIN_ALBUM_GAIN -5.69 dB
REM REPLAYGAIN_ALBUM_PEAK 0.997681
FILE "01 - Squash Blossom.wav" WAVE
TRACK 01 AUDIO
TITLE "Squash Blossom"
ISRC USTE10920130
REM REPLAYGAIN_TRACK_GAIN -6.28 dB
REM REPLAYGAIN_TRACK_PEAK 0.997681
INDEX 01 00:00:00
FILE "02 - Pie-Eyed Manc.wav" WAVE
TRACK 02 AUDIO
TITLE "Pie-Eyed Manc"
ISRC USTE10920131
REM REPLAYGAIN_TRACK_GAIN -4.00 dB
REM REPLAYGAIN_TRACK_PEAK 0.965454
INDEX 01 00:00:00
FILE "03 - Pot Licker.wav" WAVE
TRACK 03 AUDIO
TITLE "Pot Licker"
ISRC USTE10920132
REM REPLAYGAIN_TRACK_GAIN -6.58 dB
REM REPLAYGAIN_TRACK_PEAK 0.940399
INDEX 01 00:00:00
FILE "04 - Root Cellar.wav" WAVE
TRACK 04 AUDIO
TITLE "Root Cellar"
ISRC USTE10920133
REM REPLAYGAIN_TRACK_GAIN -6.13 dB
REM REPLAYGAIN_TRACK_PEAK 0.982788
INDEX 01 00:00:00
FILE "05 - Keep on Gwine.wav" WAVE
TRACK 05 AUDIO
TITLE "Keep on Gwine"
ISRC USTE10920134
REM REPLAYGAIN_TRACK_GAIN -5.89 dB
REM REPLAYGAIN_TRACK_PEAK 0.997681
INDEX 01 00:00:00
FILE "06 - Neeps and Tatties.wav" WAVE
TRACK 06 AUDIO
TITLE "Neeps and Tatties"
ISRC USTE10920135
REM REPLAYGAIN_TRACK_GAIN -5.73 dB
REM REPLAYGAIN_TRACK_PEAK 0.997681
INDEX 01 00:00:00
FILE "07 - Up To Here.wav" WAVE
TRACK 07 AUDIO
TITLE "Up To Here"
ISRC USTE10920136
REM REPLAYGAIN_TRACK_GAIN -4.94 dB
REM REPLAYGAIN_TRACK_PEAK 0.955048
INDEX 01 00:00:00
FILE "08 - Knocker.wav" WAVE
TRACK 08 AUDIO
TITLE "Knocker"
ISRC USTE10920137
REM REPLAYGAIN_TRACK_GAIN -5.91 dB
REM REPLAYGAIN_TRACK_PEAK 0.996704
INDEX 01 00:00:00
FILE "09 - Shiftless.wav" WAVE
TRACK 09 AUDIO
TITLE "Shiftless"
ISRC USTE10920138
REM REPLAYGAIN_TRACK_GAIN -5.65 dB
REM REPLAYGAIN_TRACK_PEAK 0.966980
INDEX 01 00:00:00
FILE "10 - Cleanse This House.wav" WAVE
TRACK 10 AUDIO
TITLE "Cleanse This House"
ISRC USTE10920139
REM REPLAYGAIN_TRACK_GAIN -4.94 dB
REM REPLAYGAIN_TRACK_PEAK 0.990112
INDEX 01 00:00:00
FILE "11 - Aletta.wav" WAVE
TRACK 11 AUDIO
TITLE "Aletta"
ISRC USTE10920140
REM REPLAYGAIN_TRACK_GAIN -4.46 dB
REM REPLAYGAIN_TRACK_PEAK 0.987335
INDEX 01 00:00:00
FILE "12 - He Stopped Loving Her Today.wav" WAVE
TRACK 12 AUDIO
TITLE "He Stopped Loving Her Today"
ISRC USTE11020187
REM REPLAYGAIN_TRACK_GAIN -3.59 dB
REM REPLAYGAIN_TRACK_PEAK 0.978546
INDEX 01 00:00:00
 
Audiochecker
Started at: четверг, 15. 04. 2010. - 10:46.37
12 files found
01 -===- C:\Downloads\Music\Джаз\Stanton Moore - Groove Alchemy- 2010\01 Stanton Moore - Squash Blossom.flac
Extracted successfully
Conclusion: This track looks like CDDA with probability 100%
Tempfile successfully deleted.
02 -===- C:\Downloads\Music\Джаз\Stanton Moore - Groove Alchemy- 2010\02 Stanton Moore - Pie-Eyed Manc.flac
Extracted successfully
Conclusion: This track looks like CDDA with probability 100%
Tempfile successfully deleted.
03 -===- C:\Downloads\Music\Джаз\Stanton Moore - Groove Alchemy- 2010\03 Stanton Moore - Pot Licker.flac
Extracted successfully
Conclusion: This track looks like CDDA with probability 100%
Tempfile successfully deleted.
04 -===- C:\Downloads\Music\Джаз\Stanton Moore - Groove Alchemy- 2010\04 Stanton Moore - Root Cellar.flac
Extracted successfully
Conclusion: This track looks like CDDA with probability 100%
Tempfile successfully deleted.
05 -===- C:\Downloads\Music\Джаз\Stanton Moore - Groove Alchemy- 2010\05 Stanton Moore - Keep on Gwine.flac
Extracted successfully
Conclusion: This track looks like CDDA with probability 100%
Tempfile successfully deleted.
06 -===- C:\Downloads\Music\Джаз\Stanton Moore - Groove Alchemy- 2010\06 Stanton Moore - Neeps and Tatties.flac
Extracted successfully
Conclusion: This track looks like CDDA with probability 100%
Tempfile successfully deleted.
07 -===- C:\Downloads\Music\Джаз\Stanton Moore - Groove Alchemy- 2010\07 Stanton Moore - Up To Here.flac
Extracted successfully
Conclusion: This track looks like CDDA with probability 100%
Tempfile successfully deleted.
08 -===- C:\Downloads\Music\Джаз\Stanton Moore - Groove Alchemy- 2010\08 Stanton Moore - Knocker.flac
Extracted successfully
Conclusion: This track looks like CDDA with probability 100%
Tempfile successfully deleted.
09 -===- C:\Downloads\Music\Джаз\Stanton Moore - Groove Alchemy- 2010\09 Stanton Moore - Shiftless.flac
Extracted successfully
Conclusion: This track looks like CDDA with probability 100%
Tempfile successfully deleted.
10 -===- C:\Downloads\Music\Джаз\Stanton Moore - Groove Alchemy- 2010\10 Stanton Moore - Cleanse This House.flac
Extracted successfully
Conclusion: This track looks like CDDA with probability 100%
Tempfile successfully deleted.
11 -===- C:\Downloads\Music\Джаз\Stanton Moore - Groove Alchemy- 2010\11 Stanton Moore - Aletta.flac
Extracted successfully
Conclusion: This track looks like CDDA with probability 100%
Tempfile successfully deleted.
12 -===- C:\Downloads\Music\Джаз\Stanton Moore - Groove Alchemy- 2010\12 Stanton Moore - He Stopped Loving Her Today.flac
Extracted successfully
Conclusion: This track looks like CDDA with probability 100%
Tempfile successfully deleted.
Finished at: четверг, 15. 04. 2010. - 10:57.45 (operation time: 0:11.07)

Stanton Moore: Drums
Robert Walter: Hammond B3 Organ, Piano
Will Bernard: Guitar
Приватный:
Нет (DHT включён)
Размер:
292.36 Мб (306,564,771 байт) » файлов: 16
Участники:
0 раздают, 0 качают (0 участников всего)
Внешние участники:
2 раздают, 1 качают (3 участников всего) [ Обновить ]
Нет сидеров - пишите личное сообщение M0p94ok. Не нравятся торренты? Участники группы Pro-jazz Club могут заказать прямую ссылку на скачивание из облака.
No seeders - write a personal message to M0p94ok. Don't like torrents? Members of Pro-jazz Club group can order a direct download link from the cloud.
04:16
25
Нет комментариев. Ваш будет первым!