Поиск

(Funk, Soul) Betty Davis - Is It Love Or Desire - 2009, FLAC (tracks+.cue), lossless

(Funk, Soul) Betty Davis - Is It Love Or Desire - 2009, FLAC (tracks+.cue), lossless
Треклист:
Betty Davis
Is It Love Or Desire (2009)
Жанр: Funk, Soul
Дата выпуска диска: 6 октября 2009
Производитель диска: Light In The Attic Records 826853 0047 2 5
Страна: USA
Формат: Compilation
Аудио кодек: FLAC
Тип рипа: tracks+.cue
Битрейт аудио: lossless
Продолжительность: 33:53
Tracklist:
01. Is It Love Or Desire (2:36)
02. It's So Good (3:20)
03. Whorey Angel (5:02)
04. Crashin' From Passion (3:24)
05. When Romance Says Goodbye (3:43)
06. Bottom of the Barrell (3:47)
07. Stars Starve You Know (3:35)
08. Let's Get Personal (3:32)
09. Bar Hoppin' (3:12)
10. For My Man (1:42)


Рип с оригинала. Автор рипа Flabber.
 
EAC log
Exact Audio Copy V0.99 prebeta 5 from 4. May 2009
EAC extraction logfile from 16. October 2009, 20:54
Betty Davis / Is It Love Or Desire
Used drive : PLEXTOR DVDR PX-712A Adapter: 0 ID: 0
Read mode : Secure
Utilize accurate stream : Yes
Defeat audio cache : Yes
Make use of C2 pointers : No
Read offset correction : 30
Overread into Lead-In and Lead-Out : No
Fill up missing offset samples with silence : Yes
Delete leading and trailing silent blocks : No
Null samples used in CRC calculations : Yes
Used interface : Installed external ASPI interface
Gap handling : Appended to previous track
Used output format : User Defined Encoder
Selected bitrate : 320 kBit/s
Quality : High
Add ID3 tag : No
Command line compressor : C:\Program\FLAC\flac.exe
Additional command line options : -8 -V -T "ARTIST=%a" -T "TITLE=%t" -T "ALBUM=%g"
-T "DATE=%y" -T "TRACKNUMBER=%n" -T "GENRE=%m" -T "COMMENT=EAC FLAC -8" %s
TOC of the extracted CD
Track | Start | Length | Start sector | End sector
---------------------------------------------------------
1 | 0:00.00 | 2:36.72 | 0 | 11771
2 | 2:36.72 | 3:20.72 | 11772 | 26843
3 | 5:57.69 | 5:02.34 | 26844 | 49527
4 | 11:00.28 | 3:24.56 | 49528 | 64883
5 | 14:25.09 | 3:43.68 | 64884 | 81676
6 | 18:09.02 | 3:47.71 | 81677 | 98772
7 | 21:56.73 | 3:35.39 | 98773 | 114936
8 | 25:32.37 | 3:32.21 | 114937 | 130857
9 | 29:04.58 | 3:12.59 | 130858 | 145316
10 | 32:17.42 | 1:42.49 | 145317 | 153015
Track 1
Filename D:\Betty Davis - Is It Love Or Desire\01 - Is It Love Or Desire.wav
Pre-gap length 0:00:02.00
Peak level 98.8 %
Track quality 100.0 %
Test CRC 65455DCB
Copy CRC 65455DCB
Track not present in AccurateRip database
Copy OK
Track 2
Filename D:\Betty Davis - Is It Love Or Desire\02 - It's So Good.wav
Pre-gap length 0:00:02.01
Peak level 98.8 %
Track quality 100.0 %
Test CRC B17BC569
Copy CRC B17BC569
Track not present in AccurateRip database
Copy OK
Track 3
Filename D:\Betty Davis - Is It Love Or Desire\03 - Whorey Angel.wav
Pre-gap length 0:00:02.48
Peak level 98.8 %
Track quality 100.0 %
Test CRC 28463642
Copy CRC 28463642
Track not present in AccurateRip database
Copy OK
Track 4
Filename D:\Betty Davis - Is It Love Or Desire\04 - Crashin' From Passion.wav
Pre-gap length 0:00:02.32
Peak level 98.8 %
Track quality 100.0 %
Test CRC F06CBE51
Copy CRC F06CBE51
Track not present in AccurateRip database
Copy OK
Track 5
Filename D:\Betty Davis - Is It Love Or Desire\05 - When Romance Says Goodbye.wav
Peak level 98.8 %
Track quality 100.0 %
Test CRC FBBBFF79
Copy CRC FBBBFF79
Track not present in AccurateRip database
Copy OK
Track 6
Filename D:\Betty Davis - Is It Love Or Desire\06 - Bottom of the Barrell.wav
Pre-gap length 0:00:02.30
Peak level 98.8 %
Track quality 100.0 %
Test CRC DAED2362
Copy CRC DAED2362
Track not present in AccurateRip database
Copy OK
Track 7
Filename D:\Betty Davis - Is It Love Or Desire\07 - Stars Starve You Know.wav
Pre-gap length 0:00:02.42
Peak level 98.8 %
Track quality 99.9 %
Test CRC 52E5ED68
Copy CRC 52E5ED68
Track not present in AccurateRip database
Copy OK
Track 8
Filename D:\Betty Davis - Is It Love Or Desire\08 - Let's Get Personal.wav
Pre-gap length 0:00:02.13
Peak level 98.8 %
Track quality 100.0 %
Test CRC 771EB48B
Copy CRC 771EB48B
Track not present in AccurateRip database
Copy OK
Track 9
Filename D:\Betty Davis - Is It Love Or Desire\09 - Bar Hoppin'.wav
Pre-gap length 0:00:01.16
Peak level 98.8 %
Track quality 100.0 %
Test CRC BBBA58B4
Copy CRC BBBA58B4
Track not present in AccurateRip database
Copy OK
Track 10
Filename D:\Betty Davis - Is It Love Or Desire\10 - For My Man.wav
Pre-gap length 0:00:01.02
Peak level 98.8 %
Track quality 100.0 %
Test CRC C8290B04
Copy CRC C8290B04
Track not present in AccurateRip database
Copy OK
None of the tracks are present in the AccurateRip database
No errors occurred
End of status report
 
*.cue
REM GENRE Funk
REM DATE 2009
REM DISCID 9107F80A
REM COMMENT "ExactAudioCopy v0.99pb5"
PERFORMER "Betty Davis"
TITLE " Is It Love Or Desire"
FILE "01 - Is It Love Or Desire.wav" WAVE
TRACK 01 AUDIO
TITLE "Is It Love Or Desire"
PERFORMER "Betty Davis"
INDEX 01 00:00:00
TRACK 02 AUDIO
TITLE "It's So Good"
PERFORMER "Betty Davis"
INDEX 00 02:34:71
FILE "02 - It's So Good.wav" WAVE
INDEX 01 00:00:00
TRACK 03 AUDIO
TITLE "Whorey Angel"
PERFORMER "Betty Davis"
INDEX 00 03:18:36
FILE "03 - Whorey Angel.wav" WAVE
INDEX 01 00:00:00
TRACK 04 AUDIO
TITLE "Crashin' From Passion"
PERFORMER "Betty Davis"
INDEX 00 05:00:10
FILE "04 - Crashin' From Passion.wav" WAVE
INDEX 01 00:00:00
FILE "05 - When Romance Says Goodbye.wav" WAVE
TRACK 05 AUDIO
TITLE "When Romance Says Goodbye"
PERFORMER "Betty Davis"
INDEX 01 00:00:00
TRACK 06 AUDIO
TITLE "Bottom of the Barrell"
PERFORMER "Betty Davis"
INDEX 00 03:41:45
FILE "06 - Bottom of the Barrell.wav" WAVE
INDEX 01 00:00:00
TRACK 07 AUDIO
TITLE "Stars Starve You Know"
PERFORMER "Betty Davis"
INDEX 00 03:45:39
FILE "07 - Stars Starve You Know.wav" WAVE
INDEX 01 00:00:00
TRACK 08 AUDIO
TITLE "Let's Get Personal"
PERFORMER "Betty Davis"
INDEX 00 03:33:29
FILE "08 - Let's Get Personal.wav" WAVE
INDEX 01 00:00:00
TRACK 09 AUDIO
TITLE "Bar Hoppin'"
PERFORMER "Betty Davis"
INDEX 00 03:31:09
FILE "09 - Bar Hoppin'.wav" WAVE
INDEX 01 00:00:00
TRACK 10 AUDIO
TITLE "For My Man"
PERFORMER "Betty Davis"
INDEX 00 03:11:57
FILE "10 - For My Man.wav" WAVE
INDEX 01 00:00:00
 
Audiochecker’s log
AUDIOCHECKER v2.0 beta (build 457) - by Dester - opdester@freemail.hu
~~~~~~~~~~~~~~~~~~~~~~~~~~~~~~~~~~
Started at: четверг, 15. 04. 2010. - 15:49.29
10 files found
01 -===- F:\My Documents\Betty Davis - Is It Love Or Desire\01 - Is It Love Or Desire.flac
Extracted successfully
Conclusion: this track is CDDA with probability 100%
Tempfile successfully deleted.
02 -===- F:\My Documents\Betty Davis - Is It Love Or Desire\02 - It's So Good.flac
Extracted successfully
Conclusion: this track is CDDA with probability 99%
Tempfile successfully deleted.
03 -===- F:\My Documents\Betty Davis - Is It Love Or Desire\03 - Whorey Angel.flac
Extracted successfully
Conclusion: this track is CDDA with probability 100%
Tempfile successfully deleted.
04 -===- F:\My Documents\Betty Davis - Is It Love Or Desire\04 - Crashin' From Passion.flac
Extracted successfully
Conclusion: this track is CDDA with probability 99%
Tempfile successfully deleted.
05 -===- F:\My Documents\Betty Davis - Is It Love Or Desire\05 - When Romance Says Goodbye.flac
Extracted successfully
Conclusion: this track is CDDA with probability 99%
Tempfile successfully deleted.
06 -===- F:\My Documents\Betty Davis - Is It Love Or Desire\06 - Bottom of the Barrell.flac
Extracted successfully
Conclusion: this track is CDDA with probability 100%
Tempfile successfully deleted.
07 -===- F:\My Documents\Betty Davis - Is It Love Or Desire\07 - Stars Starve You Know.flac
Extracted successfully
Conclusion: this track is CDDA with probability 100%
Tempfile successfully deleted.
08 -===- F:\My Documents\Betty Davis - Is It Love Or Desire\08 - Let's Get Personal.flac
Extracted successfully
Conclusion: this track is CDDA with probability 100%
Tempfile successfully deleted.
09 -===- F:\My Documents\Betty Davis - Is It Love Or Desire\09 - Bar Hoppin'.flac
Extracted successfully
Conclusion: this track is CDDA with probability 100%
Tempfile successfully deleted.
10 -===- F:\My Documents\Betty Davis - Is It Love Or Desire\10 - For My Man.flac
Extracted successfully
Conclusion: this track is CDDA with probability 99%
Tempfile successfully deleted.
Finished at: четверг, 15. 04. 2010. - 16:03.02 (operation time: 0:13.32)

Сидирую до первых 10-и скачавших. Далее раздача поддерживается силами скачавших. Скачали сами - дайте скачать другим.
mp3
Приватный:
Нет (DHT включён)
Размер:
353.31 Мб (370,472,350 байт) » файлов: 33
Участники:
0 раздают, 0 качают (0 участников всего)
Внешние участники:
8 раздают, 2 качают (10 участников всего) [ Обновить ]
Нет сидеров - пишите личное сообщение M0p94ok. Не нравятся торренты? Участники группы Pro-jazz Club могут заказать прямую ссылку на скачивание из облака.
No seeders - write a personal message to M0p94ok. Don't like torrents? Members of Pro-jazz Club group can order a direct download link from the cloud.
04:17
47
Нет комментариев. Ваш будет первым!