Поиск

(Soul, R&B) Otis Redding - The Great Otis Redding Sings Soul Ballads - 1965, FLAC (tracks+.cue), lossless

(Soul, R&B) Otis Redding - The Great Otis Redding Sings Soul Ballads - 1965, FLAC (tracks+.cue), lossless
Треклист:
Otis Redding / The Great Otis Redding Sings Soul Ballads
Жанр: Soul, R&B
Год издания: 1965
Страна исполнителя (группы): USA
Аудиокодек: FLAC (*.flac)
Тип рипа: tracks+.cue
Битрейт аудио: lossless
Продолжительность: 0:42:27.
Источник (релизер): clustert
Наличие сканов в содержимом раздачи: да
Треклист:
01. That's How Strong My Love Is [0:02:27.65]
02. Chained and Bound [0:02:44.03]
03. A Woman, a Lover, a Friend [0:03:23.15]
04. Your One and Only Man [0:03:15.72]
05. Nothing Can Change This Love [0:03:06.13]
06. It's Too Late [0:03:05.22]
07. For Your Precious Love [0:02:59.00]
08. I Want to Thank You [0:02:42.63]
09. Come to Me [0:02:52.10]
10. Home in Your Heart [0:02:08.55]
11. Keep Your Arms Around Me [0:02:55.15]
12. Mr. Pitiful [0:02:43.07]
13. Pain in My Heart [bonus] [0:02:28.40]
14. My Girl [bonus] [0:02:58.67]
15. Lovely Dovey (with Carla Thomas) [bonus] [0:02:36.22]
 
Лог создания рипа
Exact Audio Copy V1.0 beta 3 from 29. August 2011
Отчёт EAC об извлечении, выполненном 28. января 2015, 13:46
Otis Redding / The Great Otis Redding Sings Soul Ballads
Дисковод: ASUS DRW-1814BLT Adapter: 4 ID: 0
Режим чтения : Достоверность
Использование точного потока : Да
Отключение кэша аудио : Да
Использование указателей C2 : Нет
Коррекция смещения при чтении : 6
Способность читать области Lead-in и Lead-out : Нет
Заполнение пропущенных сэмплов тишиной : Да
Удаление блоков с тишиной в начале и конце : Нет
При вычислениях CRC использовались нулевые сэмплы : Да
Интерфейс : Встроенный Win32-интерфейс для Win NT/2000
Обработка зазоров : Добавлено к предыдущему треку
Выходной формат : Пользовательский кодировщик
Выбранный битрейт : 128 kBit/s
Качество : Высокий
Добавление ID3-тега : Нет
Утилита сжатия : C:\Program Files\Exact Audio Copy\Flac\flac.exe
Дополнительные параметры : -V -8 -T "Genre=%genre%" -T "Artist=%artist%" -T "Title=%title%" -T "Album=%albumtitle%" -T "Date=%year%" -T "Tracknumber=%tracknr%" -T "Comment=EAC1.0b2 FLAC -8" %source%
TOC извлечённого CD
Трек | Старт | Длительность | Начальный сектор | Конечный сектор
---------------------------------------------------------------------
1 | 0:00.00 | 2:27.65 | 0 | 11089
2 | 2:27.65 | 2:44.03 | 11090 | 23392
3 | 5:11.68 | 3:23.15 | 23393 | 38632
4 | 8:35.08 | 3:15.72 | 38633 | 53329
5 | 11:51.05 | 3:06.13 | 53330 | 67292
6 | 14:57.18 | 3:05.22 | 67293 | 81189
7 | 18:02.40 | 2:59.00 | 81190 | 94614
8 | 21:01.40 | 2:42.63 | 94615 | 106827
9 | 23:44.28 | 2:52.10 | 106828 | 119737
10 | 26:36.38 | 2:08.55 | 119738 | 129392
11 | 28:45.18 | 2:55.15 | 129393 | 142532
12 | 31:40.33 | 2:43.07 | 142533 | 154764
13 | 34:23.40 | 2:28.40 | 154765 | 165904
14 | 36:52.05 | 2:58.67 | 165905 | 179321
15 | 39:50.72 | 2:36.22 | 179322 | 191043
Трек 1
Имя файла R:\Раздача 34\Otis Redding - 1965 - The Great Otis Redding Sings Soul Ballads\01 That's How Strong My Love Is.wav
Длина предзазора 0:00:02.00
Пиковый уровень 100.0 %
Скорость извлечения 4.4 X
Качество трека 100.0 %
CRC теста 770EB284
CRC копии 770EB284
Трек не обнаружен в базе AccurateRip
Копирование... OK
Трек 2
Имя файла R:\Раздача 34\Otis Redding - 1965 - The Great Otis Redding Sings Soul Ballads\02 Chained and Bound.wav
Пиковый уровень 100.0 %
Скорость извлечения 4.7 X
Качество трека 100.0 %
CRC теста 4CD9AD91
CRC копии 4CD9AD91
Трек не обнаружен в базе AccurateRip
Копирование... OK
Трек 3
Имя файла R:\Раздача 34\Otis Redding - 1965 - The Great Otis Redding Sings Soul Ballads\03 A Woman, a Lover, a Friend.wav
Пиковый уровень 100.0 %
Скорость извлечения 3.6 X
Качество трека 99.9 %
CRC теста F724FE04
CRC копии F724FE04
Трек не обнаружен в базе AccurateRip
Копирование... OK
Трек 4
Имя файла R:\Раздача 34\Otis Redding - 1965 - The Great Otis Redding Sings Soul Ballads\04 Your One and Only Man.wav
Пиковый уровень 100.0 %
Скорость извлечения 4.5 X
Качество трека 100.0 %
CRC теста 3742C4DD
CRC копии 3742C4DD
Трек не обнаружен в базе AccurateRip
Копирование... OK
Трек 5
Имя файла R:\Раздача 34\Otis Redding - 1965 - The Great Otis Redding Sings Soul Ballads\05 Nothing Can Change This Love.wav
Пиковый уровень 100.0 %
Скорость извлечения 5.8 X
Качество трека 100.0 %
CRC теста 5914EEBF
CRC копии 5914EEBF
Трек не обнаружен в базе AccurateRip
Копирование... OK
Трек 6
Имя файла R:\Раздача 34\Otis Redding - 1965 - The Great Otis Redding Sings Soul Ballads\06 It's Too Late.wav
Пиковый уровень 100.0 %
Скорость извлечения 6.0 X
Качество трека 100.0 %
CRC теста B49180A4
CRC копии B49180A4
Трек не обнаружен в базе AccurateRip
Копирование... OK
Трек 7
Имя файла R:\Раздача 34\Otis Redding - 1965 - The Great Otis Redding Sings Soul Ballads\07 For Your Precious Love.wav
Пиковый уровень 100.0 %
Скорость извлечения 6.2 X
Качество трека 100.0 %
CRC теста 5D25284E
CRC копии 5D25284E
Трек не обнаружен в базе AccurateRip
Копирование... OK
Трек 8
Имя файла R:\Раздача 34\Otis Redding - 1965 - The Great Otis Redding Sings Soul Ballads\08 I Want to Thank You.wav
Пиковый уровень 100.0 %
Скорость извлечения 6.3 X
Качество трека 100.0 %
CRC теста 1F3B5BF4
CRC копии 1F3B5BF4
Трек не обнаружен в базе AccurateRip
Копирование... OK
Трек 9
Имя файла R:\Раздача 34\Otis Redding - 1965 - The Great Otis Redding Sings Soul Ballads\09 Come to Me.wav
Пиковый уровень 100.0 %
Скорость извлечения 6.6 X
Качество трека 100.0 %
CRC теста 95FA568B
CRC копии 95FA568B
Трек не обнаружен в базе AccurateRip
Копирование... OK
Трек 10
Имя файла R:\Раздача 34\Otis Redding - 1965 - The Great Otis Redding Sings Soul Ballads\10 Home in Your Heart.wav
Пиковый уровень 100.0 %
Скорость извлечения 6.2 X
Качество трека 100.0 %
CRC теста 67C78A7B
CRC копии 67C78A7B
Трек не обнаружен в базе AccurateRip
Копирование... OK
Трек 11
Имя файла R:\Раздача 34\Otis Redding - 1965 - The Great Otis Redding Sings Soul Ballads\11 Keep Your Arms Around Me.wav
Пиковый уровень 100.0 %
Скорость извлечения 6.8 X
Качество трека 100.0 %
CRC теста 30FB4111
CRC копии 30FB4111
Трек не обнаружен в базе AccurateRip
Копирование... OK
Трек 12
Имя файла R:\Раздача 34\Otis Redding - 1965 - The Great Otis Redding Sings Soul Ballads\12 Mr. Pitiful.wav
Пиковый уровень 100.0 %
Скорость извлечения 6.9 X
Качество трека 100.0 %
CRC теста 5B8F5D7C
CRC копии 5B8F5D7C
Трек не обнаружен в базе AccurateRip
Копирование... OK
Трек 13
Имя файла R:\Раздача 34\Otis Redding - 1965 - The Great Otis Redding Sings Soul Ballads\13 Pain in My Heart [bonus].wav
Пиковый уровень 100.0 %
Скорость извлечения 7.0 X
Качество трека 100.0 %
CRC теста 771DD3B6
CRC копии 771DD3B6
Трек не обнаружен в базе AccurateRip
Копирование... OK
Трек 14
Имя файла R:\Раздача 34\Otis Redding - 1965 - The Great Otis Redding Sings Soul Ballads\14 My Girl [bonus].wav
Пиковый уровень 100.0 %
Скорость извлечения 7.4 X
Качество трека 100.0 %
CRC теста 47E3CDC6
CRC копии 47E3CDC6
Трек не обнаружен в базе AccurateRip
Копирование... OK
Трек 15
Имя файла R:\Раздача 34\Otis Redding - 1965 - The Great Otis Redding Sings Soul Ballads\15 Lovely Dovey (with Carla Thomas) [bonus].wav
Пиковый уровень 100.0 %
Скорость извлечения 7.3 X
Качество трека 100.0 %
CRC теста 4BB23939
CRC копии 4BB23939
Трек не обнаружен в базе AccurateRip
Копирование... OK
Ни одного трека нет в базе AccurateRip
Ошибок не произошло
Конец отчёта
==== Контрольная сумма отчёта CF6BF517CCA986A5569720BA8C41A38D795ED0F8203E07CCD4597FE5CF33E878 ====
 
Содержание индексной карты (.CUE)
REM GENRE Soul
REM DATE 1965
REM DISCID C909F30F
REM COMMENT "ExactAudioCopy v1.0b3"
PERFORMER "Otis Redding"
TITLE "The Great Otis Redding Sings Soul Ballads"
FILE "01 That's How Strong My Love Is.wav" WAVE
TRACK 01 AUDIO
TITLE "That's How Strong My Love Is"
PERFORMER "Otis Redding"
ISRC 000000000000
INDEX 01 00:00:00
FILE "02 Chained and Bound.wav" WAVE
TRACK 02 AUDIO
TITLE "Chained and Bound"
PERFORMER "Otis Redding"
ISRC 000000000000
INDEX 01 00:00:00
FILE "03 A Woman, a Lover, a Friend.wav" WAVE
TRACK 03 AUDIO
TITLE "A Woman, a Lover, a Friend"
PERFORMER "Otis Redding"
ISRC 000000000000
INDEX 01 00:00:00
FILE "04 Your One and Only Man.wav" WAVE
TRACK 04 AUDIO
TITLE "Your One and Only Man"
PERFORMER "Otis Redding"
ISRC 000000000000
INDEX 01 00:00:00
FILE "05 Nothing Can Change This Love.wav" WAVE
TRACK 05 AUDIO
TITLE "Nothing Can Change This Love"
PERFORMER "Otis Redding"
ISRC 000000000000
INDEX 01 00:00:00
FILE "06 It's Too Late.wav" WAVE
TRACK 06 AUDIO
TITLE "It's Too Late"
PERFORMER "Otis Redding"
ISRC 000000000000
INDEX 01 00:00:00
FILE "07 For Your Precious Love.wav" WAVE
TRACK 07 AUDIO
TITLE "For Your Precious Love"
PERFORMER "Otis Redding"
ISRC 000000000000
INDEX 01 00:00:00
FILE "08 I Want to Thank You.wav" WAVE
TRACK 08 AUDIO
TITLE "I Want to Thank You"
PERFORMER "Otis Redding"
ISRC 000000000000
INDEX 01 00:00:00
FILE "09 Come to Me.wav" WAVE
TRACK 09 AUDIO
TITLE "Come to Me"
PERFORMER "Otis Redding"
ISRC 000000000000
INDEX 01 00:00:00
FILE "10 Home in Your Heart.wav" WAVE
TRACK 10 AUDIO
TITLE "Home in Your Heart"
PERFORMER "Otis Redding"
ISRC 000000000000
INDEX 01 00:00:00
FILE "11 Keep Your Arms Around Me.wav" WAVE
TRACK 11 AUDIO
TITLE "Keep Your Arms Around Me"
PERFORMER "Otis Redding"
ISRC 000000000000
INDEX 01 00:00:00
FILE "12 Mr. Pitiful.wav" WAVE
TRACK 12 AUDIO
TITLE "Mr. Pitiful"
PERFORMER "Otis Redding"
ISRC 000000000000
INDEX 01 00:00:00
FILE "13 Pain in My Heart [bonus].wav" WAVE
TRACK 13 AUDIO
TITLE "Pain in My Heart [bonus]"
PERFORMER "Otis Redding"
ISRC 000000000000
INDEX 01 00:00:00
FILE "14 My Girl [bonus].wav" WAVE
TRACK 14 AUDIO
TITLE "My Girl [bonus]"
PERFORMER "Otis Redding"
ISRC 000000000000
INDEX 01 00:00:00
FILE "15 Lovely Dovey (with Carla Thomas) [bonus].wav" WAVE
TRACK 15 AUDIO
TITLE "Lovely Dovey (with Carla Thomas) [bonus]"
PERFORMER "Otis Redding"
ISRC 000000000000
INDEX 01 00:00:00
Приватный:
Нет (DHT включён)
Размер:
196.75 Мб (206,306,959 байт) » файлов: 24
Участники:
0 раздают, 0 качают (0 участников всего)
Внешние участники:
5 раздают, 1 качают (6 участников всего) [ Обновить ]
Есть вопросы - пишите личное сообщение пользователю M0p94ok.
04:09
73
Нет комментариев. Ваш будет первым!