Поиск

(Soul, Blues, Vocal Jazz) [CD] Bettye LaVette - Worthy - 2015, FLAC (tracks+.cue), lossless

(Soul, Blues, Vocal Jazz) [CD] Bettye LaVette - Worthy - 2015, FLAC (tracks+.cue), lossless
Треклист:
Bettye
LaVette
WORTHY Жанр: Soul, Blues, Vocal Jazz
Страна-производитель диска: UK
Год издания: 2015
Издатель (лейбл): Cherry Red
Номер по каталогу: CDBRED649
Аудиокодек: FLAC (*.flac)
Тип рипа: tracks+.cue
Битрейт аудио: lossless
Продолжительность: 44:04
Источник (релизер): спасибо rudeboy
Наличие сканов: нет
1. UNBELIEVABLE
2. WHEN I WAS A YOUNG GIRL
3. BLESS US ALL
4. STOP
5. UNDAMNED
6. COMPLICATED
7. WHERE A LIFE GOES
8. JUST BETWEEN YOU AND ME AND THE WALL YOU’RE A FOOL
9. WAIT
10. STEP AWAY
11. WORTHY
 
Лог создания рипа
Exact Audio Copy V1.0 beta 3 from 29. August 2011
EAC extraction logfile from 1. February 2015, 16:58
Bettye Lavette / Worthy
Used drive : PIONEER DVD-RW DVR-116D Adapter: 2 ID: 0
Read mode : Secure
Utilize accurate stream : Yes
Defeat audio cache : Yes
Make use of C2 pointers : No
Read offset correction : 96
Overread into Lead-In and Lead-Out : No
Fill up missing offset samples with silence : Yes
Delete leading and trailing silent blocks : No
Null samples used in CRC calculations : Yes
Used interface : Native Win32 interface for Win NT & 2000
Gap handling : Appended to previous track
Used output format : User Defined Encoder
Selected bitrate : 1024 kBit/s
Quality : High
Add ID3 tag : No
Command line compressor : C:\Program Files (x86)\Exact Audio Copy\Flac\flac.exe
Additional command line options : -8 -V -T "ARTIST=%artist%" -T "TITLE=%title%" -T "ALBUM=%albumtitle%" -T "DATE=%year%" -T "TRACKNUMBER=%tracknr%" -T "GENRE=%genre%" -T "PERFORMER=%albuminterpret%" -T "COMPOSER=%composer%" %haslyrics%--tag-from-file=LYRICS="%lyricsfile%"%haslyrics% -T "ALBUMARTIST=%albumartist%" -T "DISCNUMBER=%cdnumber%" -T "TOTALDISCS=%totalcds%" -T "TOTALTRACKS=%numtracks%" -T "COMMENT=%comment%" %source% -o %dest%
TOC of the extracted CD
Track | Start | Length | Start sector | End sector
---------------------------------------------------------
1 | 0:00.00 | 3:15.69 | 0 | 14693
2 | 3:15.69 | 3:40.15 | 14694 | 31208
3 | 6:56.09 | 2:49.67 | 31209 | 43950
4 | 9:46.01 | 4:24.11 | 43951 | 63761
5 | 14:10.12 | 3:32.62 | 63762 | 79723
6 | 17:42.74 | 3:43.07 | 79724 | 96455
7 | 21:26.06 | 5:04.74 | 96456 | 119329
8 | 26:31.05 | 6:39.67 | 119330 | 149321
9 | 33:10.72 | 3:40.07 | 149322 | 165828
10 | 36:51.04 | 3:03.43 | 165829 | 179596
11 | 39:54.47 | 4:10.14 | 179597 | 198360
Track 1
Filename K:\New Flac Rips\New folder\Bettye Lavette - Worthy 2015 [FLAC CD]\01 - Unbelievable.wav
Pre-gap length 0:00:02.00
Peak level 98.3 %
Extraction speed 3.7 X
Track quality 100.0 %
Test CRC 11107C22
Copy CRC 11107C22
Track not present in AccurateRip database
Copy OK
Track 2
Filename K:\New Flac Rips\New folder\Bettye Lavette - Worthy 2015 [FLAC CD]\02 - When I Was a Young Girl.wav
Peak level 98.2 %
Extraction speed 2.7 X
Track quality 100.0 %
Test CRC 82276A6D
Copy CRC 82276A6D
Track not present in AccurateRip database
Copy OK
Track 3
Filename K:\New Flac Rips\New folder\Bettye Lavette - Worthy 2015 [FLAC CD]\03 - Bless Us All.wav
Peak level 98.3 %
Extraction speed 4.2 X
Track quality 100.0 %
Test CRC 4861C13B
Copy CRC 4861C13B
Track not present in AccurateRip database
Copy OK
Track 4
Filename K:\New Flac Rips\New folder\Bettye Lavette - Worthy 2015 [FLAC CD]\04 - Stop.wav
Peak level 98.3 %
Extraction speed 5.1 X
Track quality 100.0 %
Test CRC D815231E
Copy CRC D815231E
Track not present in AccurateRip database
Copy OK
Track 5
Filename K:\New Flac Rips\New folder\Bettye Lavette - Worthy 2015 [FLAC CD]\05 - Undamned.wav
Peak level 98.3 %
Extraction speed 4.6 X
Track quality 99.9 %
Test CRC 96F546F0
Copy CRC 96F546F0
Track not present in AccurateRip database
Copy OK
Track 6
Filename K:\New Flac Rips\New folder\Bettye Lavette - Worthy 2015 [FLAC CD]\06 - Complicated.wav
Peak level 98.3 %
Extraction speed 4.8 X
Track quality 99.9 %
Test CRC 80649EAE
Copy CRC 80649EAE
Track not present in AccurateRip database
Copy OK
Track 7
Filename K:\New Flac Rips\New folder\Bettye Lavette - Worthy 2015 [FLAC CD]\07 - Where a Life Goes.wav
Peak level 98.3 %
Extraction speed 6.0 X
Track quality 100.0 %
Test CRC 1411EBE1
Copy CRC 1411EBE1
Track not present in AccurateRip database
Copy OK
Track 8
Filename K:\New Flac Rips\New folder\Bettye Lavette - Worthy 2015 [FLAC CD]\08 - Just Between You and Me and the Wall You're A Fool.wav
Peak level 98.3 %
Extraction speed 6.8 X
Track quality 100.0 %
Test CRC 59DED548
Copy CRC 59DED548
Track not present in AccurateRip database
Copy OK
Track 9
Filename K:\New Flac Rips\New folder\Bettye Lavette - Worthy 2015 [FLAC CD]\09 - Wait.wav
Peak level 98.2 %
Extraction speed 5.5 X
Track quality 99.9 %
Test CRC 8A1843C4
Copy CRC 8A1843C4
Track not present in AccurateRip database
Copy OK
Track 10
Filename K:\New Flac Rips\New folder\Bettye Lavette - Worthy 2015 [FLAC CD]\10 - Step Away.wav
Peak level 98.3 %
Extraction speed 5.5 X
Track quality 99.9 %
Test CRC 8B3F71E8
Copy CRC 8B3F71E8
Track not present in AccurateRip database
Copy OK
Track 11
Filename K:\New Flac Rips\New folder\Bettye Lavette - Worthy 2015 [FLAC CD]\11 - Worthy.wav
Peak level 98.3 %
Extraction speed 6.5 X
Track quality 100.0 %
Test CRC 60148E1F
Copy CRC 60148E1F
Track not present in AccurateRip database
Copy OK
None of the tracks are present in the AccurateRip database
No errors occurred
End of status report
==== Log checksum DE8DD3E581FF936FC564259874EE2B1861F200FA287F54DA7043E73B3A2A6083 ====
 
Содержание индексной карты (.CUE)
REM GENRE Soul
REM DATE 2015
REM DISCID A50A540B
REM COMMENT "ExactAudioCopy v1.0b3"
PERFORMER "Bettye Lavette"
TITLE "Worthy"
FILE "01 - Unbelievable.wav" WAVE
TRACK 01 AUDIO
TITLE "Unbelievable"
PERFORMER "Bettye Lavette"
ISRC GBBLY1500085
INDEX 01 00:00:00
FILE "02 - When I Was a Young Girl.wav" WAVE
TRACK 02 AUDIO
TITLE "When I Was a Young Girl"
PERFORMER "Bettye Lavette"
ISRC GBBLY1500086
INDEX 01 00:00:00
FILE "03 - Bless Us All.wav" WAVE
TRACK 03 AUDIO
TITLE "Bless Us All"
PERFORMER "Bettye Lavette"
ISRC GBBLY1500087
INDEX 01 00:00:00
FILE "04 - Stop.wav" WAVE
TRACK 04 AUDIO
TITLE "Stop"
PERFORMER "Bettye Lavette"
ISRC GBBLY1500088
INDEX 01 00:00:00
FILE "05 - Undamned.wav" WAVE
TRACK 05 AUDIO
TITLE "Undamned"
PERFORMER "Bettye Lavette"
ISRC GBBLY1500089
INDEX 01 00:00:00
FILE "06 - Complicated.wav" WAVE
TRACK 06 AUDIO
TITLE "Complicated"
PERFORMER "Bettye Lavette"
ISRC GBBLY1500090
INDEX 01 00:00:00
FILE "07 - Where a Life Goes.wav" WAVE
TRACK 07 AUDIO
TITLE "Where a Life Goes"
PERFORMER "Bettye Lavette"
ISRC GBBLY1500091
INDEX 01 00:00:00
FILE "08 - Just Between You and Me and the Wall You're A Fool.wav" WAVE
TRACK 08 AUDIO
TITLE "Just Between You and Me and the Wall You're A Fool"
PERFORMER "Bettye Lavette"
ISRC GBBLY1500092
INDEX 01 00:00:00
FILE "09 - Wait.wav" WAVE
TRACK 09 AUDIO
TITLE "Wait"
PERFORMER "Bettye Lavette"
ISRC GBBLY1500093
INDEX 01 00:00:00
FILE "10 - Step Away.wav" WAVE
TRACK 10 AUDIO
TITLE "Step Away"
PERFORMER "Bettye Lavette"
ISRC GBBLY1500093
INDEX 01 00:00:00
FILE "11 - Worthy.wav" WAVE
TRACK 11 AUDIO
TITLE "Worthy"
PERFORMER "Bettye Lavette"
ISRC GBBLY1500095
INDEX 01 00:00:00
 
Об альбоме
Bettye LaVette doesn't write her own songs, but she doesn't have to -- by the time she's finished singing a tune, LaVette has turned it into something entirely her own, an emotional statement that's original and complete. Since LaVette reminded American listeners that she was still working at the top of her game with the 2003 live set A Woman Like Me, she's been releasing a steady stream of new albums confirming her status as one of the strongest and most individual interpretive vocalists in the 21st century. LaVette's first studio album after A Woman Like Me was the outstanding I've Got My Own Hell to Raise, produced by Joe Henry, and for 2014's Worthy, LaVette has teamed up again with Henry and several of the same musicians who played on those sessions. Henry is a producer whose approach is less about studio technique and more about setting a mood and letting artists go where they will, and LaVette is the sort of artist who responds best to this treatment; on Worthy, LaVette sings with strength and passion, but she understands dynamics, knowing when to go full-out and when to rein herself in, and her tough but thoughtful approach to the material is powerfully effective and full of keen emotional intelligence and her soulful, sweet and sour voice. Worthy finds LaVette covering songs by the Beatles ("Wait"), the Rolling Stones ("Complicated"), Bob Dylan ("Unbelievable"), and Beth Nielsen Chapman (the title cut), but if LaVette doesn't necessarily make you forget the originals, each time she takes them to a place that's clearly of her own making. LaVette discovers something fresh and deeply personal in every number here, and the backing band on these sessions (including Doyle Bramhall II on guitar, Chris Bruce on bass, and Patrick Warren on keyboards) works with her beautifully, with a give and take that's a master class in how to accompany a vocalist. Worthy is another impressive release from an outstanding singer, and if it follows the pattern of some of her recent albums, nothing here sounds rote; this is the sound of an artist doing what she does best, and she is far more than worthy of this great music. (Mark Deming, AMG)
 
Состав
Bettye LaVette - vocals
Alan Hill - keyboards
Brett Lucas - guitar
James Simonson - bass
Darryl Pierce - drums
Приватный:
Нет (DHT включён)
Размер:
252.40 Мб (264,657,440 байт) » файлов: 15
Участники:
0 раздают, 0 качают (0 участников всего)
Внешние участники:
5 раздают, 1 качают (6 участников всего) [ Обновить ]
Есть вопросы - пишите личное сообщение пользователю M0p94ok.
04:09
57
Нет комментариев. Ваш будет первым!