Поиск

(Funk, Jazz) [CD] Redtenbacher's Funkestra - Dr. Hypenstein - 2015, FLAC (tracks+.cue), lossless

(Funk, Jazz) [CD] Redtenbacher's Funkestra - Dr. Hypenstein - 2015, FLAC (tracks+.cue), lossless
Треклист:
REDTENBACHER'S FUNKESTRA
DR. HYPERSTEIN
Жанр: Funk, Jazz
Страна-производитель диска: UK
Год издания: 2015
Издатель (лейбл): Wooden Hat Records
Номер по каталогу: WHR0033
Аудиокодек: FLAC (*.flac)
Тип рипа: tracks+.cue
Битрейт аудио: lossless
Продолжительность: 41:32
Источник (релизер): спасибо grumpycat
Наличие сканов: front
Треклист:
01. Dr. Hypenstein
02. Baby Fat
03. Go Mo
04. Funktionality
05. Swagger
06. Cave Canem
07. Bassbulator
08. Right on It
09. Bassface
10. Macho Matchup
11. Busted
12. Tower of TNT
13. Supergalactic
 
Лог создания рипа
X Lossless Decoder version 20141129 (148.1)
XLD extraction logfile from 2015-01-31 22:34:25 -0500
Redtenbacher's Funkestra / Dr Hypenstein
Used drive : MATSHITA DVD-R UJ-8A8 (revision HB14)
Media type : Pressed CD
Ripper mode : XLD Secure Ripper
Disable audio cache : OK for the drive with a cache less than 1375KiB
Make use of C2 pointers : NO
Read offset correction : 102
Max retry count : 100
Gap status : Analyzed, Appended (except HTOA)
TOC of the extracted CD
Track | Start | Length | Start sector | End sector
---------------------------------------------------------
1 | 00:00:00 | 03:07:68 | 0 | 14092
2 | 03:07:68 | 03:23:18 | 14093 | 29335
3 | 06:31:11 | 02:57:00 | 29336 | 42610
4 | 09:28:11 | 03:07:21 | 42611 | 56656
5 | 12:35:32 | 03:21:39 | 56657 | 71770
6 | 15:56:71 | 03:24:11 | 71771 | 87081
7 | 19:21:07 | 03:34:57 | 87082 | 103188
8 | 22:55:64 | 03:06:21 | 103189 | 117159
9 | 26:02:10 | 02:58:73 | 117160 | 130582
10 | 29:01:08 | 03:20:54 | 130583 | 145636
11 | 32:21:62 | 03:17:37 | 145637 | 160448
12 | 35:39:24 | 03:16:37 | 160449 | 175185
13 | 38:55:61 | 02:36:45 | 175186 | 186930
AccurateRip Summary
Disc not found in AccurateRip DB.
All Tracks
Album gain : -8.80 dB
Peak : 1.000000
Statistics
Read error : 0
Jitter error (maybe fixed) : 0
Retry sector count : 0
Damaged sector count : 0
Track 01
Filename : /Users/XLD_rips/Redtenbacher's Funkestra - Dr Hypenstein (2015) [FLAC]/01-01 Dr Hypenstein.flac
Pre-gap length : 00:02:00
Track gain : -8.79 dB
Peak : 0.999237
CRC32 hash (test run) : 1A00CF5A
CRC32 hash : 1A00CF5A
CRC32 hash (skip zero) : 5284644C
AccurateRip v1 signature : 33846652
AccurateRip v2 signature : 8FB7CE27
->Track not present in AccurateRip database.
Statistics
Read error : 0
Jitter error (maybe fixed) : 0
Retry sector count : 0
Damaged sector count : 0
Track 02
Filename : /Users/XLD_rips/Redtenbacher's Funkestra - Dr Hypenstein (2015) [FLAC]/01-02 Baby Fat.flac
Track gain : -8.66 dB
Peak : 0.999207
CRC32 hash (test run) : 2F70174D
CRC32 hash : 2F70174D
CRC32 hash (skip zero) : 78CF894E
AccurateRip v1 signature : 6B147924
AccurateRip v2 signature : 82CC97AB
->Track not present in AccurateRip database.
Statistics
Read error : 0
Jitter error (maybe fixed) : 0
Retry sector count : 0
Damaged sector count : 0
Track 03
Filename : /Users/XLD_rips/Redtenbacher's Funkestra - Dr Hypenstein (2015) [FLAC]/01-03 Go Mo.flac
Track gain : -9.05 dB
Peak : 0.988495
CRC32 hash (test run) : 1FC74093
CRC32 hash : 1FC74093
CRC32 hash (skip zero) : FD4CD2B7
AccurateRip v1 signature : 7952B405
AccurateRip v2 signature : FCFB6BE2
->Track not present in AccurateRip database.
Statistics
Read error : 0
Jitter error (maybe fixed) : 0
Retry sector count : 0
Damaged sector count : 0
Track 04
Filename : /Users/XLD_rips/Redtenbacher's Funkestra - Dr Hypenstein (2015) [FLAC]/01-04 Funktionality.flac
Track gain : -9.06 dB
Peak : 0.999115
CRC32 hash (test run) : 3E47DE39
CRC32 hash : 3E47DE39
CRC32 hash (skip zero) : ECFCA253
AccurateRip v1 signature : 374ED53A
AccurateRip v2 signature : 2AE1FCA8
->Track not present in AccurateRip database.
Statistics
Read error : 0
Jitter error (maybe fixed) : 0
Retry sector count : 0
Damaged sector count : 0
Track 05
Filename : /Users/XLD_rips/Redtenbacher's Funkestra - Dr Hypenstein (2015) [FLAC]/01-05 Swagger.flac
Track gain : -8.15 dB
Peak : 0.999115
CRC32 hash (test run) : B68A34F1
CRC32 hash : B68A34F1
CRC32 hash (skip zero) : DEF06A9E
AccurateRip v1 signature : E3BEF445
AccurateRip v2 signature : 8A2052BD
->Track not present in AccurateRip database.
Statistics
Read error : 0
Jitter error (maybe fixed) : 0
Retry sector count : 0
Damaged sector count : 0
Track 06
Filename : /Users/XLD_rips/Redtenbacher's Funkestra - Dr Hypenstein (2015) [FLAC]/01-06 Cave Canem.flac
Track gain : -8.87 dB
Peak : 0.988495
CRC32 hash (test run) : 02E2C2DD
CRC32 hash : 02E2C2DD
CRC32 hash (skip zero) : 1755803E
AccurateRip v1 signature : 5B5673CF
AccurateRip v2 signature : C1729CF7
->Track not present in AccurateRip database.
Statistics
Read error : 0
Jitter error (maybe fixed) : 0
Retry sector count : 0
Damaged sector count : 0
Track 07
Filename : /Users/XLD_rips/Redtenbacher's Funkestra - Dr Hypenstein (2015) [FLAC]/01-07 Bassbulator.flac
Track gain : -8.71 dB
Peak : 1.000000
CRC32 hash (test run) : A47D709C
CRC32 hash : A47D709C
CRC32 hash (skip zero) : A25C1234
AccurateRip v1 signature : 57A18819
AccurateRip v2 signature : 2B524CC5
->Track not present in AccurateRip database.
Statistics
Read error : 0
Jitter error (maybe fixed) : 0
Retry sector count : 0
Damaged sector count : 0
Track 08
Filename : /Users/XLD_rips/Redtenbacher's Funkestra - Dr Hypenstein (2015) [FLAC]/01-08 Right on It.flac
Track gain : -9.36 dB
Peak : 1.000000
CRC32 hash (test run) : DF7F12B9
CRC32 hash : DF7F12B9
CRC32 hash (skip zero) : A448F6CD
AccurateRip v1 signature : 89170FC9
AccurateRip v2 signature : 6D71A14B
->Track not present in AccurateRip database.
Statistics
Read error : 0
Jitter error (maybe fixed) : 0
Retry sector count : 0
Damaged sector count : 0
Track 09
Filename : /Users/XLD_rips/Redtenbacher's Funkestra - Dr Hypenstein (2015) [FLAC]/01-09 Bassface.flac
Track gain : -8.29 dB
Peak : 0.999115
CRC32 hash (test run) : 79A2A504
CRC32 hash : 79A2A504
CRC32 hash (skip zero) : 685F7E5A
AccurateRip v1 signature : F70BB16F
AccurateRip v2 signature : 4E9E28DE
->Track not present in AccurateRip database.
Statistics
Read error : 0
Jitter error (maybe fixed) : 0
Retry sector count : 0
Damaged sector count : 0
Track 10
Filename : /Users/XLD_rips/Redtenbacher's Funkestra - Dr Hypenstein (2015) [FLAC]/01-10 Macho Matchup.flac
Track gain : -9.12 dB
Peak : 0.999115
CRC32 hash (test run) : 55072054
CRC32 hash : 55072054
CRC32 hash (skip zero) : 3C24098D
AccurateRip v1 signature : 4EC077DB
AccurateRip v2 signature : 53CCDD44
->Track not present in AccurateRip database.
Statistics
Read error : 0
Jitter error (maybe fixed) : 0
Retry sector count : 0
Damaged sector count : 0
Track 11
Filename : /Users/XLD_rips/Redtenbacher's Funkestra - Dr Hypenstein (2015) [FLAC]/01-11 Busted.flac
Track gain : -8.08 dB
Peak : 0.999146
CRC32 hash (test run) : 581232A1
CRC32 hash : 581232A1
CRC32 hash (skip zero) : 381D38BA
AccurateRip v1 signature : 65AC1D87
AccurateRip v2 signature : 1F1037C0
->Track not present in AccurateRip database.
Statistics
Read error : 0
Jitter error (maybe fixed) : 0
Retry sector count : 0
Damaged sector count : 0
Track 12
Filename : /Users/XLD_rips/Redtenbacher's Funkestra - Dr Hypenstein (2015) [FLAC]/01-12 Tower of TNT.flac
Track gain : -9.70 dB
Peak : 1.000000
CRC32 hash (test run) : 82A06D6F
CRC32 hash : 82A06D6F
CRC32 hash (skip zero) : 051CC8AD
AccurateRip v1 signature : EB158D46
AccurateRip v2 signature : DC0096D0
->Track not present in AccurateRip database.
Statistics
Read error : 0
Jitter error (maybe fixed) : 0
Retry sector count : 0
Damaged sector count : 0
Track 13
Filename : /Users/XLD_rips/Redtenbacher's Funkestra - Dr Hypenstein (2015) [FLAC]/01-13 Supergalactic.flac
Track gain : -8.48 dB
Peak : 1.000000
CRC32 hash (test run) : D74F50D3
CRC32 hash : D74F50D3
CRC32 hash (skip zero) : ED463023
AccurateRip v1 signature : B9EC9B81
AccurateRip v2 signature : 3263C37D
->Track not present in AccurateRip database.
Statistics
Read error : 0
Jitter error (maybe fixed) : 0
Retry sector count : 0
Damaged sector count : 0
No errors occurred
End of status report
-----BEGIN XLD SIGNATURE-----
6T5fP2vQEux.2JzMclQDybRSs0o0Bpm5OuD_N6arrrugxXF8Q8DTZVW3.VwYVmwyuvF7FpDvoCEf99lf7YZOwr_.8V9K4x0TlygD4.m
-----END XLD SIGNATURE-----
 
Содержание индексной карты (.CUE)
TITLE "Dr Hypenstein"
PERFORMER "Redtenbacher's Funkestra"
REM GENRE "R&B"
REM DATE "2015"
REM DISCNUMBER 1
REM TOTALDISCS 1
REM DISCID BC09BC0D
REM REPLAYGAIN_ALBUM_GAIN -8.80 dB
REM REPLAYGAIN_ALBUM_PEAK 1.000000
FILE "01-01 Dr Hypenstein.flac" WAVE
TRACK 01 AUDIO
TITLE "Dr Hypenstein"
PERFORMER "Redtenbacher's Funkestra"
SONGWRITER "Stefan Redtenbacher, Thomas Feurer, Published By Hypenstein Publishing (Asca) And Wooden Hat Music (Ascap)"
ISRC US2AE1500101
FLAGS DCP
REM REPLAYGAIN_TRACK_GAIN -8.79 dB
REM REPLAYGAIN_TRACK_PEAK 0.999237
INDEX 01 00:00:00
FILE "01-02 Baby Fat.flac" WAVE
TRACK 02 AUDIO
TITLE "Baby Fat"
PERFORMER "Redtenbacher's Funkestra"
SONGWRITER "Stefan Redtenbacher, Thomas Feurer, Published By Hypenstein Publishing (Asca) And Wooden Hat Music (Ascap)"
ISRC US2AE1500102
FLAGS DCP
REM REPLAYGAIN_TRACK_GAIN -8.66 dB
REM REPLAYGAIN_TRACK_PEAK 0.999207
INDEX 01 00:00:00
FILE "01-03 Go Mo.flac" WAVE
TRACK 03 AUDIO
TITLE "Go Mo"
PERFORMER "Redtenbacher's Funkestra"
SONGWRITER "Stefan Redtenbacher, Thomas Feurer, Published By Hypenstein Publishing (Asca) And Wooden Hat Music (Ascap)"
ISRC US2AE1500103
FLAGS DCP
REM REPLAYGAIN_TRACK_GAIN -9.05 dB
REM REPLAYGAIN_TRACK_PEAK 0.988495
INDEX 01 00:00:00
FILE "01-04 Funktionality.flac" WAVE
TRACK 04 AUDIO
TITLE "Funktionality"
PERFORMER "Redtenbacher's Funkestra"
SONGWRITER "Stefan Redtenbacher, Thomas Feurer, Published By Hypenstein Publishing (Asca) And Wooden Hat Music (Ascap)"
ISRC US2AE1500104
FLAGS DCP
REM REPLAYGAIN_TRACK_GAIN -9.06 dB
REM REPLAYGAIN_TRACK_PEAK 0.999115
INDEX 01 00:00:00
FILE "01-05 Swagger.flac" WAVE
TRACK 05 AUDIO
TITLE "Swagger"
PERFORMER "Redtenbacher's Funkestra"
SONGWRITER "Stefan Redtenbacher, Thomas Feurer, Published By Hypenstein Publishing (Asca) And Wooden Hat Music (Ascap)"
ISRC US2AE1500105
FLAGS DCP
REM REPLAYGAIN_TRACK_GAIN -8.15 dB
REM REPLAYGAIN_TRACK_PEAK 0.999115
INDEX 01 00:00:00
FILE "01-06 Cave Canem.flac" WAVE
TRACK 06 AUDIO
TITLE "Cave Canem"
PERFORMER "Redtenbacher's Funkestra"
SONGWRITER "Stefan Redtenbacher, Thomas Feurer, Published By Hypenstein Publishing (Asca) And Wooden Hat Music (Ascap)"
ISRC US2AE1500106
FLAGS DCP
REM REPLAYGAIN_TRACK_GAIN -8.87 dB
REM REPLAYGAIN_TRACK_PEAK 0.988495
INDEX 01 00:00:00
FILE "01-07 Bassbulator.flac" WAVE
TRACK 07 AUDIO
TITLE "Bassbulator"
PERFORMER "Redtenbacher's Funkestra"
SONGWRITER "Stefan Redtenbacher, Thomas Feurer, Published By Hypenstein Publishing (Asca) And Wooden Hat Music (Ascap)"
ISRC US2AE1500107
FLAGS DCP
REM REPLAYGAIN_TRACK_GAIN -8.71 dB
REM REPLAYGAIN_TRACK_PEAK 1.000000
INDEX 01 00:00:00
FILE "01-08 Right on It.flac" WAVE
TRACK 08 AUDIO
TITLE "Right on It"
PERFORMER "Redtenbacher's Funkestra"
SONGWRITER "Stefan Redtenbacher, Thomas Feurer, Published By Hypenstein Publishing (Asca) And Wooden Hat Music (Ascap)"
ISRC US2AE1500108
FLAGS DCP
REM REPLAYGAIN_TRACK_GAIN -9.36 dB
REM REPLAYGAIN_TRACK_PEAK 1.000000
INDEX 01 00:00:00
FILE "01-09 Bassface.flac" WAVE
TRACK 09 AUDIO
TITLE "Bassface"
PERFORMER "Redtenbacher's Funkestra"
SONGWRITER "Stefan Redtenbacher, Thomas Feurer, Published By Hypenstein Publishing (Asca) And Wooden Hat Music (Ascap)"
ISRC US2AE1500109
FLAGS DCP
REM REPLAYGAIN_TRACK_GAIN -8.29 dB
REM REPLAYGAIN_TRACK_PEAK 0.999115
INDEX 01 00:00:00
FILE "01-10 Macho Matchup.flac" WAVE
TRACK 10 AUDIO
TITLE "Macho Matchup"
PERFORMER "Redtenbacher's Funkestra"
SONGWRITER "Stefan Redtenbacher, Thomas Feurer, Published By Hypenstein Publishing (Asca) And Wooden Hat Music (Ascap)"
ISRC US2AE1500110
FLAGS DCP
REM REPLAYGAIN_TRACK_GAIN -9.12 dB
REM REPLAYGAIN_TRACK_PEAK 0.999115
INDEX 01 00:00:00
FILE "01-11 Busted.flac" WAVE
TRACK 11 AUDIO
TITLE "Busted"
PERFORMER "Redtenbacher's Funkestra"
SONGWRITER "Stefan Redtenbacher, Thomas Feurer, Published By Hypenstein Publishing (Asca) And Wooden Hat Music (Ascap)"
ISRC US2AE1500111
FLAGS DCP
REM REPLAYGAIN_TRACK_GAIN -8.08 dB
REM REPLAYGAIN_TRACK_PEAK 0.999146
INDEX 01 00:00:00
FILE "01-12 Tower of TNT.flac" WAVE
TRACK 12 AUDIO
TITLE "Tower of TNT"
PERFORMER "Redtenbacher's Funkestra"
SONGWRITER "Stefan Redtenbacher, Thomas Feurer, Published By Hypenstein Publishing (Asca) And Wooden Hat Music (Ascap)"
ISRC US2AE1500112
FLAGS DCP
REM REPLAYGAIN_TRACK_GAIN -9.70 dB
REM REPLAYGAIN_TRACK_PEAK 1.000000
INDEX 01 00:00:00
FILE "01-13 Supergalactic.flac" WAVE
TRACK 13 AUDIO
TITLE "Supergalactic"
PERFORMER "Redtenbacher's Funkestra"
SONGWRITER "Stefan Redtenbacher, Thomas Feurer, Published By Hypenstein Publishing (Asca) And Wooden Hat Music (Ascap)"
ISRC US2AE1500113
FLAGS DCP
REM REPLAYGAIN_TRACK_GAIN -8.48 dB
REM REPLAYGAIN_TRACK_PEAK 1.000000
INDEX 01 00:00:00
 
Об альбоме
On “Dr Hypenstein”, Redtenbacher’s Funkestra brings their danceable brand of funk to 2015, laying down 13 of their funkiest grooves yet, from the fluty can’t-stop-your-feet sounds of the title track to the heavy crunch of “Swagger,” then letting the atomic dogs out with “Cave Canem” and the percolating “Funktionality".
London-based bassist, composer, arranger and bandleader Stefan Redtenbacher is the mastermind behind Dr Hypenstein, which includes the bass-driven “Bass Face” and “Bassbulator,” the dare-you-not-to-move “Right On It” and “Supergalactic", and expands on previous material to incorporate electronic sounds in all the while standing proud with the history of funk.
This is the eighth album from Redtenbacher’s Funkestra, which regularly performs at (and packs) London’s legendary 606 Club and other established London venues. Guest musicians have included Fred Wesley, Alfred “Pee Wee” Ellis, “Doc” Kupka, Lee Thornburg and Lenny Pickett from Tower of Power, Eric Krasno of Soulive, Stanton Moore of Galactic and the horn sections from Prince, Incognito and The Brand New Heavies.
The Austrian-born Redtenbacher fell for Herbie Hancock and Maceo Parker early on, then studied at the Vienna Conservatory and Boston’s Berklee College of Music, and has recorded and performed with legends including Steve Winwood, Jack Bruce, Amy Winehouse, Lulu, Mica Paris, and Herb Alpert.
 
Состав

Stefan Redtenbacher – bass-guitar, composer
Eran Kendler – guitar
Rob Taggart – keys
Rob Fowler – tenor saxophone
Sid Gauld – trumpet
Mike Sturgis – drums
& guests
Приватный:
Нет (DHT включён)
Размер:
292.03 Мб (306,211,723 байт) » файлов: 16
Участники:
0 раздают, 0 качают (0 участников всего)
Внешние участники:
2 раздают, 1 качают (3 участников всего) [ Обновить ]
Есть вопросы - пишите личное сообщение пользователю M0p94ok.
04:08
52
Нет комментариев. Ваш будет первым!