Поиск

(Soul, R&B, Gospel) [CD] Sam Cooke With The Soul Stirrers - The Complete Specialty Records Recordings (3CD) - 2002, FLAC (tracks+.cue), lossless

(Soul, R&B, Gospel) [CD] Sam Cooke With The Soul Stirrers - The Complete Specialty Records Recordings (3CD) - 2002, FLAC (tracks+.cue), lossless
Треклист:
Sam Cooke With The Soul Stirrers
The Complete Specialty Records Recordings (3CD)

Жанр: Soul, R&B, Gospel
Носитель: CD
Год издания: 2002
Издатель (лейбл): Specialty Records
Номер по каталогу: 3SPCD-4437-2
Аудиокодек: FLAC (*.flac)
Тип рипа: tracks+.cue
Битрейт аудио: lossless
Продолжительность: 03:49:38
Источник (релизер): Pisulik
Наличие сканов в содержимом раздачи: да 
 
 
CD 1 (75:58)
Треклист:
01. Come, Let Us Go Back To God (2:51)
02. Peace In The Valley (2:46)
03. I'm Gonna Build On That Shore (2:19)
04. I'm Gonna Build On That Shore (2:35)
05. I'm On The Firing Line (2:56)
06. I'm On The Firing Line (2:47)
07. Joy, Joy To My Soul (2:09)
08. Until Jesus Calls Me Home (2:44)
09. Jesus Done Just What He Said (2:20)
10. Jesus Gave Me Water (2:31)
11. He's My Rock (Wait On Jesus) (2:35)
12. How Far Am I From Canaan (3:02)
13. Christ Is All (2:36)
14. It Won't Be Very Long (2:38)
15. It Won't Be Very Long [Take 2 - Alternate] (2:42)
16. It Won't Be Very Long [Take 3 - Alternate] (2:39)
17. Jesus Will Lead Me To That Promised Land [Take 1 - Alternate] (3:05)
18. Jesus Will Lead Me To That Promised Land [Incomplete - Take 2 - Alternate] (0:35)
19. Jesus Will Lead Me To That Promised Land (2:44)
20. Just Another Day (2:45)
21. Let Me Go Home [Take 1 - Alternate] (3:15)
22. Let Me Go Home (2:39)
23. Jesus Paid The Debt (2:54)
24. Jesus Paid The Debt [Take 2 - Alternate] (2:47)
25. How Far Am I From Canaan (2:52)
26. How Far Am I From Canaan [Incomplete - Take 1 - Alternate] (1:46)
27. How Far Am I From Canaan [Take 3 - Alternate] (2:57)
28. Someday Somewhere (2:17)
29. Someday Somewhere (3:12)
 
 
Лог создания рипа
Exact Audio Copy V1.3 from 2. September 2016
EAC extraction logfile from 9. September 2017, 20:13
Sam Cooke with the Soul Stirrers / The Complete Specialty Records Recordings [CD 1 of 3]
Used drive : ASUS BW-16D1HT Adapter: 1 ID: 0
Read mode : Secure
Utilize accurate stream : Yes
Defeat audio cache : Yes
Make use of C2 pointers : No
Read offset correction : 6
Overread into Lead-In and Lead-Out : No
Fill up missing offset samples with silence : Yes
Delete leading and trailing silent blocks : No
Null samples used in CRC calculations : Yes
Used interface : Native Win32 interface for Win NT & 2000
Gap handling : Appended to previous track
Used output format : User Defined Encoder
Selected bitrate : 896 kBit/s
Quality : High
Add ID3 tag : No
Command line compressor : C:\Exact Audio Copy\FLAC\FLAC.EXE
Additional command line options : -8 -V -T "ARTIST=%artist%" -T "TITLE=%title%" -T "ALBUM=%albumtitle%" -T "DATE=%year%" -T "TRACKNUMBER=%tracknr%" -T "TOTALTRACKS=%numtracks%" -T "GENRE=%genre%" -T "ALBUMARTIST=%albumartist%" -T "ALBUM ARTIST=%albumartist%" -T "COMMENT=EAC Secure Mode, Test & Copy, AccurateRip, FLAC -8" %source%
TOC of the extracted CD
Track | Start | Length | Start sector | End sector
---------------------------------------------------------
1 | 0:00.01 | 2:51.16 | 1 | 12841
2 | 2:51.17 | 2:45.45 | 12842 | 25261
3 | 5:36.62 | 2:19.04 | 25262 | 35690
4 | 7:55.66 | 2:34.62 | 35691 | 47302
5 | 10:30.53 | 2:55.58 | 47303 | 60485
6 | 13:26.36 | 2:47.21 | 60486 | 73031
7 | 16:13.57 | 2:08.50 | 73032 | 82681
8 | 18:22.32 | 2:44.30 | 82682 | 95011
9 | 21:06.62 | 2:19.72 | 95012 | 105508
10 | 23:26.59 | 2:30.40 | 105509 | 116798
11 | 25:57.24 | 2:34.67 | 116799 | 128415
12 | 28:32.16 | 3:02.34 | 128416 | 142099
13 | 31:34.50 | 2:35.64 | 142100 | 153788
14 | 34:10.39 | 2:38.11 | 153789 | 165649
15 | 36:48.50 | 2:42.33 | 165650 | 177832
16 | 39:31.08 | 2:39.14 | 177833 | 189771
17 | 42:10.22 | 3:05.00 | 189772 | 203646
18 | 45:15.22 | 0:35.03 | 203647 | 206274
19 | 45:50.25 | 2:43.62 | 206275 | 218561
20 | 48:34.12 | 2:44.66 | 218562 | 230927
21 | 51:19.03 | 3:15.21 | 230928 | 245573
22 | 54:34.24 | 2:38.39 | 245574 | 257462
23 | 57:12.63 | 2:53.40 | 257463 | 270477
24 | 60:06.28 | 2:47.08 | 270478 | 283010
25 | 62:53.36 | 2:51.58 | 283011 | 295893
26 | 65:45.19 | 1:46.24 | 295894 | 303867
27 | 67:31.43 | 2:56.67 | 303868 | 317134
28 | 70:28.35 | 2:17.33 | 317135 | 327442
29 | 72:45.68 | 3:11.65 | 327443 | 341832
Track 1
Filename E:\01 - Come, Let Us Go Back To God.wav
Pre-gap length 0:00:02.01
Peak level 75.0 %
Extraction speed 1.1 X
Track quality 100.0 %
Test CRC EC120894
Copy CRC EC120894
Accurately ripped (confidence 2) [CBC157ED] (AR v2)
Copy OK
Track 2
Filename E:\02 - Peace In The Valley.wav
Peak level 82.4 %
Extraction speed 1.2 X
Track quality 100.0 %
Test CRC E8DF1583
Copy CRC E8DF1583
Accurately ripped (confidence 2) [4BB0C2C9] (AR v2)
Copy OK
Track 3
Filename E:\03 - I'm Gonna Build On That Shore.wav
Peak level 58.8 %
Extraction speed 1.2 X
Track quality 100.0 %
Test CRC AE68C492
Copy CRC AE68C492
Accurately ripped (confidence 2) [C56B027A] (AR v2)
Copy OK
Track 4
Filename E:\04 - I'm Gonna Build On That Shore.wav
Peak level 49.5 %
Extraction speed 1.3 X
Track quality 100.0 %
Test CRC 261EF88F
Copy CRC 261EF88F
Accurately ripped (confidence 2) [8540A69B] (AR v2)
Copy OK
Track 5
Filename E:\05 - I'm On The Firing Line.wav
Peak level 58.3 %
Extraction speed 1.4 X
Track quality 100.0 %
Test CRC 9F1C289C
Copy CRC 9F1C289C
Accurately ripped (confidence 2) [3D8D7399] (AR v2)
Copy OK
Track 6
Filename E:\06 - I'm On The Firing Line.wav
Peak level 67.7 %
Extraction speed 1.1 X
Track quality 99.9 %
Test CRC DC232C8E
Copy CRC DC232C8E
Accurately ripped (confidence 2) [5F595132] (AR v2)
Copy OK
Track 7
Filename E:\07 - Joy, Joy To My Soul.wav
Peak level 65.9 %
Extraction speed 1.4 X
Track quality 100.0 %
Test CRC 92608E3A
Copy CRC 92608E3A
Accurately ripped (confidence 2) [E4EAB9C6] (AR v2)
Copy OK
Track 8
Filename E:\08 - Until Jesus Calls Me Home.wav
Peak level 70.7 %
Extraction speed 1.5 X
Track quality 100.0 %
Test CRC 9CF3523A
Copy CRC 9CF3523A
Accurately ripped (confidence 2) [8081575A] (AR v2)
Copy OK
Track 9
Filename E:\09 - Jesus Done Just What He Said.wav
Peak level 74.8 %
Extraction speed 1.5 X
Track quality 100.0 %
Test CRC 1965E181
Copy CRC 1965E181
Accurately ripped (confidence 2) [46612846] (AR v2)
Copy OK
Track 10
Filename E:\10 - Jesus Gave Me Water.wav
Peak level 64.1 %
Extraction speed 1.6 X
Track quality 100.0 %
Test CRC 76A8C791
Copy CRC 76A8C791
Accurately ripped (confidence 3) [440EA317] (AR v2)
Copy OK
Track 11
Filename E:\11 - He's My Rock (Wait On Jesus).wav
Peak level 76.1 %
Extraction speed 1.6 X
Track quality 100.0 %
Test CRC A825D699
Copy CRC A825D699
Accurately ripped (confidence 2) [B3CCD646] (AR v2)
Copy OK
Track 12
Filename E:\12 - How Far Am I From Canaan.wav
Peak level 73.5 %
Extraction speed 1.7 X
Track quality 100.0 %
Test CRC 85280282
Copy CRC 85280282
Accurately ripped (confidence 2) [429D11C1] (AR v2)
Copy OK
Track 13
Filename E:\13 - Christ Is All.wav
Peak level 64.1 %
Extraction speed 1.7 X
Track quality 100.0 %
Test CRC 231FF2F5
Copy CRC 231FF2F5
Accurately ripped (confidence 2) [72075594] (AR v2)
Copy OK
Track 14
Filename E:\14 - It Won't Be Very Long.wav
Peak level 89.0 %
Extraction speed 1.8 X
Track quality 100.0 %
Test CRC 46048762
Copy CRC 46048762
Accurately ripped (confidence 2) [ECD0AC61] (AR v2)
Copy OK
Track 15
Filename E:\15 - It Won't Be Very Long [Take 2 - Alternate].wav
Peak level 100.0 %
Extraction speed 1.8 X
Track quality 100.0 %
Test CRC 7D588031
Copy CRC 7D588031
Accurately ripped (confidence 2) [7C245188] (AR v2)
Copy OK
Track 16
Filename E:\16 - It Won't Be Very Long [Take 3 - Alternate].wav
Peak level 78.5 %
Extraction speed 1.9 X
Track quality 100.0 %
Test CRC B902C12B
Copy CRC B902C12B
Accurately ripped (confidence 2) [8D334E2B] (AR v2)
Copy OK
Track 17
Filename E:\17 - Jesus Will Lead Me To That Promised Land [Take 1 - Alternate].wav
Peak level 79.2 %
Extraction speed 2.0 X
Track quality 100.0 %
Test CRC 7273A03E
Copy CRC 7273A03E
Accurately ripped (confidence 2) [4B5E24F8] (AR v2)
Copy OK
Track 18
Filename E:\18 - Jesus Will Lead Me To That Promised Land [Incomplete - Take 2 - Alternate].wav
Peak level 66.9 %
Extraction speed 1.1 X
Track quality 100.0 %
Test CRC 3CC88C81
Copy CRC 3CC88C81
Accurately ripped (confidence 2) [8C7BF060] (AR v2)
Copy OK
Track 19
Filename E:\19 - Jesus Will Lead Me To That Promised Land.wav
Peak level 80.8 %
Extraction speed 2.0 X
Track quality 100.0 %
Test CRC 1510F233
Copy CRC 1510F233
Accurately ripped (confidence 2) [D7B3C49C] (AR v2)
Copy OK
Track 20
Filename E:\20 - Just Another Day.wav
Peak level 93.4 %
Extraction speed 2.0 X
Track quality 100.0 %
Test CRC F8FFFC13
Copy CRC F8FFFC13
Accurately ripped (confidence 2) [EA659E95] (AR v2)
Copy OK
Track 21
Filename E:\21 - Let Me Go Home [Take 1 - Alternate].wav
Peak level 95.0 %
Extraction speed 2.1 X
Track quality 100.0 %
Test CRC D27C34D2
Copy CRC D27C34D2
Accurately ripped (confidence 2) [07F46896] (AR v2)
Copy OK
Track 22
Filename E:\22 - Let Me Go Home.wav
Peak level 100.0 %
Extraction speed 2.1 X
Track quality 100.0 %
Test CRC 93EBC375
Copy CRC 93EBC375
Accurately ripped (confidence 2) [A7D54556] (AR v2)
Copy OK
Track 23
Filename E:\23 - Jesus Paid The Debt.wav
Peak level 100.0 %
Extraction speed 2.2 X
Track quality 100.0 %
Test CRC 3DD103D6
Copy CRC 3DD103D6
Accurately ripped (confidence 2) [87A53E82] (AR v2)
Copy OK
Track 24
Filename E:\24 - Jesus Paid The Debt [Take 2 - Alternate].wav
Peak level 99.9 %
Extraction speed 2.2 X
Track quality 100.0 %
Test CRC 4F08E6E8
Copy CRC 4F08E6E8
Accurately ripped (confidence 2) [E575D6D8] (AR v2)
Copy OK
Track 25
Filename E:\25 - How Far Am I From Canaan.wav
Peak level 83.8 %
Extraction speed 2.3 X
Track quality 100.0 %
Test CRC 799F375C
Copy CRC 799F375C
Accurately ripped (confidence 2) [FB03CB43] (AR v2)
Copy OK
Track 26
Filename E:\26 - How Far Am I From Canaan [Incomplete - Take 1 - Alternate].wav
Peak level 100.0 %
Extraction speed 2.1 X
Track quality 100.0 %
Test CRC 4A6E37B5
Copy CRC 4A6E37B5
Accurately ripped (confidence 2) [4B21C770] (AR v2)
Copy OK
Track 27
Filename E:\27 - How Far Am I From Canaan [Take 3 - Alternate].wav
Peak level 100.0 %
Extraction speed 2.3 X
Track quality 100.0 %
Test CRC 642FD359
Copy CRC 642FD359
Accurately ripped (confidence 2) [4400EEF0] (AR v2)
Copy OK
Track 28
Filename E:\28 - Someday Somewhere.wav
Peak level 74.1 %
Extraction speed 1.8 X
Track quality 99.9 %
Test CRC A7DFCF84
Copy CRC A7DFCF84
Accurately ripped (confidence 2) [B2737D3F] (AR v2)
Copy OK
Track 29
Filename E:\29 - Someday Somewhere.wav
Peak level 98.3 %
Extraction speed 2.4 X
Track quality 100.0 %
Test CRC 9B30E0B9
Copy CRC 9B30E0B9
Accurately ripped (confidence 2) [B92925B4] (AR v2)
Copy OK
All tracks accurately ripped
No errors occurred
End of status report
==== Log checksum 6A2A53FDE20434B119758F89AF82DBC5B09F0D126DD9B8C3800DE40B5912298D ====
 
Содержание индексной карты (.CUE)
REM GENRE "Rhythm and Blues"
REM DATE 2002
REM DISCID AA11CD1D
REM COMMENT "ExactAudioCopy v1.3"
PERFORMER "Sam Cooke with the Soul Stirrers"
TITLE "The Complete Specialty Records Recordings [CD 1 of 3]"
REM COMPOSER ""
FILE "01 - Come, Let Us Go Back To God.wav" WAVE
TRACK 01 AUDIO
TITLE "Come, Let Us Go Back To God"
PERFORMER "Sam Cooke with the Soul Stirrers"
REM COMPOSER ""
FLAGS DCP
PREGAP 00:00:01
INDEX 01 00:00:00
FILE "02 - Peace In The Valley.wav" WAVE
TRACK 02 AUDIO
TITLE "Peace In The Valley"
PERFORMER "Sam Cooke with the Soul Stirrers"
REM COMPOSER ""
FLAGS DCP
INDEX 01 00:00:00
FILE "03 - I'm Gonna Build On That Shore.wav" WAVE
TRACK 03 AUDIO
TITLE "I'm Gonna Build On That Shore"
PERFORMER "Sam Cooke with the Soul Stirrers"
REM COMPOSER ""
FLAGS DCP
INDEX 01 00:00:00
FILE "04 - I'm Gonna Build On That Shore.wav" WAVE
TRACK 04 AUDIO
TITLE "I'm Gonna Build On That Shore"
PERFORMER "Sam Cooke with the Soul Stirrers"
REM COMPOSER ""
FLAGS DCP
INDEX 01 00:00:00
FILE "05 - I'm On The Firing Line.wav" WAVE
TRACK 05 AUDIO
TITLE "I'm On The Firing Line"
PERFORMER "Sam Cooke with the Soul Stirrers"
REM COMPOSER ""
FLAGS DCP
INDEX 01 00:00:00
FILE "06 - I'm On The Firing Line.wav" WAVE
TRACK 06 AUDIO
TITLE "I'm On The Firing Line"
PERFORMER "Sam Cooke with the Soul Stirrers"
REM COMPOSER ""
FLAGS DCP
INDEX 01 00:00:00
FILE "07 - Joy, Joy To My Soul.wav" WAVE
TRACK 07 AUDIO
TITLE "Joy, Joy To My Soul"
PERFORMER "Sam Cooke with the Soul Stirrers"
REM COMPOSER ""
FLAGS DCP
INDEX 01 00:00:00
FILE "08 - Until Jesus Calls Me Home.wav" WAVE
TRACK 08 AUDIO
TITLE "Until Jesus Calls Me Home"
PERFORMER "Sam Cooke with the Soul Stirrers"
REM COMPOSER ""
FLAGS DCP
INDEX 01 00:00:00
FILE "09 - Jesus Done Just What He Said.wav" WAVE
TRACK 09 AUDIO
TITLE "Jesus Done Just What He Said"
PERFORMER "Sam Cooke with the Soul Stirrers"
REM COMPOSER ""
FLAGS DCP
INDEX 01 00:00:00
FILE "10 - Jesus Gave Me Water.wav" WAVE
TRACK 10 AUDIO
TITLE "Jesus Gave Me Water"
PERFORMER "Sam Cooke with the Soul Stirrers"
REM COMPOSER ""
FLAGS DCP
INDEX 01 00:00:00
FILE "11 - He's My Rock (Wait On Jesus).wav" WAVE
TRACK 11 AUDIO
TITLE "He's My Rock (Wait On Jesus)"
PERFORMER "Sam Cooke with the Soul Stirrers"
REM COMPOSER ""
FLAGS DCP
INDEX 01 00:00:00
FILE "12 - How Far Am I From Canaan.wav" WAVE
TRACK 12 AUDIO
TITLE "How Far Am I From Canaan"
PERFORMER "Sam Cooke with the Soul Stirrers"
REM COMPOSER ""
FLAGS DCP
INDEX 01 00:00:00
FILE "13 - Christ Is All.wav" WAVE
TRACK 13 AUDIO
TITLE "Christ Is All"
PERFORMER "Sam Cooke with the Soul Stirrers"
REM COMPOSER ""
FLAGS DCP
INDEX 01 00:00:00
FILE "14 - It Won't Be Very Long.wav" WAVE
TRACK 14 AUDIO
TITLE "It Won't Be Very Long"
PERFORMER "Sam Cooke with the Soul Stirrers"
REM COMPOSER ""
FLAGS DCP
INDEX 01 00:00:00
FILE "15 - It Won't Be Very Long [Take 2 - Alternate].wav" WAVE
TRACK 15 AUDIO
TITLE "It Won't Be Very Long [Take 2 - Alternate]"
PERFORMER "Sam Cooke with the Soul Stirrers"
REM COMPOSER ""
FLAGS DCP
INDEX 01 00:00:00
FILE "16 - It Won't Be Very Long [Take 3 - Alternate].wav" WAVE
TRACK 16 AUDIO
TITLE "It Won't Be Very Long [Take 3 - Alternate]"
PERFORMER "Sam Cooke with the Soul Stirrers"
REM COMPOSER ""
FLAGS DCP
INDEX 01 00:00:00
FILE "17 - Jesus Will Lead Me To That Promised Land....wav" WAVE
TRACK 17 AUDIO
TITLE "Jesus Will Lead Me To That Promised Land [Take 1 - Alternate]"
PERFORMER "Sam Cooke with the Soul Stirrers"
REM COMPOSER ""
FLAGS DCP
INDEX 01 00:00:00
FILE "18 - Jesus Will Lead Me To That Promised Land....wav" WAVE
TRACK 18 AUDIO
TITLE "Jesus Will Lead Me To That Promised Land [Incomplete - Take 2 - Alternate]"
PERFORMER "Sam Cooke with the Soul Stirrers"
REM COMPOSER ""
FLAGS DCP
INDEX 01 00:00:00
FILE "19 - Jesus Will Lead Me To That Promised Land.wav" WAVE
TRACK 19 AUDIO
TITLE "Jesus Will Lead Me To That Promised Land"
PERFORMER "Sam Cooke with the Soul Stirrers"
REM COMPOSER ""
FLAGS DCP
INDEX 01 00:00:00
FILE "20 - Just Another Day.wav" WAVE
TRACK 20 AUDIO
TITLE "Just Another Day"
PERFORMER "Sam Cooke with the Soul Stirrers"
REM COMPOSER ""
FLAGS DCP
INDEX 01 00:00:00
FILE "21 - Let Me Go Home [Take 1 - Alternate].wav" WAVE
TRACK 21 AUDIO
TITLE "Let Me Go Home [Take 1 - Alternate]"
PERFORMER "Sam Cooke with the Soul Stirrers"
REM COMPOSER ""
FLAGS DCP
INDEX 01 00:00:00
FILE "22 - Let Me Go Home.wav" WAVE
TRACK 22 AUDIO
TITLE "Let Me Go Home"
PERFORMER "Sam Cooke with the Soul Stirrers"
REM COMPOSER ""
FLAGS DCP
INDEX 01 00:00:00
FILE "23 - Jesus Paid The Debt.wav" WAVE
TRACK 23 AUDIO
TITLE "Jesus Paid The Debt"
PERFORMER "Sam Cooke with the Soul Stirrers"
REM COMPOSER ""
FLAGS DCP
INDEX 01 00:00:00
FILE "24 - Jesus Paid The Debt [Take 2 - Alternate].wav" WAVE
TRACK 24 AUDIO
TITLE "Jesus Paid The Debt [Take 2 - Alternate]"
PERFORMER "Sam Cooke with the Soul Stirrers"
REM COMPOSER ""
FLAGS DCP
INDEX 01 00:00:00
FILE "25 - How Far Am I From Canaan.wav" WAVE
TRACK 25 AUDIO
TITLE "How Far Am I From Canaan"
PERFORMER "Sam Cooke with the Soul Stirrers"
REM COMPOSER ""
FLAGS DCP
INDEX 01 00:00:00
FILE "26 - How Far Am I From Canaan [Incomplete - Take 1....wav" WAVE
TRACK 26 AUDIO
TITLE "How Far Am I From Canaan [Incomplete - Take 1 - Alternate]"
PERFORMER "Sam Cooke with the Soul Stirrers"
REM COMPOSER ""
FLAGS DCP
INDEX 01 00:00:00
FILE "27 - How Far Am I From Canaan [Take 3 - Alternate].wav" WAVE
TRACK 27 AUDIO
TITLE "How Far Am I From Canaan [Take 3 - Alternate]"
PERFORMER "Sam Cooke with the Soul Stirrers"
REM COMPOSER ""
FLAGS DCP
INDEX 01 00:00:00
FILE "28 - Someday Somewhere.wav" WAVE
TRACK 28 AUDIO
TITLE "Someday Somewhere"
PERFORMER "Sam Cooke with the Soul Stirrers"
REM COMPOSER ""
FLAGS DCP
INDEX 01 00:00:00
FILE "29 - Someday Somewhere.wav" WAVE
TRACK 29 AUDIO
TITLE "Someday Somewhere"
PERFORMER "Sam Cooke with the Soul Stirrers"
REM COMPOSER ""
FLAGS DCP
INDEX 01 00:00:00
 
CD 2 (79:10)
Треклист:
01. End Of My Journey (2:56)
02. He'll Welcome Me (3:06)
03. He's My Friend Until The End (3:05)
04. He's My Friend Until The End [Take 2 - Alternate] (3:00)
05. I Have A Friend Above All Others (2:21)
06. Come And Go To That Land (2:38)
07. Come And Go To That Land [Take 1 - Alternate] (2:39)
08. Come And Go To That Land [Take 3 - Alternate] (2:36)
09. I'd Give Up All My Sins And Serve The Lord (2:32)
10. I'm So Happy In The Service Of The Lord (2:22)
11. All Right Now (1:49)
12. All Right Now [Take 2 - Alternate] (3:44)
13. All Right Now [Take 4 - Alternate] (2:52)
14. He'll Make A Way (2:40)
15. He'll Make A Way [Take 2 - Alternate] (3:01)
16. Jesus, I'll Never Forget (2:38)
17. Jesus, I'll Never Forget [Take 5 - Alternate] (2:33)
18. Any Day Now (2:29)
19. Any Day Now [Take 6 - Alternate] (2:38)
20. One More River (3:14)
21. Nearer To Thee (3:05)
22. I'm So Glad (Trouble Don't Last Always) (3:15)
23. Be With Me Jesus (2:31)
24. He's My Guide [Take 4 - Alternate] (2:46)
25. He's My Guide [Incomplete - Take 12 - Alternate] (1:38)
26. He's My Guide [Take 13] (2:36)
27. Pilgrim Of Sorrow (2:38)
28. Pray [Incomplete] (1:41)
29. The Last Mile Of The Way [Incomplete - Take 1 - Alternate] (1:02)
30. The Last Mile Of The Way [Take 2A - Alternate] (3:05)
 
 
Лог создания рипа
Exact Audio Copy V1.3 from 2. September 2016
EAC extraction logfile from 10. September 2017, 13:23
Sam Cooke with the Soul Stirrers / The Complete Specialty Records Recordings [CD 2 of 3]
Used drive : ASUS BW-16D1HT Adapter: 1 ID: 0
Read mode : Secure
Utilize accurate stream : Yes
Defeat audio cache : Yes
Make use of C2 pointers : No
Read offset correction : 6
Overread into Lead-In and Lead-Out : No
Fill up missing offset samples with silence : Yes
Delete leading and trailing silent blocks : No
Null samples used in CRC calculations : Yes
Used interface : Native Win32 interface for Win NT & 2000
Gap handling : Appended to previous track
Used output format : User Defined Encoder
Selected bitrate : 896 kBit/s
Quality : High
Add ID3 tag : No
Command line compressor : C:\Exact Audio Copy\FLAC\FLAC.EXE
Additional command line options : -8 -V -T "ARTIST=%artist%" -T "TITLE=%title%" -T "ALBUM=%albumtitle%" -T "DATE=%year%" -T "TRACKNUMBER=%tracknr%" -T "TOTALTRACKS=%numtracks%" -T "GENRE=%genre%" -T "ALBUMARTIST=%albumartist%" -T "ALBUM ARTIST=%albumartist%" -T "COMMENT=EAC Secure Mode, Test & Copy, AccurateRip, FLAC -8" %source%
TOC of the extracted CD
Track | Start | Length | Start sector | End sector
---------------------------------------------------------
1 | 0:00.01 | 2:55.65 | 1 | 13190
2 | 2:55.66 | 3:06.03 | 13191 | 27143
3 | 6:01.69 | 3:04.56 | 27144 | 40999
4 | 9:06.50 | 2:59.59 | 41000 | 54483
5 | 12:06.34 | 2:20.44 | 54484 | 65027
6 | 14:27.03 | 2:37.65 | 65028 | 76867
7 | 17:04.68 | 2:38.73 | 76868 | 88790
8 | 19:43.66 | 2:36.31 | 88791 | 100521
9 | 22:20.22 | 2:31.60 | 100522 | 111906
10 | 24:52.07 | 2:21.69 | 111907 | 122550
11 | 27:14.01 | 1:48.74 | 122551 | 130724
12 | 29:03.00 | 3:44.01 | 130725 | 147525
13 | 32:47.01 | 2:52.06 | 147526 | 160431
14 | 35:39.07 | 2:39.43 | 160432 | 172399
15 | 38:18.50 | 3:00.67 | 172400 | 185966
16 | 41:19.42 | 2:37.47 | 185967 | 197788
17 | 43:57.14 | 2:33.37 | 197789 | 209300
18 | 46:30.51 | 2:29.02 | 209301 | 220477
19 | 48:59.53 | 2:38.19 | 220478 | 232346
20 | 51:37.72 | 3:13.52 | 232347 | 246873
21 | 54:51.49 | 3:05.04 | 246874 | 260752
22 | 57:56.53 | 3:15.34 | 260753 | 275411
23 | 61:12.12 | 2:30.56 | 275412 | 286717
24 | 63:42.68 | 2:46.35 | 286718 | 299202
25 | 66:29.28 | 1:38.19 | 299203 | 306571
26 | 68:07.47 | 2:35.59 | 306572 | 318255
27 | 70:43.31 | 2:37.42 | 318256 | 330072
28 | 73:20.73 | 1:41.37 | 330073 | 337684
29 | 75:02.35 | 1:02.14 | 337685 | 342348
30 | 76:04.49 | 3:05.08 | 342349 | 356231
Track 1
Filename E:\01 - End Of My Journey.wav
Pre-gap length 0:00:02.01
Peak level 82.2 %
Extraction speed 1.1 X
Track quality 100.0 %
Test CRC 2D7B2D84
Copy CRC 2D7B2D84
Accurately ripped (confidence 1) [8535BB48] (AR v2)
Copy OK
Track 2
Filename E:\02 - He'll Welcome Me.wav
Peak level 86.1 %
Extraction speed 1.2 X
Track quality 100.0 %
Test CRC FF780169
Copy CRC FF780169
Accurately ripped (confidence 1) [A4790DF9] (AR v2)
Copy OK
Track 3
Filename E:\03 - He's My Friend Until The End.wav
Peak level 84.0 %
Extraction speed 1.3 X
Track quality 100.0 %
Test CRC D9A60790
Copy CRC D9A60790
Accurately ripped (confidence 1) [39A4EBFF] (AR v2)
Copy OK
Track 4
Filename E:\04 - He's My Friend Until The End [Take 2 - Alternate].wav
Pre-gap length 0:00:01.25
Peak level 61.2 %
Extraction speed 1.3 X
Track quality 100.0 %
Test CRC EA6FDB2A
Copy CRC EA6FDB2A
Accurately ripped (confidence 1) [77311F38] (AR v2)
Copy OK
Track 5
Filename E:\05 - I Have A Friend Above All Others.wav
Peak level 65.3 %
Extraction speed 1.3 X
Track quality 100.0 %
Test CRC 820CB274
Copy CRC 820CB274
Accurately ripped (confidence 1) [E3A16118] (AR v2)
Copy OK
Track 6
Filename E:\06 - Come And Go To That Land.wav
Peak level 79.4 %
Extraction speed 1.4 X
Track quality 100.0 %
Test CRC 0959D048
Copy CRC 0959D048
Accurately ripped (confidence 1) [4FF162DF] (AR v2)
Copy OK
Track 7
Filename E:\07 - Come And Go To That Land [Take 1 - Alternate].wav
Peak level 79.4 %
Extraction speed 1.5 X
Track quality 100.0 %
Test CRC B804BE85
Copy CRC B804BE85
Accurately ripped (confidence 1) [2CB5BF57] (AR v2)
Copy OK
Track 8
Filename E:\08 - Come And Go To That Land [Take 3 - Alternate].wav
Peak level 79.4 %
Extraction speed 1.5 X
Track quality 100.0 %
Test CRC B0B9FBB8
Copy CRC B0B9FBB8
Accurately ripped (confidence 1) [21DC6E5D] (AR v2)
Copy OK
Track 9
Filename E:\09 - I'd Give Up All My Sins And Serve The Lord.wav
Peak level 81.2 %
Extraction speed 1.5 X
Track quality 100.0 %
Test CRC EC8FD421
Copy CRC EC8FD421
Accurately ripped (confidence 1) [DA8B2D04] (AR v2)
Copy OK
Track 10
Filename E:\10 - I'm So Happy In The Service Of The Lord.wav
Peak level 89.1 %
Extraction speed 1.6 X
Track quality 100.0 %
Test CRC 129C1140
Copy CRC 129C1140
Accurately ripped (confidence 1) [E7646519] (AR v2)
Copy OK
Track 11
Filename E:\11 - All Right Now.wav
Peak level 79.3 %
Extraction speed 1.5 X
Track quality 100.0 %
Test CRC FE9AA798
Copy CRC FE9AA798
Accurately ripped (confidence 1) [03E668D1] (AR v2)
Copy OK
Track 12
Filename E:\12 - All Right Now [Take 2 - Alternate].wav
Peak level 75.0 %
Extraction speed 1.8 X
Track quality 100.0 %
Test CRC F4025AFF
Copy CRC F4025AFF
Accurately ripped (confidence 1) [A0BFAF8E] (AR v2)
Copy OK
Track 13
Filename E:\13 - All Right Now [Take 4 - Alternate].wav
Peak level 59.5 %
Extraction speed 1.8 X
Track quality 100.0 %
Test CRC 4198CBE5
Copy CRC 4198CBE5
Accurately ripped (confidence 1) [A1C16272] (AR v2)
Copy OK
Track 14
Filename E:\14 - He'll Make A Way.wav
Peak level 87.0 %
Extraction speed 1.8 X
Track quality 100.0 %
Test CRC 0AB74D00
Copy CRC 0AB74D00
Accurately ripped (confidence 1) [B8F231D1] (AR v2)
Copy OK
Track 15
Filename E:\15 - He'll Make A Way [Take 2 - Alternate].wav
Pre-gap length 0:00:01.25
Peak level 88.2 %
Extraction speed 1.6 X
Track quality 99.9 %
Test CRC 2F81F80B
Copy CRC 2F81F80B
Accurately ripped (confidence 1) [097D4473] (AR v2)
Copy OK
Track 16
Filename E:\16 - Jesus, I'll Never Forget.wav
Peak level 89.1 %
Extraction speed 1.9 X
Track quality 100.0 %
Test CRC 734A4265
Copy CRC 734A4265
Accurately ripped (confidence 1) [BE8521D0] (AR v2)
Copy OK
Track 17
Filename E:\17 - Jesus, I'll Never Forget [Take 5 - Alternate].wav
Peak level 84.1 %
Extraction speed 1.9 X
Track quality 100.0 %
Test CRC 4B4BF884
Copy CRC 4B4BF884
Accurately ripped (confidence 1) [2D60B87A] (AR v2)
Copy OK
Track 18
Filename E:\18 - Any Day Now.wav
Peak level 85.1 %
Extraction speed 1.5 X
Track quality 99.9 %
Test CRC EC8E3239
Copy CRC EC8E3239
Accurately ripped (confidence 1) [ABF79F93] (AR v2)
Copy OK
Track 19
Filename E:\19 - Any Day Now [Take 6 - Alternate].wav
Peak level 71.5 %
Extraction speed 2.0 X
Track quality 100.0 %
Test CRC 5F1F98B1
Copy CRC 5F1F98B1
Accurately ripped (confidence 1) [9AA69442] (AR v2)
Copy OK
Track 20
Filename E:\20 - One More River.wav
Peak level 89.1 %
Extraction speed 2.1 X
Track quality 100.0 %
Test CRC D60AF159
Copy CRC D60AF159
Accurately ripped (confidence 1) [74057F8B] (AR v2)
Copy OK
Track 21
Filename E:\21 - Nearer To Thee.wav
Peak level 89.1 %
Extraction speed 2.2 X
Track quality 100.0 %
Test CRC AAD32EB1
Copy CRC AAD32EB1
Accurately ripped (confidence 1) [46FE3F6B] (AR v2)
Copy OK
Track 22
Filename E:\22 - I'm So Glad (Trouble Don't Last Always).wav
Peak level 86.1 %
Extraction speed 2.2 X
Track quality 100.0 %
Test CRC 24F2272D
Copy CRC 24F2272D
Accurately ripped (confidence 1) [6B8CAB14] (AR v2)
Copy OK
Track 23
Filename E:\23 - Be With Me Jesus.wav
Peak level 89.1 %
Extraction speed 1.7 X
Track quality 99.9 %
Test CRC 1182C767
Copy CRC 1182C767
Accurately ripped (confidence 1) [D6EE4601] (AR v2)
Copy OK
Track 24
Filename E:\24 - He's My Guide [Take 4 - Alternate].wav
Peak level 87.0 %
Extraction speed 2.2 X
Track quality 100.0 %
Test CRC A07A2775
Copy CRC A07A2775
Accurately ripped (confidence 1) [DE5920F7] (AR v2)
Copy OK
Track 25
Filename E:\25 - He's My Guide [Incomplete - Take 12 - Alternate].wav
Peak level 89.1 %
Extraction speed 1.5 X
Track quality 99.8 %
Test CRC 4D1EF37B
Copy CRC 4D1EF37B
Accurately ripped (confidence 1) [17B7460C] (AR v2)
Copy OK
Track 26
Filename E:\26 - He's My Guide [Take 13].wav
Peak level 89.1 %
Extraction speed 2.3 X
Track quality 100.0 %
Test CRC D4C261B1
Copy CRC D4C261B1
Accurately ripped (confidence 1) [AA4792BD] (AR v2)
Copy OK
Track 27
Filename E:\27 - Pilgrim Of Sorrow.wav
Peak level 89.1 %
Extraction speed 2.3 X
Track quality 100.0 %
Test CRC FB884999
Copy CRC FB884999
Accurately ripped (confidence 1) [6E946D90] (AR v2)
Copy OK
Track 28
Filename E:\28 - Pray [Incomplete].wav
Peak level 84.1 %
Extraction speed 2.1 X
Track quality 100.0 %
Test CRC 5139F789
Copy CRC 5139F789
Accurately ripped (confidence 1) [9295AC51] (AR v2)
Copy OK
Track 29
Filename E:\29 - The Last Mile Of The Way [Incomplete - Take 1 - Alternate].wav
Peak level 89.1 %
Extraction speed 1.8 X
Track quality 100.0 %
Test CRC E515FA34
Copy CRC E515FA34
Accurately ripped (confidence 1) [D8D037C6] (AR v2)
Copy OK
Track 30
Filename E:\30 - The Last Mile Of The Way [Take 2A - Alternate].wav
Peak level 86.0 %
Extraction speed 2.4 X
Track quality 100.0 %
Test CRC C3128CE9
Copy CRC C3128CE9
Accurately ripped (confidence 1) [44450A41] (AR v2)
Copy OK
All tracks accurately ripped
No errors occurred
End of status report
==== Log checksum F4BDF4A2BAD9E55BF52C082C8DF18C4F9CE4F03FB3F8E290B3504FDEE4DB957B ====
 
Содержание индексной карты (.CUE)
REM GENRE "Rhythm and Blues"
REM DATE 2002
REM DISCID E0128D1E
REM COMMENT "ExactAudioCopy v1.3"
PERFORMER "Sam Cooke with the Soul Stirrers"
TITLE "The Complete Specialty Records Recordings [CD 2 of 3]"
REM COMPOSER ""
FILE "01 - End Of My Journey.wav" WAVE
TRACK 01 AUDIO
TITLE "End Of My Journey"
PERFORMER "Sam Cooke with the Soul Stirrers"
REM COMPOSER ""
FLAGS DCP
PREGAP 00:00:01
INDEX 01 00:00:00
FILE "02 - He'll Welcome Me.wav" WAVE
TRACK 02 AUDIO
TITLE "He'll Welcome Me"
PERFORMER "Sam Cooke with the Soul Stirrers"
REM COMPOSER ""
FLAGS DCP
INDEX 01 00:00:00
FILE "03 - He's My Friend Until The End.wav" WAVE
TRACK 03 AUDIO
TITLE "He's My Friend Until The End"
PERFORMER "Sam Cooke with the Soul Stirrers"
REM COMPOSER ""
FLAGS DCP
INDEX 01 00:00:00
TRACK 04 AUDIO
TITLE "He's My Friend Until The End [Take 2 - Alternate]"
PERFORMER "Sam Cooke with the Soul Stirrers"
REM COMPOSER ""
FLAGS DCP
INDEX 00 03:03:31
FILE "04 - He's My Friend Until The End [Take 2 - Alternate].wav" WAVE
INDEX 01 00:00:00
FILE "05 - I Have A Friend Above All Others.wav" WAVE
TRACK 05 AUDIO
TITLE "I Have A Friend Above All Others"
PERFORMER "Sam Cooke with the Soul Stirrers"
REM COMPOSER ""
FLAGS DCP
INDEX 01 00:00:00
FILE "06 - Come And Go To That Land.wav" WAVE
TRACK 06 AUDIO
TITLE "Come And Go To That Land"
PERFORMER "Sam Cooke with the Soul Stirrers"
REM COMPOSER ""
FLAGS DCP
INDEX 01 00:00:00
FILE "07 - Come And Go To That Land [Take 1 - Alternate].wav" WAVE
TRACK 07 AUDIO
TITLE "Come And Go To That Land [Take 1 - Alternate]"
PERFORMER "Sam Cooke with the Soul Stirrers"
REM COMPOSER ""
FLAGS DCP
INDEX 01 00:00:00
FILE "08 - Come And Go To That Land [Take 3 - Alternate].wav" WAVE
TRACK 08 AUDIO
TITLE "Come And Go To That Land [Take 3 - Alternate]"
PERFORMER "Sam Cooke with the Soul Stirrers"
REM COMPOSER ""
FLAGS DCP
INDEX 01 00:00:00
FILE "09 - I'd Give Up All My Sins And Serve The Lord.wav" WAVE
TRACK 09 AUDIO
TITLE "I'd Give Up All My Sins And Serve The Lord"
PERFORMER "Sam Cooke with the Soul Stirrers"
REM COMPOSER ""
FLAGS DCP
INDEX 01 00:00:00
FILE "10 - I'm So Happy In The Service Of The Lord.wav" WAVE
TRACK 10 AUDIO
TITLE "I'm So Happy In The Service Of The Lord"
PERFORMER "Sam Cooke with the Soul Stirrers"
REM COMPOSER ""
FLAGS DCP
INDEX 01 00:00:00
FILE "11 - All Right Now.wav" WAVE
TRACK 11 AUDIO
TITLE "All Right Now"
PERFORMER "Sam Cooke with the Soul Stirrers"
REM COMPOSER ""
FLAGS DCP
INDEX 01 00:00:00
FILE "12 - All Right Now [Take 2 - Alternate].wav" WAVE
TRACK 12 AUDIO
TITLE "All Right Now [Take 2 - Alternate]"
PERFORMER "Sam Cooke with the Soul Stirrers"
REM COMPOSER ""
FLAGS DCP
INDEX 01 00:00:00
FILE "13 - All Right Now [Take 4 - Alternate].wav" WAVE
TRACK 13 AUDIO
TITLE "All Right Now [Take 4 - Alternate]"
PERFORMER "Sam Cooke with the Soul Stirrers"
REM COMPOSER ""
FLAGS DCP
INDEX 01 00:00:00
FILE "14 - He'll Make A Way.wav" WAVE
TRACK 14 AUDIO
TITLE "He'll Make A Way"
PERFORMER "Sam Cooke with the Soul Stirrers"
REM COMPOSER ""
FLAGS DCP
INDEX 01 00:00:00
TRACK 15 AUDIO
TITLE "He'll Make A Way [Take 2 - Alternate]"
PERFORMER "Sam Cooke with the Soul Stirrers"
REM COMPOSER ""
FLAGS DCP
INDEX 00 02:38:18
FILE "15 - He'll Make A Way [Take 2 - Alternate].wav" WAVE
INDEX 01 00:00:00
FILE "16 - Jesus, I'll Never Forget.wav" WAVE
TRACK 16 AUDIO
TITLE "Jesus, I'll Never Forget"
PERFORMER "Sam Cooke with the Soul Stirrers"
REM COMPOSER ""
FLAGS DCP
INDEX 01 00:00:00
FILE "17 - Jesus, I'll Never Forget [Take 5 - Alternate].wav" WAVE
TRACK 17 AUDIO
TITLE "Jesus, I'll Never Forget [Take 5 - Alternate]"
PERFORMER "Sam Cooke with the Soul Stirrers"
REM COMPOSER ""
FLAGS DCP
INDEX 01 00:00:00
FILE "18 - Any Day Now.wav" WAVE
TRACK 18 AUDIO
TITLE "Any Day Now"
PERFORMER "Sam Cooke with the Soul Stirrers"
REM COMPOSER ""
FLAGS DCP
INDEX 01 00:00:00
FILE "19 - Any Day Now [Take 6 - Alternate].wav" WAVE
TRACK 19 AUDIO
TITLE "Any Day Now [Take 6 - Alternate]"
PERFORMER "Sam Cooke with the Soul Stirrers"
REM COMPOSER ""
FLAGS DCP
INDEX 01 00:00:00
FILE "20 - One More River.wav" WAVE
TRACK 20 AUDIO
TITLE "One More River"
PERFORMER "Sam Cooke with the Soul Stirrers"
REM COMPOSER ""
FLAGS DCP
INDEX 01 00:00:00
FILE "21 - Nearer To Thee.wav" WAVE
TRACK 21 AUDIO
TITLE "Nearer To Thee"
PERFORMER "Sam Cooke with the Soul Stirrers"
REM COMPOSER ""
FLAGS DCP
INDEX 01 00:00:00
FILE "22 - I'm So Glad (Trouble Don't Last Always).wav" WAVE
TRACK 22 AUDIO
TITLE "I'm So Glad (Trouble Don't Last Always)"
PERFORMER "Sam Cooke with the Soul Stirrers"
REM COMPOSER ""
FLAGS DCP
INDEX 01 00:00:00
FILE "23 - Be With Me Jesus.wav" WAVE
TRACK 23 AUDIO
TITLE "Be With Me Jesus"
PERFORMER "Sam Cooke with the Soul Stirrers"
REM COMPOSER ""
FLAGS DCP
INDEX 01 00:00:00
FILE "24 - He's My Guide [Take 4 - Alternate].wav" WAVE
TRACK 24 AUDIO
TITLE "He's My Guide [Take 4 - Alternate]"
PERFORMER "Sam Cooke with the Soul Stirrers"
REM COMPOSER ""
FLAGS DCP
INDEX 01 00:00:00
FILE "25 - He's My Guide [Incomplete - Take 12 - Alternate].wav" WAVE
TRACK 25 AUDIO
TITLE "He's My Guide [Incomplete - Take 12 - Alternate]"
PERFORMER "Sam Cooke with the Soul Stirrers"
REM COMPOSER ""
FLAGS DCP
INDEX 01 00:00:00
FILE "26 - He's My Guide [Take 13].wav" WAVE
TRACK 26 AUDIO
TITLE "He's My Guide [Take 13]"
PERFORMER "Sam Cooke with the Soul Stirrers"
REM COMPOSER ""
FLAGS DCP
INDEX 01 00:00:00
FILE "27 - Pilgrim Of Sorrow.wav" WAVE
TRACK 27 AUDIO
TITLE "Pilgrim Of Sorrow"
PERFORMER "Sam Cooke with the Soul Stirrers"
REM COMPOSER ""
FLAGS DCP
INDEX 01 00:00:00
FILE "28 - Pray [Incomplete].wav" WAVE
TRACK 28 AUDIO
TITLE "Pray [Incomplete]"
PERFORMER "Sam Cooke with the Soul Stirrers"
REM COMPOSER ""
FLAGS DCP
INDEX 01 00:00:00
FILE "29 - The Last Mile Of The Way [Incomplete - Take 1 - Alternate].wav" WAVE
TRACK 29 AUDIO
TITLE "The Last Mile Of The Way [Incomplete - Take 1 - Alternate]"
PERFORMER "Sam Cooke with the Soul Stirrers"
REM COMPOSER ""
FLAGS DCP
INDEX 01 00:00:00
FILE "30 - The Last Mile Of The Way [Take 2A - Alternate].wav" WAVE
TRACK 30 AUDIO
TITLE "The Last Mile Of The Way [Take 2A - Alternate]"
PERFORMER "Sam Cooke with the Soul Stirrers"
REM COMPOSER ""
FLAGS DCP
INDEX 01 00:00:00
 
CD 3 (74:30)
Треклист:
01. The Last Mile Of The Way (3:02)
02. He's So Wonderful (2:22)
03. Touch The Hem Of His Garment (2:04)
04. Jesus, Wash Away My Troubles (2:07)
05. Farther Along (2:30)
06. Must Jesus Bear This Cross Alone (2:50)
07. Pilgrim Of Sorrow (2:20)
08. Happy In Love (1:58)
09. I Need You Now (2:00)
10. I'll Come Running Back To You (2:15)
11. Lovable (2:27)
12. I Don't Want To Cry (2:48)
13. That's All I Need To Know (2:23)
14. Forever (3:00)
15. Lord Remember Me (3:01)
16. That's Heaven To Me [Take 1 - Alternate] (3:14)
17. That's Heaven To Me (2:25)
18. Were You There [False Starts - Takes 1-4] (1:16)
19. Were You There [Take 5 - Alternate] (2:33)
20. Were You There (2:33)
21. Mean Old World [Take 3 - Alternate] (2:37)
22. Mean Old World (2:37)
23. I Have A Friend Above All Others (3:48)
24. Be With Me Jesus (7:39)
25. Nearer To Thee (8:42)
 
 
Лог создания рипа
Exact Audio Copy V1.3 from 2. September 2016
EAC extraction logfile from 10. September 2017, 17:40
Sam Cooke with the Soul Stirrers / The Complete Specialty Records Recordings [CD 3 of 3]
Used drive : ASUS BW-16D1HT Adapter: 1 ID: 0
Read mode : Secure
Utilize accurate stream : Yes
Defeat audio cache : Yes
Make use of C2 pointers : No
Read offset correction : 6
Overread into Lead-In and Lead-Out : No
Fill up missing offset samples with silence : Yes
Delete leading and trailing silent blocks : No
Null samples used in CRC calculations : Yes
Used interface : Native Win32 interface for Win NT & 2000
Gap handling : Appended to previous track
Used output format : User Defined Encoder
Selected bitrate : 896 kBit/s
Quality : High
Add ID3 tag : No
Command line compressor : C:\Exact Audio Copy\FLAC\FLAC.EXE
Additional command line options : -8 -V -T "ARTIST=%artist%" -T "TITLE=%title%" -T "ALBUM=%albumtitle%" -T "DATE=%year%" -T "TRACKNUMBER=%tracknr%" -T "TOTALTRACKS=%numtracks%" -T "GENRE=%genre%" -T "ALBUMARTIST=%albumartist%" -T "ALBUM ARTIST=%albumartist%" -T "COMMENT=EAC Secure Mode, Test & Copy, AccurateRip, FLAC -8" %source%
TOC of the extracted CD
Track | Start | Length | Start sector | End sector
---------------------------------------------------------
1 | 0:00.01 | 3:01.44 | 1 | 13619
2 | 3:01.45 | 2:22.18 | 13620 | 24287
3 | 5:23.63 | 2:04.29 | 24288 | 33616
4 | 7:28.17 | 2:06.71 | 33617 | 43137
5 | 9:35.13 | 2:30.32 | 43138 | 54419
6 | 12:05.45 | 2:49.50 | 54420 | 67144
7 | 14:55.20 | 2:20.28 | 67145 | 77672
8 | 17:15.48 | 1:57.70 | 77673 | 86517
9 | 19:13.43 | 1:59.48 | 86518 | 95490
10 | 21:13.16 | 2:14.70 | 95491 | 105610
11 | 23:28.11 | 2:27.10 | 105611 | 116645
12 | 25:55.21 | 2:48.04 | 116646 | 129249
13 | 28:43.25 | 2:22.42 | 129250 | 139941
14 | 31:05.67 | 2:59.41 | 139942 | 153407
15 | 34:05.33 | 3:00.68 | 153408 | 166975
16 | 37:06.26 | 3:14.05 | 166976 | 181530
17 | 40:20.31 | 2:25.16 | 181531 | 192421
18 | 42:45.47 | 1:15.67 | 192422 | 198113
19 | 44:01.39 | 2:32.65 | 198114 | 209578
20 | 46:34.29 | 2:32.69 | 209579 | 221047
21 | 49:07.23 | 2:37.01 | 221048 | 232823
22 | 51:44.24 | 2:37.08 | 232824 | 244606
23 | 54:21.32 | 3:47.73 | 244607 | 261704
24 | 58:09.30 | 7:38.65 | 261705 | 296119
25 | 65:48.20 | 8:41.62 | 296120 | 335256
Track 1
Filename E:\01 - The Last Mile Of The Way.wav
Pre-gap length 0:00:02.01
Peak level 77.8 %
Extraction speed 0.9 X
Track quality 99.9 %
Test CRC E47B5028
Copy CRC E47B5028
Accurately ripped (confidence 1) [D71E3A34] (AR v2)
Copy OK
Track 2
Filename E:\02 - He's So Wonderful.wav
Peak level 99.9 %
Extraction speed 1.1 X
Track quality 100.0 %
Test CRC F4EF3DD3
Copy CRC F4EF3DD3
Accurately ripped (confidence 1) [B1AC21B5] (AR v2)
Copy OK
Track 3
Filename E:\03 - Touch The Hem Of His Garment.wav
Peak level 94.4 %
Extraction speed 1.1 X
Track quality 100.0 %
Test CRC EE3D0FB9
Copy CRC EE3D0FB9
Accurately ripped (confidence 1) [F4182887] (AR v2)
Copy OK
Track 4
Filename E:\04 - Jesus, Wash Away My Troubles.wav
Peak level 99.9 %
Extraction speed 1.2 X
Track quality 100.0 %
Test CRC D6114149
Copy CRC D6114149
Accurately ripped (confidence 1) [4647B5AB] (AR v2)
Copy OK
Track 5
Filename E:\05 - Farther Along.wav
Peak level 93.3 %
Extraction speed 1.3 X
Track quality 100.0 %
Test CRC 5ADBC1DE
Copy CRC 5ADBC1DE
Accurately ripped (confidence 1) [4D4AF8BF] (AR v2)
Copy OK
Track 6
Filename E:\06 - Must Jesus Bear This Cross Alone.wav
Peak level 99.9 %
Extraction speed 1.1 X
Track quality 99.9 %
Test CRC 18EDA047
Copy CRC 18EDA047
Accurately ripped (confidence 1) [723F7143] (AR v2)
Copy OK
Track 7
Filename E:\07 - Pilgrim Of Sorrow.wav
Peak level 93.2 %
Extraction speed 1.4 X
Track quality 100.0 %
Test CRC 23652911
Copy CRC 23652911
Accurately ripped (confidence 1) [E92C0D9A] (AR v2)
Copy OK
Track 8
Filename E:\08 - Happy In Love.wav
Peak level 76.7 %
Extraction speed 1.4 X
Track quality 100.0 %
Test CRC 7EFE14F3
Copy CRC 7EFE14F3
Accurately ripped (confidence 1) [E36046FE] (AR v2)
Copy OK
Track 9
Filename E:\09 - I Need You Now.wav
Peak level 75.8 %
Extraction speed 1.4 X
Track quality 100.0 %
Test CRC 1B96D421
Copy CRC 1B96D421
Accurately ripped (confidence 1) [F29490E1] (AR v2)
Copy OK
Track 10
Filename E:\10 - I'll Come Running Back To You.wav
Peak level 89.1 %
Extraction speed 1.5 X
Track quality 100.0 %
Test CRC 820F3EC2
Copy CRC 820F3EC2
Accurately ripped (confidence 1) [5A9F0C12] (AR v2)
Copy OK
Track 11
Filename E:\11 - Lovable.wav
Peak level 92.2 %
Extraction speed 1.6 X
Track quality 100.0 %
Test CRC 0D782BD3
Copy CRC 0D782BD3
Accurately ripped (confidence 1) [F255DD45] (AR v2)
Copy OK
Track 12
Filename E:\12 - I Don't Want To Cry.wav
Peak level 78.5 %
Extraction speed 1.7 X
Track quality 100.0 %
Test CRC 726863D3
Copy CRC 726863D3
Accurately ripped (confidence 1) [F284B969] (AR v2)
Copy OK
Track 13
Filename E:\13 - That's All I Need To Know.wav
Peak level 80.9 %
Extraction speed 1.6 X
Track quality 100.0 %
Test CRC C34A6CFC
Copy CRC C34A6CFC
Accurately ripped (confidence 1) [65CCF3BD] (AR v2)
Copy OK
Track 14
Filename E:\14 - Forever.wav
Peak level 94.4 %
Extraction speed 1.8 X
Track quality 100.0 %
Test CRC 3A65C1F2
Copy CRC 3A65C1F2
Accurately ripped (confidence 1) [4C0E2E3C] (AR v2)
Copy OK
Track 15
Filename E:\15 - Lord Remember Me.wav
Peak level 94.4 %
Extraction speed 1.5 X
Track quality 99.9 %
Test CRC 575B9BF3
Copy CRC 575B9BF3
Accurately ripped (confidence 1) [1A408F2D] (AR v2)
Copy OK
Track 16
Filename E:\16 - That's Heaven To Me [Take 1 - Alternate].wav
Peak level 94.3 %
Extraction speed 1.9 X
Track quality 100.0 %
Test CRC 27D09D2D
Copy CRC 27D09D2D
Accurately ripped (confidence 1) [57E54881] (AR v2)
Copy OK
Track 17
Filename E:\17 - That's Heaven To Me.wav
Peak level 99.9 %
Extraction speed 1.8 X
Track quality 100.0 %
Test CRC F6821213
Copy CRC F6821213
Accurately ripped (confidence 1) [068D494B] (AR v2)
Copy OK
Track 18
Filename E:\18 - Were You There [False Starts - Takes 1-4].wav
Peak level 97.6 %
Extraction speed 1.6 X
Track quality 100.0 %
Test CRC 3C939C77
Copy CRC 3C939C77
Accurately ripped (confidence 1) [61B8D4FC] (AR v2)
Copy OK
Track 19
Filename E:\19 - Were You There [Take 5 - Alternate].wav
Peak level 99.9 %
Extraction speed 1.9 X
Track quality 100.0 %
Test CRC 2652DBC1
Copy CRC 2652DBC1
Accurately ripped (confidence 1) [2225D4F5] (AR v2)
Copy OK
Track 20
Filename E:\20 - Were You There.wav
Peak level 99.9 %
Extraction speed 2.0 X
Track quality 100.0 %
Test CRC E9DA661B
Copy CRC E9DA661B
Accurately ripped (confidence 1) [4596F755] (AR v2)
Copy OK
Track 21
Filename E:\21 - Mean Old World [Take 3 - Alternate].wav
Peak level 95.4 %
Extraction speed 1.6 X
Track quality 99.9 %
Test CRC FF348F1F
Copy CRC FF348F1F
Accurately ripped (confidence 1) [1A4F91EC] (AR v2)
Copy OK
Track 22
Filename E:\22 - Mean Old World.wav
Peak level 99.9 %
Extraction speed 2.1 X
Track quality 100.0 %
Test CRC 5C0737B6
Copy CRC 5C0737B6
Accurately ripped (confidence 1) [4233DACB] (AR v2)
Copy OK
Track 23
Filename E:\23 - I Have A Friend Above All Others.wav
Peak level 83.1 %
Extraction speed 2.2 X
Track quality 100.0 %
Test CRC 6C1B054F
Copy CRC 6C1B054F
Accurately ripped (confidence 1) [BF57023E] (AR v2)
Copy OK
Track 24
Filename E:\24 - Be With Me Jesus.wav
Peak level 69.7 %
Extraction speed 2.5 X
Track quality 100.0 %
Test CRC B4693CBE
Copy CRC B4693CBE
Accurately ripped (confidence 1) [F52971A2] (AR v2)
Copy OK
Track 25
Filename E:\25 - Nearer To Thee.wav
Peak level 98.8 %
Extraction speed 2.6 X
Track quality 100.0 %
Test CRC FA3E7B6F
Copy CRC FA3E7B6F
Accurately ripped (confidence 1) [2489A49D] (AR v2)
Copy OK
All tracks accurately ripped
No errors occurred
End of status report
==== Log checksum B4DFFB35C44974B749DCE5DD014CA547C8B6FCAC638D254D7C4939AC15CDCA16 ====
 
Содержание индексной карты (.CUE)
REM GENRE "Rhythm and Blues"
REM DATE 2002
REM DISCID 72117619
REM COMMENT "ExactAudioCopy v1.3"
PERFORMER "Sam Cooke with the Soul Stirrers"
TITLE "The Complete Specialty Records Recordings [CD 3 of 3]"
REM COMPOSER ""
FILE "01 - The Last Mile Of The Way.wav" WAVE
TRACK 01 AUDIO
TITLE "The Last Mile Of The Way"
PERFORMER "Sam Cooke with the Soul Stirrers"
REM COMPOSER ""
FLAGS DCP
PREGAP 00:00:01
INDEX 01 00:00:00
FILE "02 - He's So Wonderful.wav" WAVE
TRACK 02 AUDIO
TITLE "He's So Wonderful"
PERFORMER "Sam Cooke with the Soul Stirrers"
REM COMPOSER ""
FLAGS DCP
INDEX 01 00:00:00
FILE "03 - Touch The Hem Of His Garment.wav" WAVE
TRACK 03 AUDIO
TITLE "Touch The Hem Of His Garment"
PERFORMER "Sam Cooke with the Soul Stirrers"
REM COMPOSER ""
FLAGS DCP
INDEX 01 00:00:00
FILE "04 - Jesus, Wash Away My Troubles.wav" WAVE
TRACK 04 AUDIO
TITLE "Jesus, Wash Away My Troubles"
PERFORMER "Sam Cooke with the Soul Stirrers"
REM COMPOSER ""
FLAGS DCP
INDEX 01 00:00:00
FILE "05 - Farther Along.wav" WAVE
TRACK 05 AUDIO
TITLE "Farther Along"
PERFORMER "Sam Cooke with the Soul Stirrers"
REM COMPOSER ""
FLAGS DCP
INDEX 01 00:00:00
FILE "06 - Must Jesus Bear This Cross Alone.wav" WAVE
TRACK 06 AUDIO
TITLE "Must Jesus Bear This Cross Alone"
PERFORMER "Sam Cooke with the Soul Stirrers"
REM COMPOSER ""
FLAGS DCP
INDEX 01 00:00:00
FILE "07 - Pilgrim Of Sorrow.wav" WAVE
TRACK 07 AUDIO
TITLE "Pilgrim Of Sorrow"
PERFORMER "Sam Cooke with the Soul Stirrers"
REM COMPOSER ""
FLAGS DCP
INDEX 01 00:00:00
FILE "08 - Happy In Love.wav" WAVE
TRACK 08 AUDIO
TITLE "Happy In Love"
PERFORMER "Sam Cooke with the Soul Stirrers"
REM COMPOSER ""
FLAGS DCP
INDEX 01 00:00:00
FILE "09 - I Need You Now.wav" WAVE
TRACK 09 AUDIO
TITLE "I Need You Now"
PERFORMER "Sam Cooke with the Soul Stirrers"
REM COMPOSER ""
FLAGS DCP
INDEX 01 00:00:00
FILE "10 - I'll Come Running Back To You.wav" WAVE
TRACK 10 AUDIO
TITLE "I'll Come Running Back To You"
PERFORMER "Sam Cooke with the Soul Stirrers"
REM COMPOSER ""
FLAGS DCP
INDEX 01 00:00:00
FILE "11 - Lovable.wav" WAVE
TRACK 11 AUDIO
TITLE "Lovable"
PERFORMER "Sam Cooke with the Soul Stirrers"
REM COMPOSER ""
FLAGS DCP
INDEX 01 00:00:00
FILE "12 - I Don't Want To Cry.wav" WAVE
TRACK 12 AUDIO
TITLE "I Don't Want To Cry"
PERFORMER "Sam Cooke with the Soul Stirrers"
REM COMPOSER ""
FLAGS DCP
INDEX 01 00:00:00
FILE "13 - That's All I Need To Know.wav" WAVE
TRACK 13 AUDIO
TITLE "That's All I Need To Know"
PERFORMER "Sam Cooke with the Soul Stirrers"
REM COMPOSER ""
FLAGS DCP
INDEX 01 00:00:00
FILE "14 - Forever.wav" WAVE
TRACK 14 AUDIO
TITLE "Forever"
PERFORMER "Sam Cooke with the Soul Stirrers"
REM COMPOSER ""
FLAGS DCP
INDEX 01 00:00:00
FILE "15 - Lord Remember Me.wav" WAVE
TRACK 15 AUDIO
TITLE "Lord Remember Me"
PERFORMER "Sam Cooke with the Soul Stirrers"
REM COMPOSER ""
FLAGS DCP
INDEX 01 00:00:00
FILE "16 - That's Heaven To Me [Take 1 - Alternate].wav" WAVE
TRACK 16 AUDIO
TITLE "That's Heaven To Me [Take 1 - Alternate]"
PERFORMER "Sam Cooke with the Soul Stirrers"
REM COMPOSER ""
FLAGS DCP
INDEX 01 00:00:00
FILE "17 - That's Heaven To Me.wav" WAVE
TRACK 17 AUDIO
TITLE "That's Heaven To Me"
PERFORMER "Sam Cooke with the Soul Stirrers"
REM COMPOSER ""
FLAGS DCP
INDEX 01 00:00:00
FILE "18 - Were You There [False Starts - Takes 1-4].wav" WAVE
TRACK 18 AUDIO
TITLE "Were You There [False Starts - Takes 1-4]"
PERFORMER "Sam Cooke with the Soul Stirrers"
REM COMPOSER ""
FLAGS DCP
INDEX 01 00:00:00
FILE "19 - Were You There [Take 5 - Alternate].wav" WAVE
TRACK 19 AUDIO
TITLE "Were You There [Take 5 - Alternate]"
PERFORMER "Sam Cooke with the Soul Stirrers"
REM COMPOSER ""
FLAGS DCP
INDEX 01 00:00:00
FILE "20 - Were You There.wav" WAVE
TRACK 20 AUDIO
TITLE "Were You There"
PERFORMER "Sam Cooke with the Soul Stirrers"
REM COMPOSER ""
FLAGS DCP
INDEX 01 00:00:00
FILE "21 - Mean Old World [Take 3 - Alternate].wav" WAVE
TRACK 21 AUDIO
TITLE "Mean Old World [Take 3 - Alternate]"
PERFORMER "Sam Cooke with the Soul Stirrers"
REM COMPOSER ""
FLAGS DCP
INDEX 01 00:00:00
FILE "22 - Mean Old World.wav" WAVE
TRACK 22 AUDIO
TITLE "Mean Old World"
PERFORMER "Sam Cooke with the Soul Stirrers"
REM COMPOSER ""
FLAGS DCP
INDEX 01 00:00:00
FILE "23 - I Have A Friend Above All Others.wav" WAVE
TRACK 23 AUDIO
TITLE "I Have A Friend Above All Others"
PERFORMER "Sam Cooke with the Soul Stirrers"
REM COMPOSER ""
FLAGS DCP
INDEX 01 00:00:00
FILE "24 - Be With Me Jesus.wav" WAVE
TRACK 24 AUDIO
TITLE "Be With Me Jesus"
PERFORMER "Sam Cooke with the Soul Stirrers"
REM COMPOSER ""
FLAGS DCP
INDEX 01 00:00:00
FILE "25 - Nearer To Thee.wav" WAVE
TRACK 25 AUDIO
TITLE "Nearer To Thee"
PERFORMER "Sam Cooke with the Soul Stirrers"
REM COMPOSER ""
FLAGS DCP
INDEX 01 00:00:00
 
Об издании
All 84 sides Sam recorded with the Soul Stirrers-many featuring him trading lead vocals with the awesome Paul Foster-on one spirit-lifting, soul-shaking 3-CD set! Inside are such touchstones as Jesus Gave Me Water; He's My Friend until the End; Be with Me Jesus; Touch the Hem of His Garment; That's Heaven to Me ; the pop hit I'll Come Running Back to You , and more, including alternate takes and 20 minutes of the Soul Stirrers' stunning 1955 performance at the Shrine Auditorium in Los Angeles.
Приватный:
Нет (DHT включён)
Размер:
981.65 Мб (1,029,335,606 байт) » файлов: 130
Участники:
0 раздают, 0 качают (0 участников всего)
Внешние участники:
5 раздают, 1 качают (6 участников всего) [ Обновить ]
Есть вопросы - пишите личное сообщение пользователю M0p94ok.
14:51
87
Нет комментариев. Ваш будет первым!