Поиск

(Funk, Soul, R&B) [CD] Betty Harris - The Lost Queen Of New Orleans Soul - 2016, FLAC (tracks+.cue), lossless

(Funk, Soul, R&B) [CD] Betty Harris - The Lost Queen Of New Orleans Soul - 2016, FLAC (tracks+.cue), lossless
Треклист:
Betty Harris - The Lost Queen Of New Orleans Soul Жанр: Funk, Soul, R&B
Носитель: CD
Год издания: 2016
Издатель (лейбл): Soul Jazz Records
Номер по каталогу: SJR CD 345
Аудиокодек: FLAC (*.flac)
Тип рипа: tracks+.cue
Битрейт аудио: lossless
Продолжительность: 45:10
Источник (релизер): Pisulik
Наличие сканов в содержимом раздачи: да
Треклист:
01. There's A Break In The Road (2:51)
02. 12 Red Roses (2:32)
03. Mean Man (2:41)
04. I'm Gonna Git Ya (2:20)
05. Ride Your Pony (3:11)
06. Show It (3:02)
07. I Don't Wanna Hear It (2:07)
08. Bad Luck (2:33)
09. Hook, Line 'N' Sinker (2:42)
10. Lonely Hearts (2:56)
11. What A Sad Feeling (2:21)
12. What'd I Do Wrong (2:50)
13. Trouble With My Lover (2:49)
14. Sometime (2:36)
15. I'm Evil Tonight (2:23)
16. Nearer To You (2:55)
17. All I Want Is You (2:21)
Recorded in 1964-1969.
 
 
Об альбоме (сборнике)
Betty Harris' The Lost Queen of New Orleans Soul collects together the steady stream of amazing soul and funk singles issued by Betty Harris from 1964 to 1969, under the musical guidance of legendary composer, musician and producer extraordinaire Allen Toussaint, a collection which truly captures the heart and soul of the city of New Orleans during this era.
Betty Harris' powerful, fiery soulful vocals found a perfect accompaniment with the New Orleans' players that Toussaint put together to back her, which by the time of her funk classic, "There's A Break
In The Road," were the legendary super-tight, super-funk New Orleans group The Meters.
With the extraordinary song-writing skills of Allen Toussaint alongside the powerful, soaring, confident and emotive singer and the groove of The Meters, you have an unbeatable combination. That Harris never in fact lived in New Orleans (she flew in from Florida for all her sessions with Toussaint's local in-house players) seems almost an irrelevance, a geographical aside to the defining New Orleans sound captured on the recordings featured here.
All of these singles featured here were released on Allen Toussaint and his business partner Marshal Sehorn's local New Orleans label Sansu, widely distributed in the southern city but in only limited quantities elsewhere. As a consequence, Betty Harris' music failed to achieve the commercial success of other New Orleans artists such as Lee Dorsey (who she recorded with) and The Meters (who backed her). And so at the end of the decade she stopped recording, retired from the music business to raise her family in Florida.
This is no reflection of the stunning musical quality of all these songs which encompass everything from southern soul, heavy funk, deep soul ballads and northern soul. Betty Harris has been a cornerstone of Soul Jazz Records' New Orleans Funk and New Orleans Soul compilations. Always soulful and always funky, Betty Harris' music contains the essence of New Orleans music. She is the Lost Soul Queen of New Orleans.

 
Лог создания рипа
Exact Audio Copy V1.3 from 2. September 2016
EAC extraction logfile from 10. July 2017, 20:47
Betty Harris / The Lost Queen Of New Orleans Soul
Used drive : HL-DT-STBD-RE WH16NS40 Adapter: 1 ID: 0
Read mode : Secure
Utilize accurate stream : Yes
Defeat audio cache : Yes
Make use of C2 pointers : No
Read offset correction : 6
Overread into Lead-In and Lead-Out : No
Fill up missing offset samples with silence : Yes
Delete leading and trailing silent blocks : No
Null samples used in CRC calculations : Yes
Used interface : Native Win32 interface for Win NT & 2000
Gap handling : Appended to previous track
Used output format : User Defined Encoder
Selected bitrate : 1024 kBit/s
Quality : High
Add ID3 tag : No
Command line compressor : C:\Program Files (x86)\Exact Audio Copy\Flac\flac.exe
Additional command line options : -8 -e -V -T "Artist=%artist%" -T "Title=%title%" -T "Album=%albumtitle%" -T "Date=%year%" -T "TRACKNUMBER=%tracknr%" -T "Genre=%genre%" -T "PERFORMER=%albuminterpret%" -T "COMPOSER=%composer%" %haslyrics%--tag-from-file=LYRICS="%lyricsfile%"%haslyrics% -T "ALBUMARTIST=%albumartist%" -T "DISCNUMBER=%cdnumber%" -T "DISCTOTAL=%totalcds%" -T "TRACKTOTAL=%numtracks%" -T "COMMENT=%comment%" %source% -o %dest%
TOC of the extracted CD
Track | Start | Length | Start sector | End sector
---------------------------------------------------------
1 | 0:00.00 | 2:51.02 | 0 | 12826
2 | 2:51.02 | 2:31.41 | 12827 | 24192
3 | 5:22.43 | 2:41.27 | 24193 | 36294
4 | 8:03.70 | 2:19.43 | 36295 | 46762
5 | 10:23.38 | 3:11.17 | 46763 | 61104
6 | 13:34.55 | 3:02.27 | 61105 | 74781
7 | 16:37.07 | 2:06.52 | 74782 | 84283
8 | 18:43.59 | 2:33.08 | 84284 | 95766
9 | 21:16.67 | 2:41.61 | 95767 | 107902
10 | 23:58.53 | 2:55.72 | 107903 | 121099
11 | 26:54.50 | 2:21.33 | 121100 | 131707
12 | 29:16.08 | 2:50.10 | 131708 | 144467
13 | 32:06.18 | 2:48.65 | 144468 | 157132
14 | 34:55.08 | 2:35.42 | 157133 | 168799
15 | 37:30.50 | 2:23.07 | 168800 | 179531
16 | 39:53.57 | 2:55.35 | 179532 | 192691
17 | 42:49.17 | 2:20.64 | 192692 | 203255
Track 1
Filename D:\Media\Audio\Rips\Betty Harris - The Lost Queen Of New Orleans Soul (2016) [FLAC]\01 - There's A Break In The Road.wav
Pre-gap length 0:00:02.00
Peak level 72.4 %
Extraction speed 0.9 X
Track quality 100.0 %
Test CRC C60F7EED
Copy CRC C60F7EED
Accurately ripped (confidence 5) [E82D31D2] (AR v2)
Copy OK
Track 2
Filename D:\Media\Audio\Rips\Betty Harris - The Lost Queen Of New Orleans Soul (2016) [FLAC]\02 - 12 Red Roses.wav
Pre-gap length 0:00:01.30
Peak level 95.6 %
Extraction speed 1.0 X
Track quality 100.0 %
Test CRC 81D1A3FB
Copy CRC 81D1A3FB
Accurately ripped (confidence 5) [B9B8A148] (AR v2)
Copy OK
Track 3
Filename D:\Media\Audio\Rips\Betty Harris - The Lost Queen Of New Orleans Soul (2016) [FLAC]\03 - Mean Man.wav
Pre-gap length 0:00:01.25
Peak level 85.8 %
Extraction speed 1.0 X
Track quality 99.9 %
Test CRC C393C17F
Copy CRC C393C17F
Accurately ripped (confidence 5) [D95E2DB2] (AR v2)
Copy OK
Track 4
Filename D:\Media\Audio\Rips\Betty Harris - The Lost Queen Of New Orleans Soul (2016) [FLAC]\04 - I'm Gonna Git Ya.wav
Pre-gap length 0:00:01.38
Peak level 80.1 %
Extraction speed 1.1 X
Track quality 100.0 %
Test CRC 408BFBA3
Copy CRC 408BFBA3
Accurately ripped (confidence 5) [B9481D8C] (AR v2)
Copy OK
Track 5
Filename D:\Media\Audio\Rips\Betty Harris - The Lost Queen Of New Orleans Soul (2016) [FLAC]\05 - Ride Your Pony.wav
Pre-gap length 0:00:00.98
Peak level 96.6 %
Extraction speed 1.1 X
Track quality 99.9 %
Test CRC FBCE3294
Copy CRC FBCE3294
Accurately ripped (confidence 5) [6BA67B69] (AR v2)
Copy OK
Track 6
Filename D:\Media\Audio\Rips\Betty Harris - The Lost Queen Of New Orleans Soul (2016) [FLAC]\06 - Show It.wav
Pre-gap length 0:00:02.04
Peak level 96.6 %
Extraction speed 1.3 X
Track quality 100.0 %
Test CRC A43752AC
Copy CRC A43752AC
Accurately ripped (confidence 5) [4ACEA5D6] (AR v2)
Copy OK
Track 7
Filename D:\Media\Audio\Rips\Betty Harris - The Lost Queen Of New Orleans Soul (2016) [FLAC]\07 - I Don't Wanna Hear It.wav
Pre-gap length 0:00:01.93
Peak level 86.1 %
Extraction speed 1.3 X
Track quality 100.0 %
Test CRC 4BD65468
Copy CRC 4BD65468
Accurately ripped (confidence 5) [E199D4E2] (AR v2)
Copy OK
Track 8
Filename D:\Media\Audio\Rips\Betty Harris - The Lost Queen Of New Orleans Soul (2016) [FLAC]\08 - Bad Luck.wav
Pre-gap length 0:00:01.88
Peak level 99.6 %
Extraction speed 1.4 X
Track quality 100.0 %
Test CRC 6194D8E7
Copy CRC 6194D8E7
Accurately ripped (confidence 5) [ACBC435D] (AR v2)
Copy OK
Track 9
Filename D:\Media\Audio\Rips\Betty Harris - The Lost Queen Of New Orleans Soul (2016) [FLAC]\09 - Hook, Line 'N' Sinker.wav
Pre-gap length 0:00:01.74
Peak level 93.6 %
Extraction speed 1.4 X
Track quality 100.0 %
Test CRC 12A0E1EB
Copy CRC 12A0E1EB
Accurately ripped (confidence 5) [9F5814FD] (AR v2)
Copy OK
Track 10
Filename D:\Media\Audio\Rips\Betty Harris - The Lost Queen Of New Orleans Soul (2016) [FLAC]\10 - Lonely Hearts.wav
Pre-gap length 0:00:01.56
Peak level 96.6 %
Extraction speed 1.3 X
Track quality 99.9 %
Test CRC ED89AB7D
Copy CRC ED89AB7D
Accurately ripped (confidence 5) [2B99B6A1] (AR v2)
Copy OK
Track 11
Filename D:\Media\Audio\Rips\Betty Harris - The Lost Queen Of New Orleans Soul (2016) [FLAC]\11 - What A Sad Feeling.wav
Pre-gap length 0:00:01.94
Peak level 90.3 %
Extraction speed 1.2 X
Track quality 99.9 %
Test CRC 1A060C0F
Copy CRC 1A060C0F
Accurately ripped (confidence 5) [066B10E5] (AR v2)
Copy OK
Track 12
Filename D:\Media\Audio\Rips\Betty Harris - The Lost Queen Of New Orleans Soul (2016) [FLAC]\12 - What'd I Do Wrong.wav
Pre-gap length 0:00:01.70
Peak level 100.0 %
Extraction speed 1.6 X
Track quality 100.0 %
Test CRC 9EDD9F23
Copy CRC 9EDD9F23
Accurately ripped (confidence 5) [3B6565C3] (AR v2)
Copy OK
Track 13
Filename D:\Media\Audio\Rips\Betty Harris - The Lost Queen Of New Orleans Soul (2016) [FLAC]\13 - Trouble With My Lover.wav
Pre-gap length 0:00:01.69
Peak level 96.8 %
Extraction speed 1.6 X
Track quality 100.0 %
Test CRC 012BB8FA
Copy CRC 012BB8FA
Accurately ripped (confidence 5) [730F38CA] (AR v2)
Copy OK
Track 14
Filename D:\Media\Audio\Rips\Betty Harris - The Lost Queen Of New Orleans Soul (2016) [FLAC]\14 - Sometime.wav
Pre-gap length 0:00:01.61
Peak level 89.5 %
Extraction speed 1.7 X
Track quality 100.0 %
Test CRC 461A123B
Copy CRC 461A123B
Accurately ripped (confidence 5) [AB6D0467] (AR v2)
Copy OK
Track 15
Filename D:\Media\Audio\Rips\Betty Harris - The Lost Queen Of New Orleans Soul (2016) [FLAC]\15 - I'm Evil Tonight.wav
Pre-gap length 0:00:01.69
Peak level 95.1 %
Extraction speed 1.3 X
Track quality 99.9 %
Test CRC 3681E228
Copy CRC 3681E228
Accurately ripped (confidence 5) [2EA35F0A] (AR v2)
Copy OK
Track 16
Filename D:\Media\Audio\Rips\Betty Harris - The Lost Queen Of New Orleans Soul (2016) [FLAC]\16 - Nearer To You.wav
Pre-gap length 0:00:01.88
Peak level 97.8 %
Extraction speed 1.8 X
Track quality 100.0 %
Test CRC FEF761D5
Copy CRC FEF761D5
Accurately ripped (confidence 5) [FB74A031] (AR v2)
Copy OK
Track 17
Filename D:\Media\Audio\Rips\Betty Harris - The Lost Queen Of New Orleans Soul (2016) [FLAC]\17 - All I Want Is You.wav
Pre-gap length 0:00:01.94
Peak level 96.2 %
Extraction speed 1.7 X
Track quality 100.0 %
Test CRC 06D8A282
Copy CRC 06D8A282
Accurately ripped (confidence 5) [CA1259FA] (AR v2)
Copy OK
All tracks accurately ripped
No errors occurred
End of status report
---- CUETools DB Plugin V2.1.6
[CTDB TOCID: Uq6i8NYwTjYEvFeduaIIWhr5nHw-] found
Submit result: Uq6i8NYwTjYEvFeduaIIWhr5nHw- has been confirmed
Track | CTDB Status
1 | (15/15) Accurately ripped
2 | (15/15) Accurately ripped
3 | (15/15) Accurately ripped
4 | (15/15) Accurately ripped
5 | (15/15) Accurately ripped
6 | (15/15) Accurately ripped
7 | (15/15) Accurately ripped
8 | (15/15) Accurately ripped
9 | (15/15) Accurately ripped
10 | (15/15) Accurately ripped
11 | (15/15) Accurately ripped
12 | (15/15) Accurately ripped
13 | (15/15) Accurately ripped
14 | (15/15) Accurately ripped
15 | (15/15) Accurately ripped
16 | (15/15) Accurately ripped
17 | (15/15) Accurately ripped
==== Log checksum 6FCB49AB047647578E66E56892E8B2113AD787C6F02F4DD66A3972DBCCE19AD9 ====
 
Содержание индексной карты (.CUE)
REM GENRE Soul
REM DATE 2016
REM DISCID F80A9611
REM COMMENT "ExactAudioCopy v1.3"
PERFORMER "Betty Harris"
TITLE "The Lost Queen Of New Orleans Soul"
REM COMPOSER ""
FILE "01 - There's A Break In The Road.wav" WAVE
TRACK 01 AUDIO
TITLE "There's A Break In The Road"
PERFORMER "Betty Harris"
REM COMPOSER ""
ISRC GBBCK1601042
INDEX 01 00:00:00
TRACK 02 AUDIO
TITLE "12 Red Roses"
PERFORMER "Betty Harris"
REM COMPOSER ""
ISRC GBBCK1601043
INDEX 00 02:49:54
FILE "02 - 12 Red Roses.wav" WAVE
INDEX 01 00:00:00
TRACK 03 AUDIO
TITLE "Mean Man"
PERFORMER "Betty Harris"
REM COMPOSER ""
ISRC GBBCK1601044
INDEX 00 02:30:22
FILE "03 - Mean Man.wav" WAVE
INDEX 01 00:00:00
TRACK 04 AUDIO
TITLE "I'm Gonna Git Ya"
PERFORMER "Betty Harris"
REM COMPOSER ""
ISRC GBBCK1601045
INDEX 00 02:39:73
FILE "04 - I'm Gonna Git Ya.wav" WAVE
INDEX 01 00:00:00
TRACK 05 AUDIO
TITLE "Ride Your Pony"
PERFORMER "Betty Harris"
REM COMPOSER ""
ISRC GBBCK1601046
INDEX 00 02:18:44
FILE "05 - Ride Your Pony.wav" WAVE
INDEX 01 00:00:00
TRACK 06 AUDIO
TITLE "Show It"
PERFORMER "Betty Harris"
REM COMPOSER ""
ISRC GBBCK1601047
INDEX 00 03:09:14
FILE "06 - Show It.wav" WAVE
INDEX 01 00:00:00
TRACK 07 AUDIO
TITLE "I Don't Wanna Hear It"
PERFORMER "Betty Harris"
REM COMPOSER ""
ISRC GBBCK1400677
INDEX 00 03:00:32
FILE "07 - I Don't Wanna Hear It.wav" WAVE
INDEX 01 00:00:00
TRACK 08 AUDIO
TITLE "Bad Luck"
PERFORMER "Betty Harris"
REM COMPOSER ""
ISRC GBBCK1601048
INDEX 00 02:04:61
FILE "08 - Bad Luck.wav" WAVE
INDEX 01 00:00:00
TRACK 09 AUDIO
TITLE "Hook, Line 'N' Sinker"
PERFORMER "Betty Harris"
REM COMPOSER ""
ISRC GBBCK1601049
INDEX 00 02:31:27
FILE "09 - Hook, Line 'N' Sinker.wav" WAVE
INDEX 01 00:00:00
TRACK 10 AUDIO
TITLE "Lonely Hearts"
PERFORMER "Betty Harris"
REM COMPOSER ""
ISRC GBBCK1601050
INDEX 00 02:40:19
FILE "10 - Lonely Hearts.wav" WAVE
INDEX 01 00:00:00
TRACK 11 AUDIO
TITLE "What A Sad Feeling"
PERFORMER "Betty Harris"
REM COMPOSER ""
ISRC GBBCK1601051
INDEX 00 02:54:01
FILE "11 - What A Sad Feeling.wav" WAVE
INDEX 01 00:00:00
TRACK 12 AUDIO
TITLE "What'd I Do Wrong"
PERFORMER "Betty Harris"
REM COMPOSER ""
ISRC GBBCK1300494
INDEX 00 02:19:55
FILE "12 - What'd I Do Wrong.wav" WAVE
INDEX 01 00:00:00
TRACK 13 AUDIO
TITLE "Trouble With My Lover"
PERFORMER "Betty Harris"
REM COMPOSER ""
ISRC GBBCK1300484
INDEX 00 02:48:33
FILE "13 - Trouble With My Lover.wav" WAVE
INDEX 01 00:00:00
TRACK 14 AUDIO
TITLE "Sometime"
PERFORMER "Betty Harris"
REM COMPOSER ""
ISRC GBBCK1601052
INDEX 00 02:47:19
FILE "14 - Sometime.wav" WAVE
INDEX 01 00:00:00
TRACK 15 AUDIO
TITLE "I'm Evil Tonight"
PERFORMER "Betty Harris"
REM COMPOSER ""
ISRC GBBCK1601053
INDEX 00 02:33:65
FILE "15 - I'm Evil Tonight.wav" WAVE
INDEX 01 00:00:00
TRACK 16 AUDIO
TITLE "Nearer To You"
PERFORMER "Betty Harris"
REM COMPOSER ""
ISRC GBBCK1601054
INDEX 00 02:21:16
FILE "16 - Nearer To You.wav" WAVE
INDEX 01 00:00:00
TRACK 17 AUDIO
TITLE "All I Want Is You"
PERFORMER "Betty Harris"
REM COMPOSER ""
ISRC GBBCK1601055
INDEX 00 02:53:39
FILE "17 - All I Want Is You.wav" WAVE
INDEX 01 00:00:00
Приватный:
Нет (DHT включён)
Размер:
173.09 Мб (181,498,062 байт) » файлов: 33
Участники:
0 раздают, 0 качают (0 участников всего)
Внешние участники:
5 раздают, 1 качают (6 участников всего) [ Обновить ]
Есть вопросы - пишите личное сообщение пользователю M0p94ok.
14:51
60
Нет комментариев. Ваш будет первым!