Поиск

(Funk, Soul, Remix) [CDS] Bill Withers - Lovely Day (Sunshine Mix remixed by Ben Liebrand) [Maxi-Single] - 1988, FLAC (image+.cue), lossless

(Funk, Soul, Remix) [CDS] Bill Withers - Lovely Day (Sunshine Mix remixed by Ben Liebrand) [Maxi-Single] - 1988, FLAC (image+.cue), lossless
Треклист:
Bill Withers / Lovely Day (Sunshine Mix remixed by Ben Liebrand)
Жанр: Funk, Soul, Remix
Носитель: CDS
Страна-производитель диска (релиза): EU
Год издания: 1988
Издатель (лейбл): CBS Records Inc.
Номер по каталогу: 5099765300130
Страна исполнителя (группы): US
Аудиокодек: FLAC (*.flac)
Тип рипа: image+.cue
Битрейт аудио: lossless
Продолжительность: 00:17:13
Источник (релизер): MadMJ
Наличие сканов в содержимом раздачи: нет
Треклист:
01 Lovely Day (Sunshine Mix) 6:34
02 Lovely Day (Original Version) 4:16
03 Lean On Me 4:18
04 Ain't No Sunshine 2:06
 
Лог создания рипа
Exact Audio Copy V0.99 prebeta 5 from 4. May 2009
EAC extraction logfile from 1. October 2011, 20:02
Bill Withers / Lovely Day (3'' CD Single)
Used drive : SlimtypeBD E DS4E1S Adapter: 0 ID: 1
Read mode : Secure
Utilize accurate stream : Yes
Defeat audio cache : Yes
Make use of C2 pointers : No
Read offset correction : 6
Overread into Lead-In and Lead-Out : No
Fill up missing offset samples with silence : Yes
Delete leading and trailing silent blocks : No
Null samples used in CRC calculations : Yes
Used interface : Native Win32 interface for Win NT & 2000
Used output format : User Defined Encoder
Selected bitrate : 768 kBit/s
Quality : High
Add ID3 tag : No
Command line compressor : C:\Program Files (x86)\Exact Audio Copy\Flac\flac.exe
Additional command line options : -T "DATE=%y" -T "GENRE=%m" -8 -V %s
TOC of the extracted CD
Track | Start | Length | Start sector | End sector
---------------------------------------------------------
1 | 0:00.00 | 6:34.37 | 0 | 29586
2 | 6:34.37 | 4:15.68 | 29587 | 48779
3 | 10:50.30 | 4:17.62 | 48780 | 68116
4 | 15:08.17 | 2:05.43 | 68117 | 77534
Range status and errors
Selected range
Filename F:\Bill Withers - Lovely Day [1988] [3 inch CD Single]\Bill Withers - Lovely Day (3'' CD Single).wav
Peak level 100.0 %
Range quality 100.0 %
Test CRC 97F653AD
Copy CRC 97F653AD
Copy OK
No errors occurred
AccurateRip summary
Track 1 accurately ripped (confidence 3) [0AE376F3]
Track 2 accurately ripped (confidence 3) [6B025484]
Track 3 accurately ripped (confidence 3) [75DDE2EA]
Track 4 accurately ripped (confidence 3) [A81E86E9]
All tracks accurately ripped
End of status report
 
Содержание индексной карты (.CUE)
REM GENRE Soul
REM DATE 1988
REM DISCID 2B040904
REM COMMENT "ExactAudioCopy v0.99pb5"
PERFORMER "Bill Withers"
TITLE "Lovely Day (3'' CD Single)"
FILE "Bill Withers - Lovely Day (3'' CD Single).flac" WAVE
TRACK 01 AUDIO
TITLE "Lovely Day (Sunshine Mix)"
PERFORMER "Bill Withers"
INDEX 01 00:00:00
TRACK 02 AUDIO
TITLE "Lovely Day (Original Version)"
PERFORMER "Bill Withers"
INDEX 00 06:32:65
INDEX 01 06:34:37
TRACK 03 AUDIO
TITLE "Lean On Me"
PERFORMER "Bill Withers"
INDEX 00 10:49:10
INDEX 01 10:50:30
TRACK 04 AUDIO
TITLE "Ain't No Sunshine"
PERFORMER "Bill Withers"
INDEX 00 15:07:07
INDEX 01 15:08:17
Доп. информация: https://en.wikipedia.org/wiki/Bill_Withers
 
Об исполнителе (группе)
William Harrison "Bill" Withers Jr. (born July 4, 1938) is an American singer-songwriter and musician who performed and recorded from 1970 until 1985. He recorded several major hits, including "Lean on Me", "Ain't No Sunshine", "Use Me", "Just the Two of Us", "Lovely Day", and "Grandma's Hands". Withers won three Grammy Awards and was nominated for four more. His life was the subject of the 2009 documentary film Still Bill. He was inducted into the Rock and Roll Hall of Fame in 2015.
 
Об альбоме (сборнике)
https://www.discogs.com/Bill-Withers-Lovely-Day-Sunshine-Mix/release/669892
Сингл достиг #4 в чартах UK (самая высокая позиция исполнителя в сингл-чартах страны)
Приватный:
Нет (DHT включён)
Размер:
101.81 Мб (106,750,682 байт) » файлов: 4
Участники:
0 раздают, 0 качают (0 участников всего)
Внешние участники:
2 раздают, 1 качают (3 участников всего) [ Обновить ]
Есть вопросы - пишите личное сообщение пользователю M0p94ok.
14:50
60
Нет комментариев. Ваш будет первым!