Поиск

(Funk / Soul, Disco) [CD] Anita Ward - Ring My Bell - 1995, FLAC (image+.cue), lossless

(Funk / Soul, Disco) [CD] Anita Ward - Ring My Bell - 1995, FLAC (image+.cue), lossless
Треклист:
.
.ANITA WARD
Ring My Bell
(Compilation, American singer,
born December 20, 1956, Memphis, Tennessee, United States)
Жанр: Funk / Soul, Disco
Носитель: CD
Страна-производитель диска (релиза): UK
Год издания: 1995
Издатель (лейбл): The Magnum Music Group
Номер по каталогу: MSCD 17
Страна исполнителя (группы): USA.
Аудиокодек: FLAC (*.flac)
Тип рипа: image+.cue
Битрейт аудио: lossless
Продолжительность: 00:45:48
Источник (релизер): stas64
Наличие сканов в содержимом раздачи: да - 600 dpi.
.
.Треклист:
01. I'm Ready For Your Love
02. Curtains Up
03. This Must Be Love
04. Ring My Bell
05. Sweet Splendour
06. There's No Doubt About It
07. You Lied
08. Make Believe Lovers
09. If I Could Feel That Old Feeling Again
10. Spoiled By Your Love
11. I Won't Stop Loving You
 
Лог создания рипа
Exact Audio Copy V1.3 from 2. September 2016
Отчёт EAC об извлечении, выполненном 10. октября 2017, 12:29
Anita Ward / Ring My Bell
Дисковод: PLEXTOR DVDR PX-712A Adapter: 7 ID: 3
Режим чтения : Достоверность
Использование точного потока : Да
Отключение кэша аудио : Да
Использование указателей C2 : Нет
Коррекция смещения при чтении : 30
Способность читать области Lead-in и Lead-out : Нет
Заполнение пропущенных сэмплов тишиной : Да
Удаление блоков с тишиной в начале и конце : Нет
При вычислениях CRC использовались нулевые сэмплы : Да
Интерфейс : Установленный внешний ASPI-интерфейс
Выходной формат : Пользовательский кодировщик
Выбранный битрейт : 128 kBit/s
Качество : Высокий
Добавление ID3-тега : Нет
Утилита сжатия : C:\Program Files\Exact Audio Copy\FLAC\FLAC.EXE
Дополнительные параметры : -6 -V -T "ARTIST=%artist%" -T "TITLE=%title%" -T "ALBUM=%albumtitle%" -T "DATE=%year%" -T "TRACKNUMBER=%tracknr%" -T "GENRE=%genre%" -T "COMMENT=%comment%" -T "BAND=%albuminterpret%" -T "ALBUMARTIST=%albuminterpret%" -T "COMPOSER=%composer%" %haslyrics%--tag-from-file=LYRICS="%lyricsfile%"%haslyrics% -T "DISCNUMBER=%cdnumber%" -T "TOTALDISCS=%totalcds%" -T "TOTALTRACKS=%numtracks%" %hascover%--picture="%coverfile%"%hascover% %source% -o %dest%
TOC извлечённого CD
Трек | Старт | Длительность | Начальный сектор | Конечный сектор
---------------------------------------------------------------------
1 | 0:00.00 | 4:28.45 | 0 | 20144
2 | 4:28.45 | 3:09.00 | 20145 | 34319
3 | 7:37.45 | 3:44.07 | 34320 | 51126
4 | 11:21.52 | 6:50.03 | 51127 | 81879
5 | 18:11.55 | 3:48.15 | 81880 | 98994
6 | 21:59.70 | 3:48.57 | 98995 | 116151
7 | 25:48.52 | 4:46.50 | 116152 | 137651
8 | 30:35.27 | 3:19.28 | 137652 | 152604
9 | 33:54.55 | 3:54.67 | 152605 | 170221
10 | 37:49.47 | 3:42.25 | 170222 | 186896
11 | 41:31.72 | 4:16.63 | 186897 | 206159
Характеристики диапазона извлечения и сообщения об ошибках
Выбранный диапазон
Имя файла I:\MOI_RAZDACI\Anita Ward 1995\Anita.Ward_Ring.My.Bell_1995\Anita Ward - Ring My Bell.wav
Пиковый уровень 97.2 %
Скорость извлечения 9.7 X
Качество диапазона 100.0 %
CRC теста F858B902
CRC копии F858B902
Копирование... OK
Ошибок не произошло
AccurateRip: сводка
Трек 1 отсутствует в базе данных
Трек 2 отсутствует в базе данных
Трек 3 отсутствует в базе данных
Трек 4 отсутствует в базе данных
Трек 5 отсутствует в базе данных
Трек 6 отсутствует в базе данных
Трек 7 отсутствует в базе данных
Трек 8 отсутствует в базе данных
Трек 9 отсутствует в базе данных
Трек 10 отсутствует в базе данных
Трек 11 отсутствует в базе данных
Ни одного трека нет в базе AccurateRip
Конец отчёта
---- CUETools DB Plugin V2.1.6
[CTDB TOCID: oQMNMXs7L6516uawf6LcSlCk3dA-] found
Submit result: already submitted
Track | CTDB Status
1 | (1/1) Accurately ripped
2 | (1/1) Accurately ripped
3 | (1/1) Accurately ripped
4 | (1/1) Accurately ripped
5 | (1/1) Accurately ripped
6 | (1/1) Accurately ripped
7 | (1/1) Accurately ripped
8 | (1/1) Accurately ripped
9 | (1/1) Accurately ripped
10 | (1/1) Accurately ripped
11 | (1/1) Accurately ripped
==== Контрольная сумма отчёта 741EA540FCC2115BE936E13384113DBFF8A6C070FE6308C6D798C3CCCE406AC8 ====
 
Содержание индексной карты (.CUE)
REM GENRE Disco
REM DATE 1995
REM DISCID 890ABC0B
REM COMMENT "ExactAudioCopy v1.3"
CATALOG 0000000000000
PERFORMER "Anita Ward"
TITLE "Ring My Bell"
REM COMPOSER ""
FILE "Anita Ward - Ring My Bell.flac" WAVE
TRACK 01 AUDIO
TITLE "I'm Ready for Your Love"
PERFORMER "Anita Ward"
REM COMPOSER ""
INDEX 01 00:00:00
TRACK 02 AUDIO
TITLE "Curtains up"
PERFORMER "Anita Ward"
REM COMPOSER ""
INDEX 00 04:25:65
INDEX 01 04:28:45
TRACK 03 AUDIO
TITLE "This Must Be Love"
PERFORMER "Anita Ward"
REM COMPOSER ""
INDEX 00 07:34:65
INDEX 01 07:37:45
TRACK 04 AUDIO
TITLE "Ring My Bell"
PERFORMER "Anita Ward"
REM COMPOSER ""
INDEX 00 11:18:72
INDEX 01 11:21:52
TRACK 05 AUDIO
TITLE "Sweet Splendour"
PERFORMER "Anita Ward"
REM COMPOSER ""
INDEX 00 18:09:00
INDEX 01 18:11:55
TRACK 06 AUDIO
TITLE "There's No Doubt About it"
PERFORMER "Anita Ward"
REM COMPOSER ""
INDEX 00 21:57:15
INDEX 01 21:59:70
TRACK 07 AUDIO
TITLE "You Lied"
PERFORMER "Anita Ward"
REM COMPOSER ""
INDEX 00 25:45:72
INDEX 01 25:48:52
TRACK 08 AUDIO
TITLE "Make Believe Lovers"
PERFORMER "Anita Ward"
REM COMPOSER ""
INDEX 00 30:32:47
INDEX 01 30:35:27
TRACK 09 AUDIO
TITLE "If I Could Feel That Old Feeling Again"
PERFORMER "Anita Ward"
REM COMPOSER ""
INDEX 00 33:52:00
INDEX 01 33:54:55
TRACK 10 AUDIO
TITLE "Spoiled by Your Love"
PERFORMER "Anita Ward"
REM COMPOSER ""
INDEX 00 37:46:67
INDEX 01 37:49:47
TRACK 11 AUDIO
TITLE "I Won't Stop Loving You"
PERFORMER "Anita Ward"
REM COMPOSER ""
INDEX 00 41:29:17
INDEX 01 41:31:72
 
Лог проверки качества
-----------------------
DON'T MODIFY THIS FILE
-----------------------
PERFORMER: auCDtect Task Manager, ver. 1.5.1RC6 build 1.5.1.7
Copyright (c) 2008-2010 y-soft. All rights reserved
http://y-soft.org
ANALYZER: auCDtect: CD records authenticity detector, version 0.8.2
Copyright (c) 2004 Oleg Berngardt. All rights reserved.
Copyright (c) 2004 Alexander Djourik. All rights reserved.
FILE: Anita Ward - Ring My Bell.flac
Size: 253328184 Hash: 38A59F84B1CE23447F5D5C49DD0250C7 Accuracy: -m0
Conclusion: CDDA 100%
Signature: FE52C50C422500D6C7AF4F6B06ACFCAC3007E240
 
Скриншот спектра частот
.
 
download >>> Совсем другой CD: ANITA WARD - Ring My Bell - 2003
01. Ring My Bell /3:56
02. Who Want's To Be In Love /3:42
03. All The Money In The World /3:52
04. Touch Love /4:24
05. When A Woman Loves /3:53
06. Have I Got A Girl For You /3:26
07. Someone Like You /4:46
08. Lady Bodybuilder /4:05
09. I'll Be The Girl /4:20
10. I'll Be Loving You Always /3:48
11. Be My Baby /3:45
12. Wherever There's Love /3:29
13. Ring My Bell (Latin Mix) /3:51
Приватный:
Нет (DHT включён)
Размер:
259.58 Мб (272,190,879 байт) » файлов: 11
Участники:
0 раздают, 0 качают (0 участников всего)
Внешние участники:
5 раздают, 1 качают (6 участников всего) [ Обновить ]
Есть вопросы - пишите личное сообщение пользователю M0p94ok.
14:49
64
Нет комментариев. Ваш будет первым!