Поиск

(Funk, Detroit Rock) [CD] Dennis Coffey - Live Wire: The Westbound Years 1975-1978 - 2008, FLAC (tracks+.cue), lossless

(Funk, Detroit Rock) [CD] Dennis Coffey - Live Wire: The Westbound Years 1975-1978 - 2008, FLAC (tracks+.cue), lossless
Треклист:
Dennis Coffey - Live Wire: The Westbound Years 1975-1978 Жанр: Funk, Detroit Rock
Носитель: CD
Год издания: 2008
Издатель (лейбл): Westbound Records/Ace Records
Номер по каталогу: CDSEWD 148
Аудиокодек: FLAC (*.flac)
Тип рипа: tracks+.cue
Битрейт аудио: lossless
Продолжительность: 73:34
Источник (релизер): другой трекер
Наличие сканов в содержимом раздачи: да
Треклист:
01. Some Like It Hot (5:12)
02. Wings Of Fire (7:38)
03. Live Wire (3:28)
04. Wild Child (3:04)
05. If You Can't Dance To This (3:50)
06. A Sweet Taste Of Sin (5:25)
07. Someone Special (7″ version) (3:19)
08. Our Love Goes On Forever (6:01)
09. Back Home (5:34)
10. Free Spirit (5:49)
11. Finger Lickin' Good (7″ version) (3:15)
12. Boogie Magic (5:49)
13. Gimme That Funk (7″ version) (3:20)
14. Calling Planet Earth (12″ version) (5:14)
15. High On Love (6:36)
 
 
Состав
Guitar, Vocals Dennis Coffey
Guitar Bruce Nazarian
Flute, Saxophone Larry Nozero
Bass Roderick Chandler
Drums Lee Nathan Marcus
Percussion Lorenzo Brown
Piano, Synthesizer Gary Schunk
Piano Rudy Robinson
Guitar Eddie "Motown" Willis
Trombone Stuart Sanders
Trumpet Johnny Trudell
Trumpet Marcus Belgrave
Trumpet Maurice Davis
Group Brandy
Bass Greg Coles
Drums Jerry Jones
Drums Michael Calhoun
Trombone Carl Raetz
Brass Buzzy Troia
Percussion Jerome Podgajski
Group Brandye
Vocals Cynthia Douglas
Vocals Donna Davis
Vocals Pam Vincent
Vocals Carolyn Crawford
Vocals Charles Clark
Vocals Cleveland Horne
Vocals Dolores Davis
Vocals Jerry Sanders
 
Об альбоме (сборнике)
When Dennis Coffey’s incendiary ‘Scorpio’ went both Pop and R&B Top 10, it was a surprise for both the guitarist and his record label. The album from which it came had already been and gone when some pioneering New York DJs started playing this cut to full dancefloors. Suddenly Dennis Coffey was catapulted from successful producer and session guitarist to star status. ‘Scorpio’ went on to have an extended afterlife as one of the founding tunes of hip hop. Dennis recorded several more albums for Sussex before the label went belly-up in the mid-70s, but by this time he had over a decade’s experience as a session guitarist, playing on many of the great Detroit soul recordings at Motown, Ric-Tic, Invictus and many more. Along with Mike Theodore he had produced several great records, both in his home city and in LA. On the basis of this track record Westbound’s Armen Boladian approached the pair to see if they could be tempted to become producers and artists for him back in Detroit.
Over the next three years the pair melded a disco sensibility to the soul sound of Westbound with outstanding results. They checked out what was happening in the clubs and devised a sound that worked within that framework, often employing mix guru Tom Moulton to make the records sound absolutely on the money. This resulted in some fanstastic records and an R&B #1 with CJ & Co’s ‘Devil’s Gun’. The slump in disco sales and in the independent label market later in the decade led Westbound to retrench into gospel.
Until now Dennis’ solo recordings from the period have been largely ignored, for reasons that can’t be explained adequately. During this period he recorded three albums that blended soul, R&B and his own virtuoso guitar talents; our compilation gathers together the best of these recordings.
The selection runs the gamut from the hardcore instrumental funk of ‘Live Wire’, the title track, ‘Wild Child’ and ‘Some Like It Hot’, all cuts that take the template of ‘Scorpio’ and work them hard for the dancefloor, to the downtempo luscious soul of cuts ‘Sweet Taste Of Sin’ and ‘Someone Special’. This leaves plenty of room for the out-and-out disco of ‘Calling Planet Earth’ and ‘Gimme That Funk’, but perhaps even more so for the laid-back instrumentals ‘Our Love Goes On Forever’ and ‘High On Love’. I say more so, because I think it is often forgotten just how good a guitarist Dennis can be on this sort of number. From start to finish this is fine music that should be ignored no more.

 
Лог создания рипа
Exact Audio Copy V1.1 from 23. June 2015
EAC extraction logfile from 26. December 2016, 21:05
Dennis Coffey / Live Wire
Used drive : MATSHITADVD+-RW SW830 Adapter: 1 ID: 0
Read mode : Secure
Utilize accurate stream : Yes
Defeat audio cache : Yes
Make use of C2 pointers : No
Read offset correction : 6
Overread into Lead-In and Lead-Out : No
Fill up missing offset samples with silence : Yes
Delete leading and trailing silent blocks : No
Null samples used in CRC calculations : Yes
Used interface : Native Win32 interface for Win NT & 2000
Gap handling : Appended to previous track
Used output format : User Defined Encoder
Selected bitrate : 896 kBit/s
Quality : High
Add ID3 tag : No
Command line compressor : C:\Program Files (x86)\Exact Audio Copy\Flac\flac.exe
Additional command line options : -8 -V -T "ARTIST=%artist%" -T "TITLE=%title%" -T "ALBUM=%albumtitle%" -T "DATE=%year%" -T "TRACKNUMBER=%tracknr%" -T "TOTALTRACKS=%numtracks%" -T "GENRE=%genre%" -T "ALBUMARTIST=%albumartist%" -T "ALBUM ARTIST=%albumartist%" -T "COMMENT=EAC Secure Mode, Test & Copy, AccurateRip, FLAC -8" %source%
TOC of the extracted CD
Track | Start | Length | Start sector | End sector
---------------------------------------------------------
1 | 0:00.00 | 5:11.47 | 0 | 23371
2 | 5:11.47 | 7:38.37 | 23372 | 57758
3 | 12:50.09 | 3:27.58 | 57759 | 73341
4 | 16:17.67 | 3:04.04 | 73342 | 87145
5 | 19:21.71 | 3:49.70 | 87146 | 104390
6 | 23:11.66 | 5:25.02 | 104391 | 128767
7 | 28:36.68 | 3:19.16 | 128768 | 143708
8 | 31:56.09 | 6:00.54 | 143709 | 170762
9 | 37:56.63 | 5:33.59 | 170763 | 195796
10 | 43:30.47 | 5:49.12 | 195797 | 221983
11 | 49:19.59 | 3:15.22 | 221984 | 236630
12 | 52:35.06 | 5:49.00 | 236631 | 262805
13 | 58:24.06 | 3:19.69 | 262806 | 277799
14 | 61:44.00 | 5:13.42 | 277800 | 301316
15 | 66:57.42 | 6:36.18 | 301317 | 331034
Track 1
Filename G:\New Rips\Dennis Coffey - Live Wire (2008) [FLAC]\01 - Some Like It Hot.wav
Pre-gap length 0:00:02.00
Peak level 98.8 %
Extraction speed 3.9 X
Track quality 100.0 %
Test CRC 1FD6705A
Copy CRC 1FD6705A
Accurately ripped (confidence 2) [9B7859CF] (AR v2)
Copy OK
Track 2
Filename G:\New Rips\Dennis Coffey - Live Wire (2008) [FLAC]\02 - Wings Of Fire.wav
Pre-gap length 0:00:01.65
Peak level 98.8 %
Extraction speed 4.1 X
Track quality 99.9 %
Test CRC B1C9F65C
Copy CRC B1C9F65C
Accurately ripped (confidence 2) [FB5BCB7C] (AR v2)
Copy OK
Track 3
Filename G:\New Rips\Dennis Coffey - Live Wire (2008) [FLAC]\03 - Live Wire.wav
Pre-gap length 0:00:01.65
Peak level 98.8 %
Extraction speed 4.6 X
Track quality 100.0 %
Test CRC BD857129
Copy CRC BD857129
Accurately ripped (confidence 2) [F43B3CB3] (AR v2)
Copy OK
Track 4
Filename G:\New Rips\Dennis Coffey - Live Wire (2008) [FLAC]\04 - Wild Child.wav
Pre-gap length 0:00:01.65
Peak level 98.8 %
Extraction speed 4.8 X
Track quality 100.0 %
Test CRC FD00E954
Copy CRC FD00E954
Accurately ripped (confidence 2) [91A63772] (AR v2)
Copy OK
Track 5
Filename G:\New Rips\Dennis Coffey - Live Wire (2008) [FLAC]\05 - If You Can't Dance To This.wav
Pre-gap length 0:00:01.65
Peak level 98.9 %
Extraction speed 5.1 X
Track quality 100.0 %
Test CRC 08DE15CE
Copy CRC 08DE15CE
Accurately ripped (confidence 2) [1618CB36] (AR v2)
Copy OK
Track 6
Filename G:\New Rips\Dennis Coffey - Live Wire (2008) [FLAC]\06 - A Sweet Taste Of Sin.wav
Pre-gap length 0:00:01.65
Peak level 98.8 %
Extraction speed 4.8 X
Track quality 99.9 %
Test CRC A97C28F2
Copy CRC A97C28F2
Accurately ripped (confidence 2) [F77D8A51] (AR v2)
Copy OK
Track 7
Filename G:\New Rips\Dennis Coffey - Live Wire (2008) [FLAC]\07 - Someone Special.wav
Pre-gap length 0:00:01.65
Peak level 98.8 %
Extraction speed 4.3 X
Track quality 99.9 %
Test CRC 7D77726F
Copy CRC 7D77726F
Accurately ripped (confidence 2) [A5A18A8B] (AR v2)
Copy OK
Track 8
Filename G:\New Rips\Dennis Coffey - Live Wire (2008) [FLAC]\08 - Our Love Goes On Forever.wav
Pre-gap length 0:00:01.65
Peak level 98.8 %
Extraction speed 6.2 X
Track quality 100.0 %
Test CRC 408EC32F
Copy CRC 408EC32F
Accurately ripped (confidence 2) [4A394AA7] (AR v2)
Copy OK
Track 9
Filename G:\New Rips\Dennis Coffey - Live Wire (2008) [FLAC]\09 - Back Home.wav
Pre-gap length 0:00:01.66
Peak level 98.8 %
Extraction speed 6.5 X
Track quality 100.0 %
Test CRC E25689B4
Copy CRC E25689B4
Accurately ripped (confidence 2) [709FA00C] (AR v2)
Copy OK
Track 10
Filename G:\New Rips\Dennis Coffey - Live Wire (2008) [FLAC]\10 - Free Spirit.wav
Pre-gap length 0:00:01.65
Peak level 98.9 %
Extraction speed 6.8 X
Track quality 100.0 %
Test CRC 52F3A021
Copy CRC 52F3A021
Accurately ripped (confidence 2) [263AF51C] (AR v2)
Copy OK
Track 11
Filename G:\New Rips\Dennis Coffey - Live Wire (2008) [FLAC]\11 - Finger Lickin Good.wav
Pre-gap length 0:00:01.65
Peak level 98.8 %
Extraction speed 6.5 X
Track quality 100.0 %
Test CRC 75BD40A1
Copy CRC 75BD40A1
Accurately ripped (confidence 2) [E3E2DE22] (AR v2)
Copy OK
Track 12
Filename G:\New Rips\Dennis Coffey - Live Wire (2008) [FLAC]\12 - Boogie Magic.wav
Pre-gap length 0:00:01.65
Peak level 98.8 %
Extraction speed 7.2 X
Track quality 100.0 %
Test CRC 0FAF05A9
Copy CRC 0FAF05A9
Accurately ripped (confidence 2) [6315182A] (AR v2)
Copy OK
Track 13
Filename G:\New Rips\Dennis Coffey - Live Wire (2008) [FLAC]\13 - Gimme That Funk.wav
Pre-gap length 0:00:01.65
Peak level 98.8 %
Extraction speed 7.0 X
Track quality 100.0 %
Test CRC C3DCED63
Copy CRC C3DCED63
Accurately ripped (confidence 2) [7AC47BA5] (AR v2)
Copy OK
Track 14
Filename G:\New Rips\Dennis Coffey - Live Wire (2008) [FLAC]\14 - Calling Planet Earth.wav
Pre-gap length 0:00:01.65
Peak level 98.9 %
Extraction speed 7.6 X
Track quality 100.0 %
Test CRC DB49C0CB
Copy CRC DB49C0CB
Accurately ripped (confidence 2) [9FAE20BE] (AR v2)
Copy OK
Track 15
Filename G:\New Rips\Dennis Coffey - Live Wire (2008) [FLAC]\15 - High On Love.wav
Pre-gap length 0:00:01.65
Peak level 98.8 %
Extraction speed 8.0 X
Track quality 100.0 %
Test CRC 3C6CD949
Copy CRC 3C6CD949
Accurately ripped (confidence 2) [7FA41948] (AR v2)
Copy OK
All tracks accurately ripped
No errors occurred
End of status report
---- CUETools DB Plugin V2.1.6
[CTDB TOCID: hJH6Pn.i.BuxFHFzZhzmMg4YUIU-] found
Submit result: hJH6Pn.i.BuxFHFzZhzmMg4YUIU- has been confirmed
Track | CTDB Status
1 | (4/4) Accurately ripped
2 | (4/4) Accurately ripped
3 | (4/4) Accurately ripped
4 | (4/4) Accurately ripped
5 | (4/4) Accurately ripped
6 | (4/4) Accurately ripped
7 | (4/4) Accurately ripped
8 | (4/4) Accurately ripped
9 | (4/4) Accurately ripped
10 | (4/4) Accurately ripped
11 | (4/4) Accurately ripped
12 | (4/4) Accurately ripped
13 | (4/4) Accurately ripped
14 | (4/4) Accurately ripped
15 | (4/4) Accurately ripped
==== Log checksum B497ED5A5CDCAAD6876B22B5CF7C0A1A0AA977FC084EDD249DC1C275471D54C5 ====
 
Содержание индексной карты (.CUE)
REM GENRE Funk
REM DATE 2008
REM DISCID DD113D0F
REM COMMENT "ExactAudioCopy v1.1"
PERFORMER "Dennis Coffey"
TITLE "Live Wire"
FILE "01 - Some Like It Hot.wav" WAVE
TRACK 01 AUDIO
TITLE "Some Like It Hot"
PERFORMER "Dennis Coffey"
INDEX 01 00:00:00
TRACK 02 AUDIO
TITLE "Wings Of Fire"
PERFORMER "Dennis Coffey"
INDEX 00 05:09:57
FILE "02 - Wings Of Fire.wav" WAVE
INDEX 01 00:00:00
TRACK 03 AUDIO
TITLE "Live Wire"
PERFORMER "Dennis Coffey"
INDEX 00 07:36:47
FILE "03 - Live Wire.wav" WAVE
INDEX 01 00:00:00
TRACK 04 AUDIO
TITLE "Wild Child"
PERFORMER "Dennis Coffey"
INDEX 00 03:25:68
FILE "04 - Wild Child.wav" WAVE
INDEX 01 00:00:00
TRACK 05 AUDIO
TITLE "If You Can't Dance To This"
PERFORMER "Dennis Coffey"
INDEX 00 03:02:14
FILE "05 - If You Can't Dance To This.wav" WAVE
INDEX 01 00:00:00
TRACK 06 AUDIO
TITLE "A Sweet Taste Of Sin"
PERFORMER "Dennis Coffey"
INDEX 00 03:48:05
FILE "06 - A Sweet Taste Of Sin.wav" WAVE
INDEX 01 00:00:00
TRACK 07 AUDIO
TITLE "Someone Special (7″ version)"
PERFORMER "Dennis Coffey"
INDEX 00 05:23:12
FILE "07 - Someone Special (7″ version).wav" WAVE
INDEX 01 00:00:00
TRACK 08 AUDIO
TITLE "Our Love Goes On Forever"
PERFORMER "Dennis Coffey"
INDEX 00 03:17:26
FILE "08 - Our Love Goes On Forever.wav" WAVE
INDEX 01 00:00:00
TRACK 09 AUDIO
TITLE "Back Home"
PERFORMER "Dennis Coffey"
INDEX 00 05:58:63
FILE "09 - Back Home.wav" WAVE
INDEX 01 00:00:00
TRACK 10 AUDIO
TITLE "Free Spirit"
PERFORMER "Dennis Coffey"
INDEX 00 05:31:69
FILE "10 - Free Spirit.wav" WAVE
INDEX 01 00:00:00
TRACK 11 AUDIO
TITLE "Finger Lickin Good (7″ version)"
PERFORMER "Dennis Coffey"
INDEX 00 05:47:22
FILE "11 - Finger Lickin Good (7″ version).wav" WAVE
INDEX 01 00:00:00
TRACK 12 AUDIO
TITLE "Boogie Magic"
PERFORMER "Dennis Coffey"
INDEX 00 03:13:32
FILE "12 - Boogie Magic.wav" WAVE
INDEX 01 00:00:00
TRACK 13 AUDIO
TITLE "Gimme That Funk (7″ version)"
PERFORMER "Dennis Coffey"
INDEX 00 05:47:10
FILE "13 - Gimme That Funk (7″ version).wav" WAVE
INDEX 01 00:00:00
TRACK 14 AUDIO
TITLE "Calling Planet Earth (12″ version)"
PERFORMER "Dennis Coffey"
INDEX 00 03:18:04
FILE "14 - Calling Planet Earth (12″ version).wav" WAVE
INDEX 01 00:00:00
TRACK 15 AUDIO
TITLE "High On Love"
PERFORMER "Dennis Coffey"
INDEX 00 05:11:52
FILE "15 - High On Love.wav" WAVE
INDEX 01 00:00:00
Приватный:
Нет (DHT включён)
Размер:
552.90 Мб (579,756,618 байт) » файлов: 29
Участники:
0 раздают, 0 качают (0 участников всего)
Внешние участники:
3 раздают, 1 качают (4 участников всего) [ Обновить ]
Есть вопросы - пишите личное сообщение пользователю M0p94ok.
14:49
68
Нет комментариев. Ваш будет первым!