Поиск

(Jazz-Funk, Soul-Jazz) [CD] Charles Kynard - Charles Kynard (1971) - 2017, FLAC (tracks+.cue), lossless

(Jazz-Funk, Soul-Jazz) [CD] Charles Kynard - Charles Kynard (1971) - 2017, FLAC (tracks+.cue), lossless
Треклист:
Charles Kynard - Charles Kynard (1971) Жанр: Jazz-Funk, Soul-Jazz
Носитель: CD
Страна-производитель диска: Japan
Год издания: 2017
Издатель (лейбл): Time/Mainstream Records/Solid Records Japan
Номер по каталогу: CDSOL-45249
Аудиокодек: FLAC (*.flac)
Тип рипа: tracks+.cue
Битрейт аудио: lossless
Продолжительность: 39:21
Источник (релизер): другой трекер
Наличие сканов в содержимом раздачи: да
Треклист:
01. El Toro Poo Poo (3:18)
02. Greeze (4:47)
03. She (6:37)
04. Grits (6:52)
05. Greens (5:46)
06. Nightwood (2:34)
07. It's Too Late (9:27)
Personnel:
Charles Kynard - org
Ernie Watts - ts
Billy Fender - g
Carol Kaye - el-b
James Gadson - d
King Errisson - cga
Rec.: Los Angeles, CA, 1971.
 
 
Об альбоме
A great album from organist Charles Kynard – one of his best that wasn't issued on Prestige! This is one of the funky jazz LPs on Mainstream that really hits a nice groove, with Bob Shad's crisp production dovetailing with Kynard's jazz funk sensibilities just right – not too slick or uptight at all! Kynard's backed here by a nice little LA combo that includes Carol Kaye on bass, King Errison on conga, and Ernie Watts on tenor – all players who relax nicely into the groove, and let Charles hit a sweetly gliding sort of line on the Hammond. The overall groove is similar to his earlier Prestige soul jazz classic Reelin' With The Feelin – but with shorter, tighter tracks, and more emphasis on the funk side, which is what we love to hear! Titles include "She", "Nightwood", "Grits", "El Toro Poo Poo", "Greeze", and "Greens".

 
Лог создания рипа
Exact Audio Copy V1.1 from 23. June 2015
EAC extraction logfile from 5. September 2017, 8:04
Charles Kynard / Charles Kynard
Used drive : MATSHITADVD+-RW SW830 Adapter: 1 ID: 0
Read mode : Secure
Utilize accurate stream : Yes
Defeat audio cache : Yes
Make use of C2 pointers : No
Read offset correction : 6
Overread into Lead-In and Lead-Out : No
Fill up missing offset samples with silence : Yes
Delete leading and trailing silent blocks : No
Null samples used in CRC calculations : Yes
Used interface : Native Win32 interface for Win NT & 2000
Gap handling : Appended to previous track
Used output format : User Defined Encoder
Selected bitrate : 896 kBit/s
Quality : High
Add ID3 tag : No
Command line compressor : C:\Program Files (x86)\Exact Audio Copy\Flac\flac.exe
Additional command line options : -8 -V -T "ARTIST=%artist%" -T "TITLE=%title%" -T "ALBUM=%albumtitle%" -T "DATE=%year%" -T "TRACKNUMBER=%tracknr%" -T "TOTALTRACKS=%numtracks%" -T "GENRE=%genre%" -T "ALBUMARTIST=%albumartist%" -T "ALBUM ARTIST=%albumartist%" -T "COMMENT=EAC Secure Mode, Test & Copy, AccurateRip, FLAC -8" %source%
TOC of the extracted CD
Track | Start | Length | Start sector | End sector
---------------------------------------------------------
1 | 0:00.00 | 3:17.74 | 0 | 14848
2 | 3:17.74 | 4:46.68 | 14849 | 36366
3 | 8:04.67 | 6:37.06 | 36367 | 66147
4 | 14:41.73 | 6:52.16 | 66148 | 97063
5 | 21:34.14 | 5:45.48 | 97064 | 122986
6 | 27:19.62 | 2:34.22 | 122987 | 134558
7 | 29:54.09 | 9:26.63 | 134559 | 177071
Track 1
Filename G:\New Rips\Charles Kynard - Charles Kynard (1971) [FLAC]\01 - El Toro Poo Poo.wav
Pre-gap length 0:00:02.00
Peak level 90.1 %
Extraction speed 4.4 X
Track quality 100.0 %
Test CRC DDB1447E
Copy CRC DDB1447E
Track not present in AccurateRip database
Copy OK
Track 2
Filename G:\New Rips\Charles Kynard - Charles Kynard (1971) [FLAC]\02 - Greeze.wav
Pre-gap length 0:00:03.00
Peak level 92.6 %
Extraction speed 5.1 X
Track quality 100.0 %
Test CRC 31E78320
Copy CRC 31E78320
Track not present in AccurateRip database
Copy OK
Track 3
Filename G:\New Rips\Charles Kynard - Charles Kynard (1971) [FLAC]\03 - She.wav
Pre-gap length 0:00:03.00
Peak level 90.3 %
Extraction speed 5.2 X
Track quality 99.9 %
Test CRC 836DCB42
Copy CRC 836DCB42
Track not present in AccurateRip database
Copy OK
Track 4
Filename G:\New Rips\Charles Kynard - Charles Kynard (1971) [FLAC]\04 - Grits.wav
Pre-gap length 0:00:03.00
Peak level 87.7 %
Extraction speed 6.5 X
Track quality 100.0 %
Test CRC D545BCDD
Copy CRC D545BCDD
Track not present in AccurateRip database
Copy OK
Track 5
Filename G:\New Rips\Charles Kynard - Charles Kynard (1971) [FLAC]\05 - Greens.wav
Pre-gap length 0:00:03.00
Peak level 95.0 %
Extraction speed 6.0 X
Track quality 99.9 %
Test CRC 40E18A89
Copy CRC 40E18A89
Track not present in AccurateRip database
Copy OK
Track 6
Filename G:\New Rips\Charles Kynard - Charles Kynard (1971) [FLAC]\06 - Nightwood.wav
Pre-gap length 0:00:03.00
Peak level 88.1 %
Extraction speed 6.3 X
Track quality 100.0 %
Test CRC DC79B23B
Copy CRC DC79B23B
Track not present in AccurateRip database
Copy OK
Track 7
Filename G:\New Rips\Charles Kynard - Charles Kynard (1971) [FLAC]\07 - It's Too Late.wav
Pre-gap length 0:00:03.00
Peak level 97.8 %
Extraction speed 7.9 X
Track quality 100.0 %
Test CRC 8078842E
Copy CRC 8078842E
Track not present in AccurateRip database
Copy OK
None of the tracks are present in the AccurateRip database
No errors occurred
End of status report
---- CUETools DB Plugin V2.1.6
[CTDB TOCID: AwL9fMRmFsKpJJr4GpgPrfTb.Zk-] disk not present in database
Submit result: AwL9fMRmFsKpJJr4GpgPrfTb.Zk- has been uploaded
==== Log checksum BF25D42A602BDC0D4CC41C9D19836D26046755F8026AAC3565BF44FB09D2C83D ====
 
Содержание индексной карты (.CUE)
REM GENRE Jazz
REM DATE 1971
REM DISCID 6F093807
REM COMMENT "ExactAudioCopy v1.1"
PERFORMER "Charles Kynard"
TITLE "Charles Kynard"
FILE "01 - El Toro Poo Poo.wav" WAVE
TRACK 01 AUDIO
TITLE "El Toro Poo Poo"
PERFORMER "Charles Kynard"
INDEX 01 00:00:00
TRACK 02 AUDIO
TITLE "Greeze"
PERFORMER "Charles Kynard"
INDEX 00 03:14:74
FILE "02 - Greeze.wav" WAVE
INDEX 01 00:00:00
TRACK 03 AUDIO
TITLE "She"
PERFORMER "Charles Kynard"
INDEX 00 04:43:68
FILE "03 - She.wav" WAVE
INDEX 01 00:00:00
TRACK 04 AUDIO
TITLE "Grits"
PERFORMER "Charles Kynard"
INDEX 00 06:34:06
FILE "04 - Grits.wav" WAVE
INDEX 01 00:00:00
TRACK 05 AUDIO
TITLE "Greens"
PERFORMER "Charles Kynard"
INDEX 00 06:49:16
FILE "05 - Greens.wav" WAVE
INDEX 01 00:00:00
TRACK 06 AUDIO
TITLE "Nightwood"
PERFORMER "Charles Kynard"
INDEX 00 05:42:48
FILE "06 - Nightwood.wav" WAVE
INDEX 01 00:00:00
TRACK 07 AUDIO
TITLE "It's Too Late"
PERFORMER "Charles Kynard"
INDEX 00 02:31:22
FILE "07 - It's Too Late.wav" WAVE
INDEX 01 00:00:00
Приватный:
Нет (DHT включён)
Размер:
236.74 Мб (248,244,023 байт) » файлов: 22
Участники:
0 раздают, 0 качают (0 участников всего)
Внешние участники:
5 раздают, 1 качают (6 участников всего) [ Обновить ]
Есть вопросы - пишите личное сообщение пользователю M0p94ok.
14:52
49
Нет комментариев. Ваш будет первым!