Поиск

(Jazz-Funk, Soul-Jazz) [CD] Charles Kynard - Woga (1972) - 2017, FLAC (tracks+.cue), lossless

(Jazz-Funk, Soul-Jazz) [CD] Charles Kynard - Woga (1972) - 2017, FLAC (tracks+.cue), lossless
Треклист:
Charles Kynard - Woga (1972) Жанр: Jazz-Funk, Soul-Jazz
Носитель: CD
Страна-производитель диска: Japan
Год издания: 2017
Издатель (лейбл): Time/Mainstream Records/Solid Records Japan
Номер по каталогу: CDSOL-45220
Аудиокодек: FLAC (*.flac)
Тип рипа: tracks+.cue
Битрейт аудио: lossless
Продолжительность: 37:23
Источник (релизер): другой трекер
Наличие сканов в содержимом раздачи: да
Треклист:
01. Little Ghetto Boy (3:10)
02. Hot Sauce (4:39)
03. Lime Twig (3:52)
04. Slop Jar (9:22)
05. Rock Steady (3:21)
06. Name The Missing Word (3:29)
07. The First Time Ever (I Saw Your Face) (3:05)
08. Shout (6:24)
Personnel:
Charles Kynard - org
Jim Kartchner, Jerome Rusch - tp, flgn
Dave Roberts, George Bohannon - tb, btb
Arthur Adams - g
Chuck Rainey - el-b
Paul Humphrey - d
Richard Fritz - arr
Rec.: Los Angeles, CA, 1972.
 
 
Об альбоме
Sweet organ lines, heavy drums, and a great little groove throughout – a tight batch of groovers from the mighty Charles Kynard! The keyboardist is in fine 70s form here – stepping away from the sparer sound of his albums for Prestige with a fuller style for Mainstream Records – in a groove that's almost part blacksploitation funk, thanks to some sharp backings from arranger Richard Fritz! The mighty Paul Humphrey is at the bottom of the set on nicely funky drums – and other players include Arthur Adams on guitar, Chuck Rainey on bass, and some great additional horns, which give the record a larger jazzy finish, but never get in the way of Kynard's lean, mean organ lines. There's a great version of "Rock Steady" on the album, one that has a great funky intro – plus the cuts "Shout", "Lime Twig", "Slop Jar", "Name The Missing Word", "Little Ghetto Boy", and "Hot Sauce".
On this album, Charles Kynard kicks out his interpratations of some of the great soul hits of the era it was made (the year was 1972… a particularly funky one, if I may so so…) He also kicks out some originals.
Unlike many "soul Jazz" albums of the era, Kynard makes no attempt to turn the tunes into "Jazz", but rather, he takes his Jazz chops and really gets down on the funk… Other members of the band get in on it too, and while they all groove their mamma-jama's off, its really Kynard's screaming B-3 that takes the show…
The rhythm section includes: Paul Humphrey on drums, Arthur Adams on guitar, Chuck Rainey on bass- - and some pretty wicked horns… (If for some reason you don't know who's these guys are, two words: Studio Musician's musician's musician's ala funk…)
Tunes include: Little Ghetto Boy, Hot Sauce, Lime Twig, Slop Jar, Rock Steady, Name The Missing Word, First Time Ever I Saw Your Face and Shout.
If you're a fan of funky '70s soul Jazz, the groovy B-3 sound - - more recently James Taylor, Soulive, MMW, acid Jazz and Maceo Parker and Fred Wesley I swear, you will really, really, really like this album…
Even if played today I think it would rock any club in the world… in particular a Reggae/Ska/funk sounding tune called Name The Missing Word - - Hot Sauce has a Reuben Wilson meets the Meters type groove, with George Bohannon blowing some pretty mean trombone… (Fred Wesley move over!) - - also check out the ultra groovin' Slop Jar and some of the mean solos the band kicks out on it… The band also gets wicked on a tightly arranged Rock Steady.
All in all… if you're a fan of B-3 funk and soul Jazz, this album is where it starts.

 
Лог создания рипа
Exact Audio Copy V1.1 from 23. June 2015
EAC extraction logfile from 6. August 2017, 17:46
Charles Kynard / Woga
Used drive : MATSHITADVD+-RW SW830 Adapter: 1 ID: 0
Read mode : Secure
Utilize accurate stream : Yes
Defeat audio cache : Yes
Make use of C2 pointers : No
Read offset correction : 6
Overread into Lead-In and Lead-Out : No
Fill up missing offset samples with silence : Yes
Delete leading and trailing silent blocks : No
Null samples used in CRC calculations : Yes
Used interface : Native Win32 interface for Win NT & 2000
Gap handling : Appended to previous track
Used output format : User Defined Encoder
Selected bitrate : 896 kBit/s
Quality : High
Add ID3 tag : No
Command line compressor : C:\Program Files (x86)\Exact Audio Copy\Flac\flac.exe
Additional command line options : -8 -V -T "ARTIST=%artist%" -T "TITLE=%title%" -T "ALBUM=%albumtitle%" -T "DATE=%year%" -T "TRACKNUMBER=%tracknr%" -T "TOTALTRACKS=%numtracks%" -T "GENRE=%genre%" -T "ALBUMARTIST=%albumartist%" -T "ALBUM ARTIST=%albumartist%" -T "COMMENT=EAC Secure Mode, Test & Copy, AccurateRip, FLAC -8" %source%
TOC of the extracted CD
Track | Start | Length | Start sector | End sector
---------------------------------------------------------
1 | 0:00.00 | 3:10.23 | 0 | 14272
2 | 3:10.23 | 4:39.21 | 14273 | 35218
3 | 7:49.44 | 3:51.42 | 35219 | 52585
4 | 11:41.11 | 9:22.02 | 52586 | 94737
5 | 21:03.13 | 3:20.58 | 94738 | 109795
6 | 24:23.71 | 3:29.28 | 109796 | 125498
7 | 27:53.24 | 3:05.17 | 125499 | 139390
8 | 30:58.41 | 6:24.22 | 139391 | 168212
Track 1
Filename G:\New Rips\Charles Kynard - Woga (1972) [FLAC]\01 - Little Ghetto Boy.wav
Pre-gap length 0:00:02.00
Peak level 96.1 %
Extraction speed 4.3 X
Track quality 100.0 %
Test CRC 07A23106
Copy CRC 07A23106
Accurately ripped (confidence 1) [441509B1] (AR v2)
Copy OK
Track 2
Filename G:\New Rips\Charles Kynard - Woga (1972) [FLAC]\02 - Hot Sauce.wav
Pre-gap length 0:00:03.00
Peak level 82.2 %
Extraction speed 5.0 X
Track quality 100.0 %
Test CRC F3FCFC62
Copy CRC F3FCFC62
Accurately ripped (confidence 1) [62585F16] (AR v2)
Copy OK
Track 3
Filename G:\New Rips\Charles Kynard - Woga (1972) [FLAC]\03 - Lime Twig.wav
Pre-gap length 0:00:03.00
Peak level 82.9 %
Extraction speed 5.4 X
Track quality 100.0 %
Test CRC D5E7AB48
Copy CRC D5E7AB48
Accurately ripped (confidence 1) [3479F5ED] (AR v2)
Copy OK
Track 4
Filename G:\New Rips\Charles Kynard - Woga (1972) [FLAC]\04 - Slop Jar.wav
Pre-gap length 0:00:03.00
Peak level 91.4 %
Extraction speed 6.4 X
Track quality 100.0 %
Test CRC 0799BF12
Copy CRC 0799BF12
Accurately ripped (confidence 1) [681299C7] (AR v2)
Copy OK
Track 5
Filename G:\New Rips\Charles Kynard - Woga (1972) [FLAC]\05 - Rock Steady.wav
Pre-gap length 0:00:03.00
Peak level 88.4 %
Extraction speed 6.2 X
Track quality 100.0 %
Test CRC C99B5A75
Copy CRC C99B5A75
Accurately ripped (confidence 1) [36214A2E] (AR v2)
Copy OK
Track 6
Filename G:\New Rips\Charles Kynard - Woga (1972) [FLAC]\06 - Name The Missing Word.wav
Pre-gap length 0:00:03.00
Peak level 92.4 %
Extraction speed 6.5 X
Track quality 100.0 %
Test CRC AF4FBA35
Copy CRC AF4FBA35
Accurately ripped (confidence 1) [7DCE9220] (AR v2)
Copy OK
Track 7
Filename G:\New Rips\Charles Kynard - Woga (1972) [FLAC]\07 - The First Time Ever I Saw Your Face.wav
Pre-gap length 0:00:03.00
Peak level 91.3 %
Extraction speed 5.2 X
Track quality 99.9 %
Test CRC D788DCA2
Copy CRC D788DCA2
Accurately ripped (confidence 1) [0C13CE8E] (AR v2)
Copy OK
Track 8
Filename G:\New Rips\Charles Kynard - Woga (1972) [FLAC]\08 - Shout.wav
Pre-gap length 0:00:03.00
Peak level 83.8 %
Extraction speed 7.7 X
Track quality 100.0 %
Test CRC FD40399D
Copy CRC FD40399D
Accurately ripped (confidence 1) [B6C69F4C] (AR v2)
Copy OK
All tracks accurately ripped
No errors occurred
End of status report
---- CUETools DB Plugin V2.1.6
[CTDB TOCID: XfpoxAjUMaddZc4Gh8BBfyO2bPU-] found
Submit result: XfpoxAjUMaddZc4Gh8BBfyO2bPU- has been confirmed
Track | CTDB Status
1 | (1/1) Accurately ripped
2 | (1/1) Accurately ripped
3 | (1/1) Accurately ripped
4 | (1/1) Accurately ripped
5 | (1/1) Accurately ripped
6 | (1/1) Accurately ripped
7 | (1/1) Accurately ripped
8 | (1/1) Accurately ripped
==== Log checksum E6065A7DBD69062072172DFF9F4FB5B8A6762BF16A8F9944BC94442DFDCA59B2 ====
 
Содержание индексной карты (.CUE)
REM GENRE Jazz
REM DATE 1972
REM DISCID 6408C208
REM COMMENT "ExactAudioCopy v1.1"
PERFORMER "Charles Kynard"
TITLE "Woga"
FILE "01 - Little Ghetto Boy.wav" WAVE
TRACK 01 AUDIO
TITLE "Little Ghetto Boy"
PERFORMER "Charles Kynard"
INDEX 01 00:00:00
TRACK 02 AUDIO
TITLE "Hot Sauce"
PERFORMER "Charles Kynard"
INDEX 00 03:07:23
FILE "02 - Hot Sauce.wav" WAVE
INDEX 01 00:00:00
TRACK 03 AUDIO
TITLE "Lime Twig"
PERFORMER "Charles Kynard"
INDEX 00 04:36:21
FILE "03 - Lime Twig.wav" WAVE
INDEX 01 00:00:00
TRACK 04 AUDIO
TITLE "Slop Jar"
PERFORMER "Charles Kynard"
INDEX 00 03:48:42
FILE "04 - Slop Jar.wav" WAVE
INDEX 01 00:00:00
TRACK 05 AUDIO
TITLE "Rock Steady"
PERFORMER "Charles Kynard"
INDEX 00 09:19:02
FILE "05 - Rock Steady.wav" WAVE
INDEX 01 00:00:00
TRACK 06 AUDIO
TITLE "Name The Missing Word"
PERFORMER "Charles Kynard"
INDEX 00 03:17:58
FILE "06 - Name The Missing Word.wav" WAVE
INDEX 01 00:00:00
TRACK 07 AUDIO
TITLE "The First Time Ever I Saw Your Face"
PERFORMER "Charles Kynard"
INDEX 00 03:26:28
FILE "07 - The First Time Ever I Saw Your Face.wav" WAVE
INDEX 01 00:00:00
TRACK 08 AUDIO
TITLE "Shout"
PERFORMER "Charles Kynard"
INDEX 00 03:02:17
FILE "08 - Shout.wav" WAVE
INDEX 01 00:00:00
Приватный:
Нет (DHT включён)
Размер:
246.76 Мб (258,746,314 байт) » файлов: 23
Участники:
0 раздают, 0 качают (0 участников всего)
Внешние участники:
2 раздают, 1 качают (3 участников всего) [ Обновить ]
Есть вопросы - пишите личное сообщение пользователю M0p94ok.
14:53
63
Нет комментариев. Ваш будет первым!