Поиск

(Soul, R&B, Funk, Pop) [CD] VA - 100 Hits - Ultimate Soul (5CD) - 2016, FLAC (tracks+.cue), lossless

(Soul, R&B, Funk, Pop) [CD] VA - 100 Hits - Ultimate Soul (5CD) - 2016, FLAC (tracks+.cue), lossless
Треклист:
100 Hits - Ultimate Soul (5CD)
Жанр: Soul, R&B, Funk, Pop
Носитель: CD
Год издания: 2016
Издатель (лейбл): Demon Music Group Ltd
Аудиокодек: FLAC (*.flac)
Тип рипа: tracks+.cue
Битрейт аудио: lossless
Продолжительность: 06:02:36
Источник (релизер): другой трекер
Наличие сканов в содержимом раздачи: да
с раздачи ушёл
 
Disc - 01
 
Tracklist:
01.Bill Withers - Ain't No Sunshine - 00:02:05
02.Champaign - How 'Bout Us - 00:03:21
03.Marvin Gaye - Sexual Healing - 00:04:07
04.Billy Paul - Me An Mrs. Jones - 00:03:37
05.Harold Melvin & The Blue Notes - If You Don't Know Me By Now - 00:03:22
06.Teddy Pendergrass - Turn Off The Lights - 00:05:56
07.Little Richard - A Little Bit Of Something - 00:03:02
08.Johnny Nash - Tears On My Pillow - 00:03:14
09.The Vibrations - Cause You're Mine - 00:02:12
10.Luther Vandross - So Amazing - 00:03:43
11.The Drifters - You're More Than A Number In My Little Red Book - 00:03:15
12.The Trammps - Hold Back The Night - 00:03:43
13.James & Bobby Purify - Let Love Come Between Us - 00:02:23
14.Earth, Wind & Fire - After The Love Has Gone - 00:03:38
15.Heatwave - Mind Blowing Decisions - 00:04:19
16.O'Jays - Brandy - 00:04:14
17.The S.O.S. Band - Just Be Good To Me - 00:04:11
18.The Delfonics - Ready Or Not Here I Come - 00:02:01
19.Bobby Womack - Home Is Where The Heart Is - 00:03:20
20.The Peddlers - Birth - 00:04:07
Playing Time - 01:10:01
 
Лог создания рипа
Exact Audio Copy V1.1 from 23. June 2015
EAC extraction logfile from 27. October 2016, 20:40
Various / 100 Hits Ultimate Soul - Disc - 01
Used drive : HL-DT-STDVDRAM GSA-E40N Adapter: 1 ID: 1
Read mode : Secure
Utilize accurate stream : Yes
Defeat audio cache : No
Make use of C2 pointers : Yes
Read offset correction : 667
Overread into Lead-In and Lead-Out : No
Fill up missing offset samples with silence : Yes
Delete leading and trailing silent blocks : No
Null samples used in CRC calculations : Yes
Used interface : Native Win32 interface for Win NT & 2000
Gap handling : Not detected, thus appended to previous track
Used output format : User Defined Encoder
Selected bitrate : 768 kBit/s
Quality : High
Add ID3 tag : No
Command line compressor : C:\Program Files (x86)\Exact Audio Copy\FLAC\FLAC.EXE
Additional command line options : -6 -V -T "ARTIST=%artist%" -T "TITLE=%title%" -T "ALBUM=%albumtitle%" -T "DATE=%year%" -T "TRACKNUMBER=%tracknr%" -T "GENRE=%genre%" -T "COMMENT=%comment%" -T "BAND=%albuminterpret%" -T "ALBUMARTIST=%albuminterpret%" -T "COMPOSER=%composer%" %haslyrics%--tag-from-file=LYRICS="%lyricsfile%"%haslyrics% -T "DISCNUMBER=%cdnumber%" -T "TOTALDISCS=%totalcds%" -T "TOTALTRACKS=%numtracks%" %hascover%--picture="%coverfile%"%hascover% %source% -o %dest%
TOC of the extracted CD
Track | Start | Length | Start sector | End sector
---------------------------------------------------------
1 | 0:00.00 | 2:05.62 | 0 | 9436
2 | 2:05.62 | 3:21.14 | 9437 | 24525
3 | 5:27.01 | 4:07.68 | 24526 | 43118
4 | 9:34.69 | 3:37.43 | 43119 | 59436
5 | 13:12.37 | 3:22.48 | 59437 | 74634
6 | 16:35.10 | 5:56.13 | 74635 | 101347
7 | 22:31.23 | 3:02.04 | 101348 | 115001
8 | 25:33.27 | 3:14.63 | 115002 | 129614
9 | 28:48.15 | 2:12.53 | 129615 | 139567
10 | 31:00.68 | 3:43.34 | 139568 | 156326
11 | 34:44.27 | 3:15.72 | 156327 | 171023
12 | 38:00.24 | 3:43.58 | 171024 | 187806
13 | 41:44.07 | 2:23.62 | 187807 | 198593
14 | 44:07.69 | 3:38.01 | 198594 | 214944
15 | 47:45.70 | 4:19.04 | 214945 | 234373
16 | 52:04.74 | 4:14.53 | 234374 | 253476
17 | 56:19.52 | 4:11.56 | 253477 | 272357
18 | 60:31.33 | 2:01.52 | 272358 | 281484
19 | 62:33.10 | 3:20.54 | 281485 | 296538
20 | 65:53.64 | 4:07.25 | 296539 | 315088
Track 1
Filename F:\FLAC MUSIC\MOTOWN\100 Hits - Ultimate Soul\100HitsUS - Disc - 01\01.Bill Withers - Ain't No Sunshine.wav
Peak level 99.4 %
Extraction speed 4.6 X
Track quality 98.8 %
Copy CRC 1012DECE
Accurately ripped (confidence 3) [04FF2141] (AR v2)
Copy OK
Track 2
Filename F:\FLAC MUSIC\MOTOWN\100 Hits - Ultimate Soul\100HitsUS - Disc - 01\02.Champaign - How 'Bout Us.wav
Peak level 94.1 %
Extraction speed 10.7 X
Track quality 99.7 %
Copy CRC CE099C2D
Accurately ripped (confidence 3) [49F22C18] (AR v2)
Copy OK
Track 3
Filename F:\FLAC MUSIC\MOTOWN\100 Hits - Ultimate Soul\100HitsUS - Disc - 01\03.Marvin Gaye - Sexual Healing.wav
Peak level 96.0 %
Extraction speed 18.5 X
Track quality 99.9 %
Copy CRC FB79A629
Accurately ripped (confidence 3) [70FA7571] (AR v2)
Copy OK
Track 4
Filename F:\FLAC MUSIC\MOTOWN\100 Hits - Ultimate Soul\100HitsUS - Disc - 01\04.Billy Paul - Me An Mrs. Jones.wav
Peak level 99.4 %
Extraction speed 19.5 X
Track quality 100.0 %
Copy CRC 98656530
Accurately ripped (confidence 3) [7AB8F571] (AR v2)
Copy OK
Track 5
Filename F:\FLAC MUSIC\MOTOWN\100 Hits - Ultimate Soul\100HitsUS - Disc - 01\05.Harold Melvin & The Blue Notes - If You Don't Know Me By Now.wav
Peak level 99.4 %
Extraction speed 21.1 X
Track quality 100.0 %
Copy CRC 1DF71B7E
Accurately ripped (confidence 3) [5F428B15] (AR v2)
Copy OK
Track 6
Filename F:\FLAC MUSIC\MOTOWN\100 Hits - Ultimate Soul\100HitsUS - Disc - 01\06.Teddy Pendergrass - Turn Off The Lights.wav
Peak level 99.4 %
Extraction speed 23.6 X
Track quality 100.0 %
Copy CRC A0687EFB
Accurately ripped (confidence 3) [53432FEA] (AR v2)
Copy OK
Track 7
Filename F:\FLAC MUSIC\MOTOWN\100 Hits - Ultimate Soul\100HitsUS - Disc - 01\07.Little Richard - A Little Bit Of Something.wav
Peak level 84.9 %
Extraction speed 19.2 X
Track quality 99.7 %
Copy CRC 1D96E026
Accurately ripped (confidence 3) [29FCB21F] (AR v2)
Copy OK
Track 8
Filename F:\FLAC MUSIC\MOTOWN\100 Hits - Ultimate Soul\100HitsUS - Disc - 01\08.Johnny Nash - Tears On My Pillow.wav
Peak level 89.0 %
Extraction speed 27.8 X
Track quality 100.0 %
Copy CRC 99521C53
Accurately ripped (confidence 3) [0F3B11DD] (AR v2)
Copy OK
Track 9
Filename F:\FLAC MUSIC\MOTOWN\100 Hits - Ultimate Soul\100HitsUS - Disc - 01\09.The Vibrations - Cause You're Mine.wav
Peak level 79.6 %
Extraction speed 28.7 X
Track quality 100.0 %
Copy CRC 604AAE6E
Accurately ripped (confidence 3) [AF5420D7] (AR v2)
Copy OK
Track 10
Filename F:\FLAC MUSIC\MOTOWN\100 Hits - Ultimate Soul\100HitsUS - Disc - 01\10.Luther Vandross - So Amazing.wav
Peak level 96.0 %
Extraction speed 30.0 X
Track quality 100.0 %
Copy CRC 332CFA41
Accurately ripped (confidence 3) [0CCA6EDB] (AR v2)
Copy OK
Track 11
Filename F:\FLAC MUSIC\MOTOWN\100 Hits - Ultimate Soul\100HitsUS - Disc - 01\11.The Drifters - You're More Than A Number In My Little Red Book.wav
Peak level 87.0 %
Extraction speed 26.1 X
Track quality 99.8 %
Copy CRC 725CE410
Accurately ripped (confidence 3) [1F555D4A] (AR v2)
Copy OK
Track 12
Filename F:\FLAC MUSIC\MOTOWN\100 Hits - Ultimate Soul\100HitsUS - Disc - 01\12.The Trammps - Hold Back The Night.wav
Peak level 94.8 %
Extraction speed 30.5 X
Track quality 100.0 %
Copy CRC F7052F78
Accurately ripped (confidence 3) [450B9323] (AR v2)
Copy OK
Track 13
Filename F:\FLAC MUSIC\MOTOWN\100 Hits - Ultimate Soul\100HitsUS - Disc - 01\13.James & Bobby Purify - Let Love Come Between Us.wav
Peak level 95.9 %
Extraction speed 33.1 X
Track quality 100.0 %
Copy CRC C9562AC6
Accurately ripped (confidence 3) [A1364AAD] (AR v2)
Copy OK
Track 14
Filename F:\FLAC MUSIC\MOTOWN\100 Hits - Ultimate Soul\100HitsUS - Disc - 01\14.Earth, Wind & Fire - After The Love Has Gone.wav
Peak level 99.4 %
Extraction speed 33.9 X
Track quality 100.0 %
Copy CRC E574F5D6
Accurately ripped (confidence 3) [BC19C518] (AR v2)
Copy OK
Track 15
Filename F:\FLAC MUSIC\MOTOWN\100 Hits - Ultimate Soul\100HitsUS - Disc - 01\15.Heatwave - Mind Blowing Decisions.wav
Peak level 82.7 %
Extraction speed 29.4 X
Track quality 99.9 %
Copy CRC 392ACAEB
Accurately ripped (confidence 3) [68BD23EC] (AR v2)
Copy OK
Track 16
Filename F:\FLAC MUSIC\MOTOWN\100 Hits - Ultimate Soul\100HitsUS - Disc - 01\16.O'Jays - Brandy.wav
Peak level 99.4 %
Extraction speed 34.9 X
Track quality 100.0 %
Copy CRC 13647E81
Accurately ripped (confidence 3) [08F5C9A8] (AR v2)
Copy OK
Track 17
Filename F:\FLAC MUSIC\MOTOWN\100 Hits - Ultimate Soul\100HitsUS - Disc - 01\17.The S.O.S. Band - Just Be Good To Me.wav
Peak level 83.1 %
Extraction speed 31.3 X
Track quality 99.9 %
Copy CRC AA0E7CB5
Accurately ripped (confidence 3) [097425E4] (AR v2)
Copy OK
Track 18
Filename F:\FLAC MUSIC\MOTOWN\100 Hits - Ultimate Soul\100HitsUS - Disc - 01\18.The Delfonics - Ready Or Not Here I Come.wav
Peak level 99.4 %
Extraction speed 25.2 X
Track quality 99.8 %
Copy CRC 274D196A
Accurately ripped (confidence 3) [52F63FF8] (AR v2)
Copy OK
Track 19
Filename F:\FLAC MUSIC\MOTOWN\100 Hits - Ultimate Soul\100HitsUS - Disc - 01\19.Bobby Womack - Home Is Where The Heart Is.wav
Peak level 88.6 %
Extraction speed 30.1 X
Track quality 100.0 %
Copy CRC F0F8C99D
Accurately ripped (confidence 3) [00589D26] (AR v2)
Copy OK
Track 20
Filename F:\FLAC MUSIC\MOTOWN\100 Hits - Ultimate Soul\100HitsUS - Disc - 01\20.The Peddlers - Birth.wav
Peak level 92.7 %
Extraction speed 38.7 X
Track quality 99.9 %
Copy CRC 9A79D0EB
Accurately ripped (confidence 3) [276AF2EE] (AR v2)
Copy OK
All tracks accurately ripped
No errors occurred
End of status report
---- CUETools DB Plugin V2.1.6
[CTDB TOCID: GUBh4r5fScktzGbAD8TpFZguRlk-] found
Submit result: GUBh4r5fScktzGbAD8TpFZguRlk- has been confirmed
Track | CTDB Status
1 | (9/9) Accurately ripped
2 | (9/9) Accurately ripped
3 | (9/9) Accurately ripped
4 | (9/9) Accurately ripped
5 | (9/9) Accurately ripped
6 | (9/9) Accurately ripped
7 | (9/9) Accurately ripped
8 | (9/9) Accurately ripped
9 | (9/9) Accurately ripped
10 | (9/9) Accurately ripped
11 | (9/9) Accurately ripped
12 | (9/9) Accurately ripped
13 | (9/9) Accurately ripped
14 | (9/9) Accurately ripped
15 | (9/9) Accurately ripped
16 | (9/9) Accurately ripped
17 | (9/9) Accurately ripped
18 | (9/9) Accurately ripped
19 | (9/9) Accurately ripped
20 | (9/9) Accurately ripped
 
Содержание индексной карты (.CUE)
REM GENRE Soul
REM DATE 2016
REM DISCID 3B106914
REM COMMENT "ExactAudioCopy v1.1"
PERFORMER "Various"
TITLE "100 Hits Ultimate Soul - Disc - 01"
FILE "0001.Bill Withers - Ain't No Sunshine.flac" WAVE
TRACK 01 AUDIO
TITLE "Ain't No Sunshine"
PERFORMER "Bill Withers"
INDEX 01 00:00:00
FILE "0002.Champaign - How 'Bout Us.flac" WAVE
TRACK 02 AUDIO
TITLE "How 'Bout Us"
PERFORMER "Champaign"
INDEX 01 00:00:00
FILE "0003.Marvin Gaye - Sexual Healing.flac" WAVE
TRACK 03 AUDIO
TITLE "Sexual Healing"
PERFORMER "Marvin Gaye"
INDEX 01 00:00:00
FILE "0004.Billy Paul - Me An Mrs. Jones.flac" WAVE
TRACK 04 AUDIO
TITLE "Me An Mrs. Jones"
PERFORMER "Billy Paul"
INDEX 01 00:00:00
FILE "0005.Harold Melvin & The Blue Notes - If You Don't Know Me By Now.flac" WAVE
TRACK 05 AUDIO
TITLE "If You Don't Know Me By Now"
PERFORMER "Harold Melvin & The Blue Notes"
INDEX 01 00:00:00
FILE "0006.Teddy Pendergrass - Turn Off The Lights.flac" WAVE
TRACK 06 AUDIO
TITLE "Turn Off The Lights"
PERFORMER "Teddy Pendergrass"
INDEX 01 00:00:00
FILE "0007.Little Richard - A Little Bit Of Something.flac" WAVE
TRACK 07 AUDIO
TITLE "A Little Bit Of Something"
PERFORMER "Little Richard"
INDEX 01 00:00:00
FILE "0008.Johnny Nash - Tears On My Pillow.flac" WAVE
TRACK 08 AUDIO
TITLE "Tears On My Pillow"
PERFORMER "Johnny Nash"
INDEX 01 00:00:00
FILE "0009.The Vibrations - Cause You're Mine.flac" WAVE
TRACK 09 AUDIO
TITLE "Cause You're Mine"
PERFORMER "The Vibrations"
INDEX 01 00:00:00
FILE "0010.Luther Vandross - So Amazing.flac" WAVE
TRACK 10 AUDIO
TITLE "So Amazing"
PERFORMER "Luther Vandross"
INDEX 01 00:00:00
FILE "0011.The Drifters - You're More Than A Number In My Little Red Book.flac" WAVE
TRACK 11 AUDIO
TITLE "You're More Than A Number In My Little Red Book"
PERFORMER "The Drifters"
INDEX 01 00:00:00
FILE "0012.The Trammps - Hold Back The Night.flac" WAVE
TRACK 12 AUDIO
TITLE "Hold Back The Night"
PERFORMER "The Trammps"
INDEX 01 00:00:00
FILE "0013.James & Bobby Purify - Let Love Come Between Us.flac" WAVE
TRACK 13 AUDIO
TITLE "Let Love Come Between Us"
PERFORMER "James & Bobby Purify"
INDEX 01 00:00:00
FILE "0014.Earth, Wind & Fire - After The Love Has Gone.flac" WAVE
TRACK 14 AUDIO
TITLE "After The Love Has Gone"
PERFORMER "Earth, Wind & Fire"
INDEX 01 00:00:00
FILE "0015.Heatwave - Mind Blowing Decisions.flac" WAVE
TRACK 15 AUDIO
TITLE "Mind Blowing Decisions"
PERFORMER "Heatwave"
INDEX 01 00:00:00
FILE "0016.O'Jays - Brandy.flac" WAVE
TRACK 16 AUDIO
TITLE "Brandy"
PERFORMER "O'Jays"
INDEX 01 00:00:00
FILE "0017.The S.O.S. Band - Just Be Good To Me.flac" WAVE
TRACK 17 AUDIO
TITLE "Just Be Good To Me"
PERFORMER "The S.O.S. Band"
INDEX 01 00:00:00
FILE "0018.The Delfonics - Ready Or Not Here I Come.flac" WAVE
TRACK 18 AUDIO
TITLE "Ready Or Not Here I Come"
PERFORMER "The Delfonics"
INDEX 01 00:00:00
FILE "0019.Bobby Womack - Home Is Where The Heart Is.flac" WAVE
TRACK 19 AUDIO
TITLE "Home Is Where The Heart Is"
PERFORMER "Bobby Womack"
INDEX 01 00:00:00
FILE "0020.The Peddlers - Birth.flac" WAVE
TRACK 20 AUDIO
TITLE "Birth"
PERFORMER "The Peddlers"
INDEX 01 00:00:00
 
Disc - 02
 
Tracklist:
01.The Ronettes - Be My Baby - 00:02:43
02.Reparata And The Delrons - Captain Of Your Ship - 00:02:28
03.Freda Payne - Band Of Gold - 00:02:54
04.Glady's Knight & The Pips - Midnight Train To Georgia - 00:04:40
05.Erma Franklin - Piece Of My Heart - 00:02:34
06.The Three Degrees - Woman In Love - 00:04:13
07.Peaches & Herb - I Need Your Love So Desperately - 00:02:36
08.Dionne Warwick - I'll Never Love This Way Again - 00:03:31
09.Nina Simone - Do What You Gotta Do - 00:03:05
10.Aretha Franklin - Mockingbird - 00:02:39
11.Deniece Williams - That's What Friends Are For - 00:04:28
12.Cheryl Lynn - All My Lovin' - 00:04:48
13.Barbara Mason - From His Woman To You - 00:05:00
14.Jackie Moore - Personally - 00:03:43
15.Phoebe Snow - Every Night - 00:03:18
16.Cherrelle & Alexander O'Neal - Saturday Love - 00:04:51
17.Pointer Sisters - I Need You - 00:04:02
18.Freddie Scott - Are You Lonely For Me Baby - 00:03:19
19.The Tymes - People - 00:03:07
20.General Johnson - Don't Walk Away - 00:04:37
Playing Time - 01:12:45
 
Лог создания рипа
Exact Audio Copy V1.1 from 23. June 2015
EAC extraction logfile from 27. October 2016, 21:34
Various / 100 Hits Ultimate Soul - Disc - 02
Used drive : HL-DT-STDVDRAM GSA-E40N Adapter: 1 ID: 1
Read mode : Secure
Utilize accurate stream : Yes
Defeat audio cache : No
Make use of C2 pointers : Yes
Read offset correction : 667
Overread into Lead-In and Lead-Out : No
Fill up missing offset samples with silence : Yes
Delete leading and trailing silent blocks : No
Null samples used in CRC calculations : Yes
Used interface : Native Win32 interface for Win NT & 2000
Gap handling : Not detected, thus appended to previous track
Used output format : User Defined Encoder
Selected bitrate : 768 kBit/s
Quality : High
Add ID3 tag : No
Command line compressor : C:\Program Files (x86)\Exact Audio Copy\FLAC\FLAC.EXE
Additional command line options : -6 -V -T "ARTIST=%artist%" -T "TITLE=%title%" -T "ALBUM=%albumtitle%" -T "DATE=%year%" -T "TRACKNUMBER=%tracknr%" -T "GENRE=%genre%" -T "COMMENT=%comment%" -T "BAND=%albuminterpret%" -T "ALBUMARTIST=%albuminterpret%" -T "COMPOSER=%composer%" %haslyrics%--tag-from-file=LYRICS="%lyricsfile%"%haslyrics% -T "DISCNUMBER=%cdnumber%" -T "TOTALDISCS=%totalcds%" -T "TOTALTRACKS=%numtracks%" %hascover%--picture="%coverfile%"%hascover% %source% -o %dest%
TOC of the extracted CD
Track | Start | Length | Start sector | End sector
---------------------------------------------------------
1 | 0:00.00 | 2:43.37 | 0 | 12261
2 | 2:43.37 | 2:28.61 | 12262 | 23422
3 | 5:12.23 | 2:54.35 | 23423 | 36507
4 | 8:06.58 | 4:40.66 | 36508 | 57573
5 | 12:47.49 | 2:34.17 | 57574 | 69140
6 | 15:21.66 | 4:13.17 | 69141 | 88132
7 | 19:35.08 | 2:36.62 | 88133 | 99894
8 | 22:11.70 | 3:31.56 | 99895 | 115775
9 | 25:43.51 | 3:05.23 | 115776 | 129673
10 | 28:48.74 | 2:39.02 | 129674 | 141600
11 | 31:28.01 | 4:29.09 | 141601 | 161784
12 | 35:57.10 | 4:48.10 | 161785 | 183394
13 | 40:45.20 | 5:00.33 | 183395 | 205927
14 | 45:45.53 | 3:43.02 | 205928 | 222654
15 | 49:28.55 | 3:18.63 | 222655 | 237567
16 | 52:47.43 | 4:51.19 | 237568 | 259411
17 | 57:38.62 | 4:02.03 | 259412 | 277564
18 | 61:40.65 | 3:19.72 | 277565 | 292561
19 | 65:00.62 | 3:07.66 | 292562 | 306652
20 | 68:08.53 | 4:37.12 | 306653 | 327439
Track 1
Filename F:\FLAC MUSIC\MOTOWN\100 Hits - Ultimate Soul\100HitsUS - Disc - 02\01.The Ronettes - Be My Baby.wav
Peak level 99.4 %
Extraction speed 4.7 X
Track quality 99.0 %
Copy CRC C5E9EF02
Accurately ripped (confidence 3) [72069DF2] (AR v2)
Copy OK
Track 2
Filename F:\FLAC MUSIC\MOTOWN\100 Hits - Ultimate Soul\100HitsUS - Disc - 02\02.Reparata And The Delrons - Captain Of Your Ship.wav
Peak level 97.3 %
Extraction speed 10.3 X
Track quality 99.7 %
Copy CRC 0BE9FAE4
Accurately ripped (confidence 3) [DEA0FBA2] (AR v2)
Copy OK
Track 3
Filename F:\FLAC MUSIC\MOTOWN\100 Hits - Ultimate Soul\100HitsUS - Disc - 02\03.Freda Payne - Band Of Gold.wav
Peak level 93.3 %
Extraction speed 17.8 X
Track quality 100.0 %
Copy CRC 5E0D4236
Accurately ripped (confidence 3) [FBC3DF76] (AR v2)
Copy OK
Track 4
Filename F:\FLAC MUSIC\MOTOWN\100 Hits - Ultimate Soul\100HitsUS - Disc - 02\04.Glady's Knight & The Pips - Midnight Train To Georgia.wav
Peak level 91.7 %
Extraction speed 20.0 X
Track quality 100.0 %
Copy CRC 684BFBC6
Accurately ripped (confidence 3) [AD3148FB] (AR v2)
Copy OK
Track 5
Filename F:\FLAC MUSIC\MOTOWN\100 Hits - Ultimate Soul\100HitsUS - Disc - 02\05.Erma Franklin - Piece Of My Heart.wav
Peak level 99.4 %
Extraction speed 18.8 X
Track quality 99.8 %
Copy CRC DB5121FE
Accurately ripped (confidence 3) [7235213B] (AR v2)
Copy OK
Track 6
Filename F:\FLAC MUSIC\MOTOWN\100 Hits - Ultimate Soul\100HitsUS - Disc - 02\06.The Three Degrees - Woman In Love.wav
Peak level 99.4 %
Extraction speed 22.0 X
Track quality 100.0 %
Copy CRC FCA56865
Accurately ripped (confidence 3) [9716544B] (AR v2)
Copy OK
Track 7
Filename F:\FLAC MUSIC\MOTOWN\100 Hits - Ultimate Soul\100HitsUS - Disc - 02\07.Peaches & Herb - I Need Your Love So Desperately.wav
Peak level 99.4 %
Extraction speed 25.7 X
Track quality 100.0 %
Copy CRC AB7203B0
Accurately ripped (confidence 3) [CC6E3A1D] (AR v2)
Copy OK
Track 8
Filename F:\FLAC MUSIC\MOTOWN\100 Hits - Ultimate Soul\100HitsUS - Disc - 02\08.Dionne Warwick - I'll Never Love This Way Again.wav
Peak level 99.4 %
Extraction speed 22.4 X
Track quality 99.9 %
Copy CRC 70C1D146
Accurately ripped (confidence 3) [7C250B0C] (AR v2)
Copy OK
Track 9
Filename F:\FLAC MUSIC\MOTOWN\100 Hits - Ultimate Soul\100HitsUS - Disc - 02\09.Nina Simone - Do What You Gotta Do.wav
Peak level 99.4 %
Extraction speed 23.7 X
Track quality 100.0 %
Copy CRC ED6F91EC
Accurately ripped (confidence 3) [C34E71E6] (AR v2)
Copy OK
Track 10
Filename F:\FLAC MUSIC\MOTOWN\100 Hits - Ultimate Soul\100HitsUS - Disc - 02\10.Aretha Franklin - Mockingbird.wav
Peak level 99.4 %
Extraction speed 22.7 X
Track quality 99.8 %
Copy CRC BB188B4C
Accurately ripped (confidence 3) [57EF716D] (AR v2)
Copy OK
Track 11
Filename F:\FLAC MUSIC\MOTOWN\100 Hits - Ultimate Soul\100HitsUS - Disc - 02\11.Deniece Williams - That's What Friends Are For.wav
Peak level 95.5 %
Extraction speed 18.3 X
Track quality 99.7 %
Copy CRC 70D95533
Accurately ripped (confidence 3) [2B7427A0] (AR v2)
Copy OK
Track 12
Filename F:\FLAC MUSIC\MOTOWN\100 Hits - Ultimate Soul\100HitsUS - Disc - 02\12.Cheryl Lynn - All My Lovin'.wav
Peak level 99.4 %
Extraction speed 24.8 X
Track quality 99.9 %
Copy CRC 6C474F5D
Accurately ripped (confidence 3) [ADA5CC0F] (AR v2)
Copy OK
Track 13
Filename F:\FLAC MUSIC\MOTOWN\100 Hits - Ultimate Soul\100HitsUS - Disc - 02\13.Barbara Mason - From His Woman To You.wav
Peak level 99.4 %
Extraction speed 28.9 X
Track quality 100.0 %
Copy CRC 58B1496B
Accurately ripped (confidence 3) [4D6E7F4E] (AR v2)
Copy OK
Track 14
Filename F:\FLAC MUSIC\MOTOWN\100 Hits - Ultimate Soul\100HitsUS - Disc - 02\14.Jackie Moore - Personally.wav
Peak level 99.4 %
Extraction speed 29.4 X
Track quality 100.0 %
Copy CRC 9CCC9595
Accurately ripped (confidence 3) [0B28785F] (AR v2)
Copy OK
Track 15
Filename F:\FLAC MUSIC\MOTOWN\100 Hits - Ultimate Soul\100HitsUS - Disc - 02\15.Phoebe Snow - Every Night.wav
Peak level 99.4 %
Extraction speed 27.9 X
Track quality 99.8 %
Copy CRC 4A5D4C05
Accurately ripped (confidence 3) [4AE8DBD0] (AR v2)
Copy OK
Track 16
Filename F:\FLAC MUSIC\MOTOWN\100 Hits - Ultimate Soul\100HitsUS - Disc - 02\16.Cherrelle & Alexander O'Neal - Saturday Love.wav
Peak level 99.4 %
Extraction speed 30.0 X
Track quality 99.9 %
Copy CRC 441AE2AC
Accurately ripped (confidence 3) [0860844D] (AR v2)
Copy OK
Track 17
Filename F:\FLAC MUSIC\MOTOWN\100 Hits - Ultimate Soul\100HitsUS - Disc - 02\17.Pointer Sisters - I Need You.wav
Peak level 99.4 %
Extraction speed 30.4 X
Track quality 100.0 %
Copy CRC 7080E2C0
Accurately ripped (confidence 3) [59F1E360] (AR v2)
Copy OK
Track 18
Filename F:\FLAC MUSIC\MOTOWN\100 Hits - Ultimate Soul\100HitsUS - Disc - 02\18.Freddie Scott - Are You Lonely For Me Baby.wav
Peak level 99.4 %
Extraction speed 31.5 X
Track quality 100.0 %
Copy CRC DBEFAEB1
Accurately ripped (confidence 3) [65FDC007] (AR v2)
Copy OK
Track 19
Filename F:\FLAC MUSIC\MOTOWN\100 Hits - Ultimate Soul\100HitsUS - Disc - 02\19.The Tymes - People.wav
Peak level 99.4 %
Extraction speed 32.0 X
Track quality 100.0 %
Copy CRC 7DFE3F20
Accurately ripped (confidence 3) [38820115] (AR v2)
Copy OK
Track 20
Filename F:\FLAC MUSIC\MOTOWN\100 Hits - Ultimate Soul\100HitsUS - Disc - 02\20.General Johnson - Don't Walk Away.wav
Peak level 99.4 %
Extraction speed 33.2 X
Track quality 100.0 %
Copy CRC 1D510946
Accurately ripped (confidence 3) [F024985B] (AR v2)
Copy OK
All tracks accurately ripped
No errors occurred
End of status report
---- CUETools DB Plugin V2.1.6
[CTDB TOCID: IxOO89Zy3d6Amha.OzvFmaA3crs-] found
Submit result: IxOO89Zy3d6Amha.OzvFmaA3crs- has been confirmed
Track | CTDB Status
1 | (8/8) Accurately ripped
2 | (8/8) Accurately ripped
3 | (8/8) Accurately ripped
4 | (8/8) Accurately ripped
5 | (8/8) Accurately ripped
6 | (8/8) Accurately ripped
7 | (8/8) Accurately ripped
8 | (8/8) Accurately ripped
9 | (8/8) Accurately ripped
10 | (8/8) Accurately ripped
11 | (8/8) Accurately ripped
12 | (8/8) Accurately ripped
13 | (8/8) Accurately ripped
14 | (8/8) Accurately ripped
15 | (8/8) Accurately ripped
16 | (8/8) Accurately ripped
17 | (8/8) Accurately ripped
18 | (8/8) Accurately ripped
19 | (8/8) Accurately ripped
20 | (8/8) Accurately ripped
 
Содержание индексной карты (.CUE)
REM GENRE Soul
REM DATE 2016
REM DISCID 24110D14
REM COMMENT "ExactAudioCopy v1.1"
PERFORMER "Various"
TITLE "100 Hits Ultimate Soul - Disc - 02"
FILE "0001.The Ronettes - Be My Baby.flac" WAVE
TRACK 01 AUDIO
TITLE "Be My Baby"
PERFORMER "The Ronettes"
INDEX 01 00:00:00
FILE "0002.Reparata And The Delrons - Captain Of Your Ship.flac" WAVE
TRACK 02 AUDIO
TITLE "Captain Of Your Ship"
PERFORMER "Reparata And The Delrons"
INDEX 01 00:00:00
FILE "0003.Freda Payne - Band Of Gold.flac" WAVE
TRACK 03 AUDIO
TITLE "Band Of Gold"
PERFORMER "Freda Payne"
INDEX 01 00:00:00
FILE "0004.Glady's Knight & The Pips - Midnight Train To Georgia.flac" WAVE
TRACK 04 AUDIO
TITLE "Midnight Train To Georgia"
PERFORMER "Glady's Knight & The Pips"
INDEX 01 00:00:00
FILE "0005.Erma Franklin - Piece Of My Heart.flac" WAVE
TRACK 05 AUDIO
TITLE "Piece Of My Heart"
PERFORMER "Erma Franklin"
INDEX 01 00:00:00
FILE "0006.The Three Degrees - Woman In Love.flac" WAVE
TRACK 06 AUDIO
TITLE "Woman In Love"
PERFORMER "The Three Degrees"
INDEX 01 00:00:00
FILE "0007.Peaches & Herb - I Need Your Love So Desperately.flac" WAVE
TRACK 07 AUDIO
TITLE "I Need Your Love So Desperately"
PERFORMER "Peaches & Herb"
INDEX 01 00:00:00
FILE "0008.Dionne Warwick - I'll Never Love This Way Again.flac" WAVE
TRACK 08 AUDIO
TITLE "I'll Never Love This Way Again"
PERFORMER "Dionne Warwick"
INDEX 01 00:00:00
FILE "0009.Nina Simone - Do What You Gotta Do.flac" WAVE
TRACK 09 AUDIO
TITLE "Do What You Gotta Do"
PERFORMER "Nina Simone"
INDEX 01 00:00:00
FILE "0010.Aretha Franklin - Mockingbird.flac" WAVE
TRACK 10 AUDIO
TITLE "Mockingbird"
PERFORMER "Aretha Franklin"
INDEX 01 00:00:00
FILE "0011.Deniece Williams - That's What Friends Are For.flac" WAVE
TRACK 11 AUDIO
TITLE "That's What Friends Are For"
PERFORMER "Deniece Williams"
INDEX 01 00:00:00
FILE "0012.Cheryl Lynn - All My Lovin'.flac" WAVE
TRACK 12 AUDIO
TITLE "All My Lovin'"
PERFORMER "Cheryl Lynn"
INDEX 01 00:00:00
FILE "0013.Barbara Mason - From His Woman To You.flac" WAVE
TRACK 13 AUDIO
TITLE "From His Woman To You"
PERFORMER "Barbara Mason"
INDEX 01 00:00:00
FILE "0014.Jackie Moore - Personally.flac" WAVE
TRACK 14 AUDIO
TITLE "Personally"
PERFORMER "Jackie Moore"
INDEX 01 00:00:00
FILE "0015.Phoebe Snow - Every Night.flac" WAVE
TRACK 15 AUDIO
TITLE "Every Night"
PERFORMER "Phoebe Snow"
INDEX 01 00:00:00
FILE "0016.Cherrelle & Alexander O'Neal - Saturday Love.flac" WAVE
TRACK 16 AUDIO
TITLE "Saturday Love"
PERFORMER "Cherrelle & Alexander O'Neal"
INDEX 01 00:00:00
FILE "0017.Pointer Sisters - I Need You.flac" WAVE
TRACK 17 AUDIO
TITLE "I Need You"
PERFORMER "Pointer Sisters"
INDEX 01 00:00:00
FILE "0018.Freddie Scott - Are You Lonely For Me Baby.flac" WAVE
TRACK 18 AUDIO
TITLE "Are You Lonely For Me Baby"
PERFORMER "Freddie Scott"
INDEX 01 00:00:00
FILE "0019.The Tymes - People.flac" WAVE
TRACK 19 AUDIO
TITLE "People"
PERFORMER "The Tymes"
INDEX 01 00:00:00
FILE "0020.General Johnson - Don't Walk Away.flac" WAVE
TRACK 20 AUDIO
TITLE "Don't Walk Away"
PERFORMER "General Johnson"
INDEX 01 00:00:00
 
Disc - 03
 
Tracklist:
01.Marvin Gaye - 'Til Tomorrow - 00:05:00
02.Luther Vandross - Here And Now - 00:05:24
03.Johnny Nash - I Can See Clearly Now - 00:02:42
04.The Emotions - Don't Ask My Neighbours - 00:04:28
05.O'Jays - Backstabbers - 00:03:05
06.Chairmen Of The Board - Give Me Just A Little More Time - 00:02:40
07.Earth, Wind & Fire - Can't Hide Love - 00:04:09
08.The Drifters - Like Sister And Brother - 00:03:22
09.The Delfonics - La-La [Means I Love You] - 00:03:18
10.Average White Band - A Love Of Your Own - 00:05:35
11.Heatwave - Always And Forever - 00:04:50
12.Bobby Womack - How Could You Break My Heart - 00:05:18
13.Odyssey - If You're Lookin' For A Way Out - 00:04:30
14.Lou Rawls - Lady Love - 00:04:02
15.Robert Knight - Love On A Mountain Top - 00:02:23
16.Jeff Perry - Love Don't Come No Stronger - 00:03:20
17.Gary Puckett - Lady Willpower - 00:02:47
18.Herb Ward - Honest To Goodness - 00:02:49
19.James & Bobby Purify - I'm Your Puppet - 00:02:58
20.Johnny Mathis - I'm Stone In Love With You - 00:03:31
Playing Time - 01:16:21
 
Лог создания рипа
Exact Audio Copy V1.1 from 23. June 2015
EAC extraction logfile from 27. October 2016, 23:37
Various / 100 Hits Ultimate Soul - Disc - 03
Used drive : HL-DT-STDVDRAM GSA-E40N Adapter: 1 ID: 1
Read mode : Secure
Utilize accurate stream : Yes
Defeat audio cache : No
Make use of C2 pointers : Yes
Read offset correction : 667
Overread into Lead-In and Lead-Out : No
Fill up missing offset samples with silence : Yes
Delete leading and trailing silent blocks : No
Null samples used in CRC calculations : Yes
Used interface : Native Win32 interface for Win NT & 2000
Gap handling : Not detected, thus appended to previous track
Used output format : User Defined Encoder
Selected bitrate : 768 kBit/s
Quality : High
Add ID3 tag : No
Command line compressor : C:\Program Files (x86)\Exact Audio Copy\FLAC\FLAC.EXE
Additional command line options : -6 -V -T "ARTIST=%artist%" -T "TITLE=%title%" -T "ALBUM=%albumtitle%" -T "DATE=%year%" -T "TRACKNUMBER=%tracknr%" -T "GENRE=%genre%" -T "COMMENT=%comment%" -T "BAND=%albuminterpret%" -T "ALBUMARTIST=%albuminterpret%" -T "COMPOSER=%composer%" %haslyrics%--tag-from-file=LYRICS="%lyricsfile%"%haslyrics% -T "DISCNUMBER=%cdnumber%" -T "TOTALDISCS=%totalcds%" -T "TOTALTRACKS=%numtracks%" %hascover%--picture="%coverfile%"%hascover% %source% -o %dest%
TOC of the extracted CD
Track | Start | Length | Start sector | End sector
---------------------------------------------------------
1 | 0:00.00 | 5:00.57 | 0 | 22556
2 | 5:00.57 | 5:24.24 | 22557 | 46880
3 | 10:25.06 | 2:42.01 | 46881 | 59031
4 | 13:07.07 | 4:28.04 | 59032 | 79135
5 | 17:35.11 | 3:05.30 | 79136 | 93040
6 | 20:40.41 | 2:40.30 | 93041 | 105070
7 | 23:20.71 | 4:09.38 | 105071 | 123783
8 | 27:30.34 | 3:22.29 | 123784 | 138962
9 | 30:52.63 | 3:18.51 | 138963 | 153863
10 | 34:11.39 | 5:35.00 | 153864 | 178988
11 | 39:46.39 | 4:50.61 | 178989 | 200799
12 | 44:37.25 | 5:18.62 | 200800 | 224711
13 | 49:56.12 | 4:30.31 | 224712 | 244992
14 | 54:26.43 | 4:02.72 | 244993 | 263214
15 | 58:29.40 | 2:23.63 | 263215 | 274002
16 | 60:53.28 | 3:20.17 | 274003 | 289019
17 | 64:13.45 | 2:47.72 | 289020 | 301616
18 | 67:01.42 | 2:49.29 | 301617 | 314320
19 | 69:50.71 | 2:58.66 | 314321 | 327736
20 | 72:49.62 | 3:31.47 | 327737 | 343608
Track 1
Filename F:\FLAC MUSIC\MOTOWN\100 Hits - Ultimate Soul\100HitsUS - Disc - 03\01.Marvin Gaye - 'Til Tomorrow.wav
Peak level 99.4 %
Extraction speed 4.7 X
Track quality 99.0 %
Copy CRC A09DC7E8
Accurately ripped (confidence 3) [4A04BEE1] (AR v2)
Copy OK
Track 2
Filename F:\FLAC MUSIC\MOTOWN\100 Hits - Ultimate Soul\100HitsUS - Disc - 03\02.Luther Vandross - Here And Now.wav
Peak level 99.4 %
Extraction speed 9.2 X
Track quality 99.4 %
Copy CRC F6D4FE9D
Accurately ripped (confidence 3) [CC398564] (AR v2)
Copy OK
Track 3
Filename F:\FLAC MUSIC\MOTOWN\100 Hits - Ultimate Soul\100HitsUS - Disc - 03\03.Johnny Nash - I Can See Clearly Now.wav
Peak level 99.4 %
Extraction speed 19.2 X
Track quality 100.0 %
Copy CRC F2115898
Accurately ripped (confidence 3) [3DA3E331] (AR v2)
Copy OK
Track 4
Filename F:\FLAC MUSIC\MOTOWN\100 Hits - Ultimate Soul\100HitsUS - Disc - 03\04.The Emotions - Don't Ask My Neighbours.wav
Peak level 99.4 %
Extraction speed 19.8 X
Track quality 99.9 %
Copy CRC 6902ECE7
Accurately ripped (confidence 3) [24A56E68] (AR v2)
Copy OK
Track 5
Filename F:\FLAC MUSIC\MOTOWN\100 Hits - Ultimate Soul\100HitsUS - Disc - 03\05.O'Jays - Backstabbers.wav
Peak level 99.4 %
Extraction speed 21.7 X
Track quality 100.0 %
Copy CRC FE41EBED
Accurately ripped (confidence 3) [5F279A8F] (AR v2)
Copy OK
Track 6
Filename F:\FLAC MUSIC\MOTOWN\100 Hits - Ultimate Soul\100HitsUS - Disc - 03\06.Chairmen Of The Board - Give Me Just A Little More Time.wav
Peak level 85.6 %
Extraction speed 25.8 X
Track quality 100.0 %
Copy CRC 9783A843
Accurately ripped (confidence 3) [B5FDCC12] (AR v2)
Copy OK
Track 7
Filename F:\FLAC MUSIC\MOTOWN\100 Hits - Ultimate Soul\100HitsUS - Disc - 03\07.Earth, Wind & Fire - Can't Hide Love.wav
Peak level 97.1 %
Extraction speed 23.4 X
Track quality 99.9 %
Copy CRC BBD07FA4
Accurately ripped (confidence 3) [FAE5CAFA] (AR v2)
Copy OK
Track 8
Filename F:\FLAC MUSIC\MOTOWN\100 Hits - Ultimate Soul\100HitsUS - Disc - 03\08.The Drifters - Like Sister And Brother.wav
Peak level 99.4 %
Extraction speed 27.0 X
Track quality 100.0 %
Copy CRC 03FA0CDC
Accurately ripped (confidence 3) [291005D2] (AR v2)
Copy OK
Track 9
Filename F:\FLAC MUSIC\MOTOWN\100 Hits - Ultimate Soul\100HitsUS - Disc - 03\09.The Delfonics - La-La [Means I Love You].wav
Peak level 99.4 %
Extraction speed 25.8 X
Track quality 100.0 %
Copy CRC 03525CFD
Accurately ripped (confidence 3) [A9084DF0] (AR v2)
Copy OK
Track 10
Filename F:\FLAC MUSIC\MOTOWN\100 Hits - Ultimate Soul\100HitsUS - Disc - 03\10.Average White Band - A Love Of Your Own.wav
Peak level 99.4 %
Extraction speed 30.3 X
Track quality 100.0 %
Copy CRC 90C921CE
Accurately ripped (confidence 3) [50F1C78C] (AR v2)
Copy OK
Track 11
Filename F:\FLAC MUSIC\MOTOWN\100 Hits - Ultimate Soul\100HitsUS - Disc - 03\11.Heatwave - Always And Forever.wav
Peak level 99.4 %
Extraction speed 28.7 X
Track quality 100.0 %
Copy CRC 3AE964B6
Accurately ripped (confidence 3) [AFC40C6D] (AR v2)
Copy OK
Track 12
Filename F:\FLAC MUSIC\MOTOWN\100 Hits - Ultimate Soul\100HitsUS - Disc - 03\12.Bobby Womack - How Could You Break My Heart.wav
Peak level 99.4 %
Extraction speed 29.8 X
Track quality 100.0 %
Copy CRC 3AFB5C5F
Accurately ripped (confidence 3) [045BAA8F] (AR v2)
Copy OK
Track 13
Filename F:\FLAC MUSIC\MOTOWN\100 Hits - Ultimate Soul\100HitsUS - Disc - 03\13.Odyssey - If You're Lookin' For A Way Out.wav
Peak level 99.4 %
Extraction speed 30.9 X
Track quality 100.0 %
Copy CRC 3EADA822
Accurately ripped (confidence 3) [BB821834] (AR v2)
Copy OK
Track 14
Filename F:\FLAC MUSIC\MOTOWN\100 Hits - Ultimate Soul\100HitsUS - Disc - 03\14.Lou Rawls - Lady Love.wav
Peak level 99.4 %
Extraction speed 30.4 X
Track quality 100.0 %
Copy CRC D12E5D61
Accurately ripped (confidence 3) [3B88F138] (AR v2)
Copy OK
Track 15
Filename F:\FLAC MUSIC\MOTOWN\100 Hits - Ultimate Soul\100HitsUS - Disc - 03\15.Robert Knight - Love On A Mountain Top.wav
Peak level 97.1 %
Extraction speed 34.7 X
Track quality 100.0 %
Copy CRC A7ACF23A
Accurately ripped (confidence 3) [2CB4CFEF] (AR v2)
Copy OK
Track 16
Filename F:\FLAC MUSIC\MOTOWN\100 Hits - Ultimate Soul\100HitsUS - Disc - 03\16.Jeff Perry - Love Don't Come No Stronger.wav
Peak level 99.4 %
Extraction speed 37.0 X
Track quality 100.0 %
Copy CRC A3698F95
Accurately ripped (confidence 3) [D3E654A6] (AR v2)
Copy OK
Track 17
Filename F:\FLAC MUSIC\MOTOWN\100 Hits - Ultimate Soul\100HitsUS - Disc - 03\17.Gary Puckett - Lady Willpower.wav
Peak level 99.4 %
Extraction speed 36.8 X
Track quality 100.0 %
Copy CRC 174EB4EC
Accurately ripped (confidence 3) [1E4F9BA2] (AR v2)
Copy OK
Track 18
Filename F:\FLAC MUSIC\MOTOWN\100 Hits - Ultimate Soul\100HitsUS - Disc - 03\18.Herb Ward - Honest To Goodness.wav
Peak level 93.8 %
Extraction speed 31.4 X
Track quality 100.0 %
Copy CRC 11B58D16
Accurately ripped (confidence 3) [F8A683DC] (AR v2)
Copy OK
Track 19
Filename F:\FLAC MUSIC\MOTOWN\100 Hits - Ultimate Soul\100HitsUS - Disc - 03\19.James & Bobby Purify - I'm Your Puppet.wav
Peak level 99.4 %
Extraction speed 37.9 X
Track quality 100.0 %
Copy CRC EA56EDFC
Accurately ripped (confidence 3) [E7131535] (AR v2)
Copy OK
Track 20
Filename F:\FLAC MUSIC\MOTOWN\100 Hits - Ultimate Soul\100HitsUS - Disc - 03\20.Johnny Mathis - I'm Stone In Love With You.wav
Peak level 99.4 %
Extraction speed 38.8 X
Track quality 99.8 %
Copy CRC 10F20030
Accurately ripped (confidence 3) [CD9D2BE6] (AR v2)
Copy OK
All tracks accurately ripped
No errors occurred
End of status report
---- CUETools DB Plugin V2.1.6
[CTDB TOCID: kDj04lUbmB1xRQpQXdLAe2eX4lE-] found
Submit result: kDj04lUbmB1xRQpQXdLAe2eX4lE- has been confirmed
Track | CTDB Status
1 | (7/7) Accurately ripped
2 | (7/7) Accurately ripped
3 | (7/7) Accurately ripped
4 | (7/7) Accurately ripped
5 | (7/7) Accurately ripped
6 | (7/7) Accurately ripped
7 | (7/7) Accurately ripped
8 | (7/7) Accurately ripped
9 | (7/7) Accurately ripped
10 | (7/7) Accurately ripped
11 | (7/7) Accurately ripped
12 | (7/7) Accurately ripped
13 | (7/7) Accurately ripped
14 | (7/7) Accurately ripped
15 | (7/7) Accurately ripped
16 | (7/7) Accurately ripped
17 | (7/7) Accurately ripped
18 | (7/7) Accurately ripped
19 | (7/7) Accurately ripped
20 | (7/7) Accurately ripped
 
Содержание индексной карты (.CUE)
REM GENRE Soul
REM DATE 2016
REM DISCID 2C11E514
REM COMMENT "ExactAudioCopy v1.1"
PERFORMER "Various"
TITLE "100 Hits Ultimate Soul - Disc - 03"
FILE "0001.Marvin Gaye - 'Til Tomorrow.flac" WAVE
TRACK 01 AUDIO
TITLE "'Til Tomorrow"
PERFORMER "Marvin Gaye"
INDEX 01 00:00:00
FILE "0002.Luther Vandross - Here And Now.flac" WAVE
TRACK 02 AUDIO
TITLE "Here And Now"
PERFORMER "Luther Vandross"
INDEX 01 00:00:00
FILE "0003.Johnny Nash - I Can See Clearly Now.flac" WAVE
TRACK 03 AUDIO
TITLE "I Can See Clearly Now"
PERFORMER "Johnny Nash"
INDEX 01 00:00:00
FILE "0004.The Emotions - Don't Ask My Neighbours.flac" WAVE
TRACK 04 AUDIO
TITLE "Don't Ask My Neighbours"
PERFORMER "The Emotions"
INDEX 01 00:00:00
FILE "0005.O'Jays - Backstabbers.flac" WAVE
TRACK 05 AUDIO
TITLE "Backstabbers"
PERFORMER "O'Jays"
INDEX 01 00:00:00
FILE "0006.Chairmen Of The Board - Give Me Just A Little More Time.flac" WAVE
TRACK 06 AUDIO
TITLE "Give Me Just A Little More Time"
PERFORMER "Chairmen Of The Board"
INDEX 01 00:00:00
FILE "0007.Earth, Wind & Fire - Can't Hide Love.flac" WAVE
TRACK 07 AUDIO
TITLE "Can't Hide Love"
PERFORMER "Earth, Wind & Fire"
INDEX 01 00:00:00
FILE "0008.The Drifters - Like Sister And Brother.flac" WAVE
TRACK 08 AUDIO
TITLE "Like Sister And Brother"
PERFORMER "The Drifters"
INDEX 01 00:00:00
FILE "0009.The Delfonics - La-La [Means I Love You].flac" WAVE
TRACK 09 AUDIO
TITLE "La-La [Means I Love You]"
PERFORMER "The Delfonics"
INDEX 01 00:00:00
FILE "0010.Average White Band - A Love Of Your Own.flac" WAVE
TRACK 10 AUDIO
TITLE "A Love Of Your Own"
PERFORMER "Average White Band"
INDEX 01 00:00:00
FILE "0011.Heatwave - Always And Forever.flac" WAVE
TRACK 11 AUDIO
TITLE "Always And Forever"
PERFORMER "Heatwave"
INDEX 01 00:00:00
FILE "0012.Bobby Womack - How Could You Break My Heart.flac" WAVE
TRACK 12 AUDIO
TITLE "How Could You Break My Heart"
PERFORMER "Bobby Womack"
INDEX 01 00:00:00
FILE "0013.Odyssey - If You're Lookin' For A Way Out.flac" WAVE
TRACK 13 AUDIO
TITLE "If You're Lookin' For A Way Out"
PERFORMER "Odyssey"
INDEX 01 00:00:00
FILE "0014.Lou Rawls - Lady Love.flac" WAVE
TRACK 14 AUDIO
TITLE "Lady Love"
PERFORMER "Lou Rawls"
INDEX 01 00:00:00
FILE "0015.Robert Knight - Love On A Mountain Top.flac" WAVE
TRACK 15 AUDIO
TITLE "Love On A Mountain Top"
PERFORMER "Robert Knight"
INDEX 01 00:00:00
FILE "0016.Jeff Perry - Love Don't Come No Stronger.flac" WAVE
TRACK 16 AUDIO
TITLE "Love Don't Come No Stronger"
PERFORMER "Jeff Perry"
INDEX 01 00:00:00
FILE "0017.Gary Puckett - Lady Willpower.flac" WAVE
TRACK 17 AUDIO
TITLE "Lady Willpower"
PERFORMER "Gary Puckett"
INDEX 01 00:00:00
FILE "0018.Herb Ward - Honest To Goodness.flac" WAVE
TRACK 18 AUDIO
TITLE "Honest To Goodness"
PERFORMER "Herb Ward"
INDEX 01 00:00:00
FILE "0019.James & Bobby Purify - I'm Your Puppet.flac" WAVE
TRACK 19 AUDIO
TITLE "I'm Your Puppet"
PERFORMER "James & Bobby Purify"
INDEX 01 00:00:00
FILE "0020.Johnny Mathis - I'm Stone In Love With You.flac" WAVE
TRACK 20 AUDIO
TITLE "I'm Stone In Love With You"
PERFORMER "Johnny Mathis"
INDEX 01 00:00:00
 
Disc - 04
 
Tracklist:
01.Bill Withers - Lean On Me - 00:04:19
02.Cassius Clay - Stand By Me - 00:02:13
03.Alexander O'Neal - A Broken Heart Can Mend - 00:03:44
04.Gary Puckett & The Union Gap - Young Girl - 00:03:04
05.The Peddlers - Girlie - 00:06:33
06.Ray Parker Jr. & Raydio - Jack And Jill - 00:04:36
07.Ronnie Dyson - When You Get Right Down To It - 00:02:47
08.Teddy Pendergrass - Love TKO - 00:05:00
09.The Emotions - Flowers - 00:04:30
10.Lou Rawls - You'll Never Find Another Love Like Mine - 00:03:35
11.The Manhattans - Kiss And Say Goodbye - 00:04:27
12.Robert Knight - Everlasting Love - 00:03:00
13.The Vibrations - Gonna Get Along Without You Now - 00:02:10
14.Ronnie Dyson - If You Let Me Make Love To You Then - 00:03:25
15.Chairmen Of The Board - You're Got Me Dangling On A String - 00:02:58
16.Average White Band - Queen Of My Soul - 00:06:05
17.Gene Chandler - Does She Have A Friend! - 00:04:13
18.Holland Dozier Ft. Lamount Dozier - Why Can't We Be Lovers - 00:04:04
19.Little Richard - I Don't Want To Discuss It - 00:02:17
20.Steve Shelto - Don't Give Your Love Away - 00:03:22
Playing Time - 01:16:32
 
Лог создания рипа
Exact Audio Copy V1.1 from 23. June 2015
EAC extraction logfile from 28. October 2016, 1:01
Various / 100 Hits Ultimate Soul - Disc - 04
Used drive : HL-DT-STDVDRAM GSA-E40N Adapter: 1 ID: 1
Read mode : Secure
Utilize accurate stream : Yes
Defeat audio cache : No
Make use of C2 pointers : Yes
Read offset correction : 667
Overread into Lead-In and Lead-Out : No
Fill up missing offset samples with silence : Yes
Delete leading and trailing silent blocks : No
Null samples used in CRC calculations : Yes
Used interface : Native Win32 interface for Win NT & 2000
Gap handling : Not detected, thus appended to previous track
Used output format : User Defined Encoder
Selected bitrate : 768 kBit/s
Quality : High
Add ID3 tag : No
Command line compressor : C:\Program Files (x86)\Exact Audio Copy\FLAC\FLAC.EXE
Additional command line options : -6 -V -T "ARTIST=%artist%" -T "TITLE=%title%" -T "ALBUM=%albumtitle%" -T "DATE=%year%" -T "TRACKNUMBER=%tracknr%" -T "GENRE=%genre%" -T "COMMENT=%comment%" -T "BAND=%albuminterpret%" -T "ALBUMARTIST=%albuminterpret%" -T "COMPOSER=%composer%" %haslyrics%--tag-from-file=LYRICS="%lyricsfile%"%haslyrics% -T "DISCNUMBER=%cdnumber%" -T "TOTALDISCS=%totalcds%" -T "TOTALTRACKS=%numtracks%" %hascover%--picture="%coverfile%"%hascover% %source% -o %dest%
TOC of the extracted CD
Track | Start | Length | Start sector | End sector
---------------------------------------------------------
1 | 0:00.00 | 4:19.32 | 0 | 19456
2 | 4:19.32 | 2:13.19 | 19457 | 29450
3 | 6:32.51 | 3:44.15 | 29451 | 46265
4 | 10:16.66 | 3:04.19 | 46266 | 60084
5 | 13:21.10 | 6:33.47 | 60085 | 89606
6 | 19:54.57 | 4:36.29 | 89607 | 110335
7 | 24:31.11 | 2:47.30 | 110336 | 122890
8 | 27:18.41 | 5:00.15 | 122891 | 145405
9 | 32:18.56 | 4:30.35 | 145406 | 165690
10 | 36:49.16 | 3:35.62 | 165691 | 181877
11 | 40:25.03 | 4:27.13 | 181878 | 201915
12 | 44:52.16 | 3:00.53 | 201916 | 215468
13 | 47:52.69 | 2:10.73 | 215469 | 225291
14 | 50:03.67 | 3:25.55 | 225292 | 240721
15 | 53:29.47 | 2:58.70 | 240722 | 254141
16 | 56:28.42 | 6:05.01 | 254142 | 281517
17 | 62:33.43 | 4:13.68 | 281518 | 300560
18 | 66:47.36 | 4:04.47 | 300561 | 318907
19 | 70:52.08 | 2:17.28 | 318908 | 329210
20 | 73:09.36 | 3:22.60 | 329211 | 344420
Track 1
Filename F:\FLAC MUSIC\MOTOWN\100 Hits - Ultimate Soul\100HitsUS - Disc - 04\01.Bill Withers - Lean On Me.wav
Peak level 99.4 %
Extraction speed 4.6 X
Track quality 100.0 %
Copy CRC 7BBF412E
Accurately ripped (confidence 3) [65461D6E] (AR v2)
Copy OK
Track 2
Filename F:\FLAC MUSIC\MOTOWN\100 Hits - Ultimate Soul\100HitsUS - Disc - 04\02.Cassius Clay - Stand By Me.wav
Peak level 99.4 %
Extraction speed 5.0 X
Track quality 100.0 %
Copy CRC EB4C5834
Accurately ripped (confidence 3) [9BEDA3D5] (AR v2)
Copy OK
Track 3
Filename F:\FLAC MUSIC\MOTOWN\100 Hits - Ultimate Soul\100HitsUS - Disc - 04\03.Alexander O'Neal - A Broken Heart Can Mend.wav
Peak level 96.6 %
Extraction speed 4.9 X
Track quality 100.0 %
Copy CRC 40B22F9A
Accurately ripped (confidence 3) [AD3370DE] (AR v2)
Copy OK
Track 4
Filename F:\FLAC MUSIC\MOTOWN\100 Hits - Ultimate Soul\100HitsUS - Disc - 04\04.Gary Puckett & The Union Gap - Young Girl.wav
Peak level 99.4 %
Extraction speed 5.7 X
Track quality 100.0 %
Copy CRC 3D6FAE37
Accurately ripped (confidence 3) [63D94C82] (AR v2)
Copy OK
Track 5
Filename F:\FLAC MUSIC\MOTOWN\100 Hits - Ultimate Soul\100HitsUS - Disc - 04\05.The Peddlers - Girlie.wav
Suspicious position 0:00:25
Peak level 99.4 %
Extraction speed 2.3 X
Track quality 98.7 %
Copy CRC 11C71E52
Cannot be verified as accurate (confidence 3) [870E24DB], AccurateRip returned [600E3519] (AR v2)
Copy finished
Track 6
Filename F:\FLAC MUSIC\MOTOWN\100 Hits - Ultimate Soul\100HitsUS - Disc - 04\06.Ray Parker Jr. & Raydio - Jack And Jill.wav
Peak level 84.6 %
Extraction speed 5.7 X
Track quality 99.9 %
Copy CRC 8ABB9462
Accurately ripped (confidence 3) [47E2B71C] (AR v2)
Copy OK
Track 7
Filename F:\FLAC MUSIC\MOTOWN\100 Hits - Ultimate Soul\100HitsUS - Disc - 04\07.Ronnie Dyson - When You Get Right Down To It.wav
Suspicious position 0:02:45
Peak level 99.4 %
Extraction speed 4.2 X
Track quality 99.3 %
Copy CRC 159E9CB3
Cannot be verified as accurate (confidence 3) [C3E1E81C], AccurateRip returned [1A78E8FA] (AR v2)
Copy finished
Track 8
Filename F:\FLAC MUSIC\MOTOWN\100 Hits - Ultimate Soul\100HitsUS - Disc - 04\08.Teddy Pendergrass - Love TKO.wav
Peak level 99.4 %
Extraction speed 7.2 X
Track quality 100.0 %
Copy CRC 962F7B3D
Accurately ripped (confidence 3) [933972C1] (AR v2)
Copy OK
Track 9
Filename F:\FLAC MUSIC\MOTOWN\100 Hits - Ultimate Soul\100HitsUS - Disc - 04\09.The Emotions - Flowers.wav
Peak level 99.4 %
Extraction speed 4.2 X
Track quality 99.4 %
Copy CRC 902054CA
Cannot be verified as accurate (confidence 3) [10A8AD46], AccurateRip returned [1F54B0EC] (AR v2)
Copy OK
Track 10
Filename F:\FLAC MUSIC\MOTOWN\100 Hits - Ultimate Soul\100HitsUS - Disc - 04\10.Lou Rawls - You'll Never Find Another Love Like Mine.wav
Peak level 96.0 %
Extraction speed 7.9 X
Track quality 100.0 %
Copy CRC 85D1A8E5
Accurately ripped (confidence 3) [4D85779C] (AR v2)
Copy OK
Track 11
Filename F:\FLAC MUSIC\MOTOWN\100 Hits - Ultimate Soul\100HitsUS - Disc - 04\11.The Manhattans - Kiss And Say Goodbye.wav
Suspicious position 0:00:08
Suspicious position 0:01:52
Suspicious position 0:04:24
Peak level 92.7 %
Extraction speed 1.3 X
Track quality 97.1 %
Copy CRC E66D5A41
Cannot be verified as accurate (confidence 3) [1BB45ED4], AccurateRip returned [D217B78A] (AR v2)
Copy finished
Track 12
Filename F:\FLAC MUSIC\MOTOWN\100 Hits - Ultimate Soul\100HitsUS - Disc - 04\12.Robert Knight - Everlasting Love.wav
Peak level 97.1 %
Extraction speed 1.7 X
Track quality 97.7 %
Copy CRC 2B01CCB6
Cannot be verified as accurate (confidence 3) [0C5EF910], AccurateRip returned [463C6735] (AR v2)
Copy OK
Track 13
Filename F:\FLAC MUSIC\MOTOWN\100 Hits - Ultimate Soul\100HitsUS - Disc - 04\13.The Vibrations - Gonna Get Along Without You Now.wav
Suspicious position 0:02:08
Peak level 89.6 %
Extraction speed 3.4 X
Track quality 98.6 %
Copy CRC 9E11FD4D
Cannot be verified as accurate (confidence 3) [9F04BD48], AccurateRip returned [B25353D2] (AR v2)
Copy finished
Track 14
Filename F:\FLAC MUSIC\MOTOWN\100 Hits - Ultimate Soul\100HitsUS - Disc - 04\14.Ronnie Dyson - If You Let Me Make Love To You Then.wav
Peak level 89.6 %
Extraction speed 5.1 X
Track quality 99.4 %
Copy CRC CBEBD7FF
Cannot be verified as accurate (confidence 3) [717486F9], AccurateRip returned [687EA41A] (AR v2)
Copy OK
Track 15
Filename F:\FLAC MUSIC\MOTOWN\100 Hits - Ultimate Soul\100HitsUS - Disc - 04\15.Chairmen Of The Board - You're Got Me Dangling On A String.wav
Peak level 84.6 %
Extraction speed 4.6 X
Track quality 99.2 %
Copy CRC DFB84D99
Accurately ripped (confidence 3) [EF45F53B] (AR v2)
Copy OK
Track 16
Filename F:\FLAC MUSIC\MOTOWN\100 Hits - Ultimate Soul\100HitsUS - Disc - 04\16.Average White Band - Queen Of My Soul.wav
Peak level 88.6 %
Extraction speed 6.9 X
Track quality 99.7 %
Copy CRC AB4073CD
Accurately ripped (confidence 3) [111576CD] (AR v2)
Copy OK
Track 17
Filename F:\FLAC MUSIC\MOTOWN\100 Hits - Ultimate Soul\100HitsUS - Disc - 04\17.Gene Chandler - Does She Have A Friend!.wav
Suspicious position 0:01:18
Suspicious position 0:04:11
Peak level 99.4 %
Extraction speed 2.5 X
Track quality 98.0 %
Copy CRC E82734F2
Cannot be verified as accurate (confidence 3) [445D4BE4], AccurateRip returned [7ACC3CE2] (AR v2)
Copy finished
Track 18
Filename F:\FLAC MUSIC\MOTOWN\100 Hits - Ultimate Soul\100HitsUS - Disc - 04\18.Holland Dozier Ft. Lamount Dozier - Why Can't We Be Lovers.wav
Peak level 96.0 %
Extraction speed 6.2 X
Track quality 99.5 %
Copy CRC 7080D5E4
Cannot be verified as accurate (confidence 3) [9F2E5047], AccurateRip returned [9738CD13] (AR v2)
Copy OK
Track 19
Filename F:\FLAC MUSIC\MOTOWN\100 Hits - Ultimate Soul\100HitsUS - Disc - 04\19.Little Richard - I Don't Want To Discuss It.wav
Peak level 86.5 %
Extraction speed 7.5 X
Track quality 99.8 %
Copy CRC EA657251
Accurately ripped (confidence 3) [B2A6EC7E] (AR v2)
Copy OK
Track 20
Filename F:\FLAC MUSIC\MOTOWN\100 Hits - Ultimate Soul\100HitsUS - Disc - 04\20.Steve Shelto - Don't Give Your Love Away.wav
Suspicious position 0:03:18 - 0:03:19
Peak level 89.6 %
Extraction speed 3.3 X
Track quality 98.3 %
Copy CRC E1B65437
Cannot be verified as accurate (confidence 3) [11C5B641], AccurateRip returned [B85F9084] (AR v2)
Copy finished
10 track(s) accurately ripped
10 track(s) could not be verified as accurate
Some tracks could not be verified as accurate
There were errors
End of status report
---- CUETools DB Plugin V2.1.6
[CTDB TOCID: x0um.zhKupiCtXDVRDBzzk9hWhA-] found
Submit result: x0um.zhKupiCtXDVRDBzzk9hWhA- has been submitted
Track | CTDB Status
1 | (7/7) Accurately ripped
2 | (7/7) Accurately ripped
3 | (7/7) Accurately ripped
4 | (7/7) Accurately ripped
5 | (7/7) Differs in 15 samples @00:17:13,00:26:00,02:31:29,05:19:73
6 | (7/7) Accurately ripped
7 | (7/7) Differs in 2 samples @02:45:15
8 | (7/7) Accurately ripped
9 | (7/7) Differs in 4 samples @00:48:60,01:08:43
10 | (7/7) Accurately ripped
11 | (7/7) Differs in 66 samples @00:08:25,01:41:11,01:52:02,02:34:13,03:38:70,04:12:07,04:23:31,04:24:41-04:24:42,04:24:48-04:24:53
12 | (7/7) Differs in 12 samples @00:02:44,00:29:46,00:45:24,02:56:30
13 | (7/7) Differs in 7 samples @02:05:64,02:08:68
14 | (7/7) Differs in 3 samples @01:03:07
15 | (7/7) Accurately ripped
16 | (7/7) Accurately ripped
17 | (7/7) Differs in 29 samples @01:18:14,01:47:14,04:10:57,04:11:17-04:11:20,04:11:31
18 | (7/7) Differs in 4 samples @00:52:60
19 | (7/7) Accurately ripped
20 | (7/7) Differs in 42 samples @01:41:08,03:09:45-03:09:46,03:18:48,03:18:69,03:19:03-03:19:08,03:19:45-03:19:51
If you are sure that your rip contains errors, you can use CUETools to repair it.
 
Содержание индексной карты (.CUE)
REM GENRE Soul
REM DATE 2016
REM DISCID 0D11F014
REM COMMENT "ExactAudioCopy v1.1"
PERFORMER "Various"
TITLE "100 Hits Ultimate Soul - Disc - 04"
FILE "0001.Bill Withers - Lean On Me.flac" WAVE
TRACK 01 AUDIO
TITLE "Lean On Me"
PERFORMER "Bill Withers"
INDEX 01 00:00:00
FILE "0002.Cassius Clay - Stand By Me.flac" WAVE
TRACK 02 AUDIO
TITLE "Stand By Me"
PERFORMER "Cassius Clay"
INDEX 01 00:00:00
FILE "0003.Alexander O'Neal - A Broken Heart Can Mend.flac" WAVE
TRACK 03 AUDIO
TITLE "A Broken Heart Can Mend"
PERFORMER "Alexander O'Neal"
INDEX 01 00:00:00
FILE "0004.Gary Puckett & The Union Gap - Young Girl.flac" WAVE
TRACK 04 AUDIO
TITLE "Young Girl"
PERFORMER "Gary Puckett & The Union Gap"
INDEX 01 00:00:00
FILE "0005.The Peddlers - Girlie.flac" WAVE
TRACK 05 AUDIO
TITLE "Girlie"
PERFORMER "The Peddlers"
INDEX 01 00:00:00
FILE "0006.Ray Parker Jr. & Raydio - Jack And Jill.flac" WAVE
TRACK 06 AUDIO
TITLE "Jack And Jill"
PERFORMER "Ray Parker Jr. & Raydio"
INDEX 01 00:00:00
FILE "0007.Ronnie Dyson - When You Get Right Down To It.flac" WAVE
TRACK 07 AUDIO
TITLE "When You Get Right Down To It"
PERFORMER "Ronnie Dyson"
INDEX 01 00:00:00
FILE "0008.Teddy Pendergrass - Love TKO.flac" WAVE
TRACK 08 AUDIO
TITLE "Love TKO"
PERFORMER "Teddy Pendergrass"
INDEX 01 00:00:00
FILE "0009.The Emotions - Flowers.flac" WAVE
TRACK 09 AUDIO
TITLE "Flowers"
PERFORMER "The Emotions"
INDEX 01 00:00:00
FILE "0010.Lou Rawls - You'll Never Find Another Love Like Mine.flac" WAVE
TRACK 10 AUDIO
TITLE "You'll Never Find Another Love Like Mine"
PERFORMER "Lou Rawls"
INDEX 01 00:00:00
FILE "0011.The Manhattans - Kiss And Say Goodbye.flac" WAVE
TRACK 11 AUDIO
TITLE "Kiss And Say Goodbye"
PERFORMER "The Manhattans"
INDEX 01 00:00:00
FILE "0012.Robert Knight - Everlasting Love.flac" WAVE
TRACK 12 AUDIO
TITLE "Everlasting Love"
PERFORMER "Robert Knight"
INDEX 01 00:00:00
FILE "0013.The Vibrations - Gonna Get Along Without You Now.flac" WAVE
TRACK 13 AUDIO
TITLE "Gonna Get Along Without You Now"
PERFORMER "The Vibrations"
INDEX 01 00:00:00
FILE "0014.Ronnie Dyson - If You Let Me Make Love To You Then.flac" WAVE
TRACK 14 AUDIO
TITLE "If You Let Me Make Love To You Then"
PERFORMER "Ronnie Dyson"
INDEX 01 00:00:00
FILE "0015.Chairmen Of The Board - You're Got Me Dangling On A String.flac" WAVE
TRACK 15 AUDIO
TITLE "You're Got Me Dangling On A String"
PERFORMER "Chairmen Of The Board"
INDEX 01 00:00:00
FILE "0016.Average White Band - Queen Of My Soul.flac" WAVE
TRACK 16 AUDIO
TITLE "Queen Of My Soul"
PERFORMER "Average White Band"
INDEX 01 00:00:00
FILE "0017.Gene Chandler - Does She Have A Friend!.flac" WAVE
TRACK 17 AUDIO
TITLE "Does She Have A Friend!"
PERFORMER "Gene Chandler"
INDEX 01 00:00:00
FILE "0018.Holland Dozier Ft. Lamount Dozier - Why Can't We Be Lovers.flac" WAVE
TRACK 18 AUDIO
TITLE "Why Can't We Be Lovers"
PERFORMER "Holland Dozier Ft. Lamount Dozier"
INDEX 01 00:00:00
FILE "0019.Little Richard - I Don't Want To Discuss It.flac" WAVE
TRACK 19 AUDIO
TITLE "I Don't Want To Discuss It"
PERFORMER "Little Richard"
INDEX 01 00:00:00
FILE "0020.Steve Shelto - Don't Give Your Love Away.flac" WAVE
TRACK 20 AUDIO
TITLE "Don't Give Your Love Away"
PERFORMER "Steve Shelto"
INDEX 01 00:00:00
 
Disc - 05
 
Tracklist:
01.Peaches & Herb - Let's Fall In Love - 00:02:39
02.Glady's Knight & The Pips - Part Time Love - 00:02:33
03.Aretha Franklin - Soulville - 00:02:21
04.Deniece Williams - Free - 00:02:49
05.Freda Payne - Deeper And Deeper - 00:03:02
06.The Ronettes - Baby I Love You - 00:02:53
07.Barbara Mason - Give Me Your Love - 00:03:00
08.Shirley Ellis - Soul Time - 00:02:39
09.Phyllis Hyman - You Know How To Love Me - 00:03:50
10.The Honeycone - Stick Up - 00:03:04
11.Pointer Sisters - Fire - 00:03:27
12.Cherrelle - I Didn't Mean To Turn You On - 00:04:00
13.The Three Degrees - A Toast Of Love - 00:03:43
14.Johnny Mathis - Too Much, Too Little, Too Late - 00:03:01
15.Tyrone Davis - Give It Up [Turn It Loose] - 00:04:19
16.Johnny Johnson And The Bandwagon - Sweet Inspiration - 00:03:06
17.The Tymes - Ms. Grace - 00:03:24
18.Stevie B - Because I Love You [The Postman Song] - 00:05:02
19.The Manhattans - Hurt - 00:03:05
20.The S.O.S. Band - The Finest - 00:04:44
Playing Time - 01:06:49
 
Лог создания рипа
Exact Audio Copy V1.1 from 23. June 2015
EAC extraction logfile from 28. October 2016, 2:07
Various / 100 Hits Ultimate Soul - Disc - 05
Used drive : HL-DT-STDVDRAM GSA-E40N Adapter: 1 ID: 1
Read mode : Secure
Utilize accurate stream : Yes
Defeat audio cache : No
Make use of C2 pointers : Yes
Read offset correction : 667
Overread into Lead-In and Lead-Out : No
Fill up missing offset samples with silence : Yes
Delete leading and trailing silent blocks : No
Null samples used in CRC calculations : Yes
Used interface : Native Win32 interface for Win NT & 2000
Gap handling : Not detected, thus appended to previous track
Used output format : User Defined Encoder
Selected bitrate : 768 kBit/s
Quality : High
Add ID3 tag : No
Command line compressor : C:\Program Files (x86)\Exact Audio Copy\FLAC\FLAC.EXE
Additional command line options : -6 -V -T "ARTIST=%artist%" -T "TITLE=%title%" -T "ALBUM=%albumtitle%" -T "DATE=%year%" -T "TRACKNUMBER=%tracknr%" -T "GENRE=%genre%" -T "COMMENT=%comment%" -T "BAND=%albuminterpret%" -T "ALBUMARTIST=%albuminterpret%" -T "COMPOSER=%composer%" %haslyrics%--tag-from-file=LYRICS="%lyricsfile%"%haslyrics% -T "DISCNUMBER=%cdnumber%" -T "TOTALDISCS=%totalcds%" -T "TOTALTRACKS=%numtracks%" %hascover%--picture="%coverfile%"%hascover% %source% -o %dest%
TOC of the extracted CD
Track | Start | Length | Start sector | End sector
---------------------------------------------------------
1 | 0:00.00 | 2:39.62 | 0 | 11986
2 | 2:39.62 | 2:33.41 | 11987 | 23502
3 | 5:13.28 | 2:21.39 | 23503 | 34116
4 | 7:34.67 | 2:49.73 | 34117 | 46864
5 | 10:24.65 | 3:02.37 | 46865 | 60551
6 | 13:27.27 | 2:53.07 | 60552 | 73533
7 | 16:20.34 | 3:00.28 | 73534 | 87061
8 | 19:20.62 | 2:39.48 | 87062 | 99034
9 | 22:00.35 | 3:50.17 | 99035 | 116301
10 | 25:50.52 | 3:04.08 | 116302 | 130109
11 | 28:54.60 | 3:27.10 | 130110 | 145644
12 | 32:21.70 | 4:00.38 | 145645 | 163682
13 | 36:22.33 | 3:43.05 | 163683 | 180412
14 | 40:05.38 | 3:01.20 | 180413 | 194007
15 | 43:06.58 | 4:19.43 | 194008 | 213475
16 | 47:26.26 | 3:06.18 | 213476 | 227443
17 | 50:32.44 | 3:24.64 | 227444 | 242807
18 | 53:57.33 | 5:02.17 | 242808 | 265474
19 | 58:59.50 | 3:05.26 | 265475 | 279375
20 | 62:05.01 | 4:44.46 | 279376 | 300721
Track 1
Filename F:\FLAC MUSIC\MOTOWN\100 Hits - Ultimate Soul\100HitsUS - Disc - 05\01.Peaches & Herb - Let's Fall In Love.wav
Peak level 99.4 %
Extraction speed 4.1 X
Track quality 100.0 %
Copy CRC 184DE084
Accurately ripped (confidence 3) [2632B4C7] (AR v2)
Copy OK
Track 2
Filename F:\FLAC MUSIC\MOTOWN\100 Hits - Ultimate Soul\100HitsUS - Disc - 05\02.Glady's Knight & The Pips - Part Time Love.wav
Peak level 92.7 %
Extraction speed 4.4 X
Track quality 100.0 %
Copy CRC AA8FDC2E
Accurately ripped (confidence 3) [74D64A8C] (AR v2)
Copy OK
Track 3
Filename F:\FLAC MUSIC\MOTOWN\100 Hits - Ultimate Soul\100HitsUS - Disc - 05\03.Aretha Franklin - Soulville.wav
Peak level 88.6 %
Extraction speed 5.2 X
Track quality 100.0 %
Copy CRC 85622F1C
Accurately ripped (confidence 3) [FEFC3392] (AR v2)
Copy OK
Track 4
Filename F:\FLAC MUSIC\MOTOWN\100 Hits - Ultimate Soul\100HitsUS - Disc - 05\04.Deniece Williams - Free.wav
Peak level 99.4 %
Extraction speed 5.5 X
Track quality 100.0 %
Copy CRC 739F5E79
Accurately ripped (confidence 3) [34EFE949] (AR v2)
Copy OK
Track 5
Filename F:\FLAC MUSIC\MOTOWN\100 Hits - Ultimate Soul\100HitsUS - Disc - 05\05.Freda Payne - Deeper And Deeper.wav
Peak level 93.4 %
Extraction speed 5.3 X
Track quality 100.0 %
Copy CRC 50B89561
Accurately ripped (confidence 3) [661AE7E3] (AR v2)
Copy OK
Track 6
Filename F:\FLAC MUSIC\MOTOWN\100 Hits - Ultimate Soul\100HitsUS - Disc - 05\06.The Ronettes - Baby I Love You.wav
Peak level 99.4 %
Extraction speed 5.0 X
Track quality 99.7 %
Copy CRC 0AACAACA
Accurately ripped (confidence 3) [7358CFCF] (AR v2)
Copy OK
Track 7
Filename F:\FLAC MUSIC\MOTOWN\100 Hits - Ultimate Soul\100HitsUS - Disc - 05\07.Barbara Mason - Give Me Your Love.wav
Peak level 97.1 %
Extraction speed 5.8 X
Track quality 99.8 %
Copy CRC 420D0503
Accurately ripped (confidence 3) [AE91DC20] (AR v2)
Copy OK
Track 8
Filename F:\FLAC MUSIC\MOTOWN\100 Hits - Ultimate Soul\100HitsUS - Disc - 05\08.Shirley Ellis - Soul Time.wav
Peak level 78.2 %
Extraction speed 5.9 X
Track quality 99.8 %
Copy CRC 67D19EDC
Accurately ripped (confidence 3) [C0D1F626] (AR v2)
Copy OK
Track 9
Filename F:\FLAC MUSIC\MOTOWN\100 Hits - Ultimate Soul\100HitsUS - Disc - 05\09.Phyllis Hyman - You Know How To Love Me.wav
Peak level 91.7 %
Extraction speed 6.5 X
Track quality 100.0 %
Copy CRC 0A170BDB
Accurately ripped (confidence 3) [C7E02183] (AR v2)
Copy OK
Track 10
Filename F:\FLAC MUSIC\MOTOWN\100 Hits - Ultimate Soul\100HitsUS - Disc - 05\10.The Honeycone - Stick Up.wav
Peak level 96.0 %
Extraction speed 6.6 X
Track quality 100.0 %
Copy CRC 33B4B661
Accurately ripped (confidence 3) [7A9318AF] (AR v2)
Copy OK
Track 11
Filename F:\FLAC MUSIC\MOTOWN\100 Hits - Ultimate Soul\100HitsUS - Disc - 05\11.Pointer Sisters - Fire.wav
Peak level 99.4 %
Extraction speed 6.9 X
Track quality 99.8 %
Copy CRC 8CCDD698
Accurately ripped (confidence 3) [5DCF48E5] (AR v2)
Copy OK
Track 12
Filename F:\FLAC MUSIC\MOTOWN\100 Hits - Ultimate Soul\100HitsUS - Disc - 05\12.Cherrelle - I Didn't Mean To Turn You On.wav
Peak level 99.4 %
Extraction speed 7.2 X
Track quality 99.9 %
Copy CRC 77EB06C3
Accurately ripped (confidence 3) [E41D2A8F] (AR v2)
Copy OK
Track 13
Filename F:\FLAC MUSIC\MOTOWN\100 Hits - Ultimate Soul\100HitsUS - Disc - 05\13.The Three Degrees - A Toast Of Love.wav
Peak level 99.4 %
Extraction speed 7.6 X
Track quality 99.9 %
Copy CRC 3A2FDC62
Accurately ripped (confidence 3) [BC9F296F] (AR v2)
Copy OK
Track 14
Filename F:\FLAC MUSIC\MOTOWN\100 Hits - Ultimate Soul\100HitsUS - Disc - 05\14.Johnny Mathis - Too Much, Too Little, Too Late.wav
Peak level 91.7 %
Extraction speed 7.6 X
Track quality 100.0 %
Copy CRC A5DDD502
Accurately ripped (confidence 3) [665F91CE] (AR v2)
Copy OK
Track 15
Filename F:\FLAC MUSIC\MOTOWN\100 Hits - Ultimate Soul\100HitsUS - Disc - 05\15.Tyrone Davis - Give It Up [Turn It Loose].wav
Peak level 99.4 %
Extraction speed 5.0 X
Track quality 99.4 %
Copy CRC 1C747F2B
Cannot be verified as accurate (confidence 3) [6C5DD7CF], AccurateRip returned [510C363C] (AR v2)
Copy OK
Track 16
Filename F:\FLAC MUSIC\MOTOWN\100 Hits - Ultimate Soul\100HitsUS - Disc - 05\16.Johnny Johnson And The Bandwagon - Sweet Inspiration.wav
Peak level 96.6 %
Extraction speed 7.1 X
Track quality 99.7 %
Copy CRC 27C0BE2B
Accurately ripped (confidence 3) [858BCD42] (AR v2)
Copy OK
Track 17
Filename F:\FLAC MUSIC\MOTOWN\100 Hits - Ultimate Soul\100HitsUS - Disc - 05\17.The Tymes - Ms. Grace.wav
Suspicious position 0:03:21
Peak level 85.0 %
Extraction speed 5.1 X
Track quality 99.1 %
Copy CRC 8C89BF50
Cannot be verified as accurate (confidence 3) [98432D06], AccurateRip returned [37B44D75] (AR v2)
Copy finished
Track 18
Filename F:\FLAC MUSIC\MOTOWN\100 Hits - Ultimate Soul\100HitsUS - Disc - 05\18.Stevie B - Because I Love You [The Postman Song].wav
Peak level 99.4 %
Extraction speed 7.3 X
Track quality 99.7 %
Copy CRC 65DFF1A1
Accurately ripped (confidence 3) [ADB14B07] (AR v2)
Copy OK
Track 19
Filename F:\FLAC MUSIC\MOTOWN\100 Hits - Ultimate Soul\100HitsUS - Disc - 05\19.The Manhattans - Hurt.wav
Peak level 99.4 %
Extraction speed 8.7 X
Track quality 100.0 %
Copy CRC 4CE142A0
Accurately ripped (confidence 3) [61FC518D] (AR v2)
Copy OK
Track 20
Filename F:\FLAC MUSIC\MOTOWN\100 Hits - Ultimate Soul\100HitsUS - Disc - 05\20.The S.O.S. Band - The Finest.wav
Peak level 97.1 %
Extraction speed 6.9 X
Track quality 99.6 %
Copy CRC 95BAD5C5
Accurately ripped (confidence 3) [AA1577FC] (AR v2)
Copy OK
18 track(s) accurately ripped
2 track(s) could not be verified as accurate
Some tracks could not be verified as accurate
There were errors
End of status report
---- CUETools DB Plugin V2.1.6
[CTDB TOCID: kE5TXPvrZ5geWl2OZ5ZK5foLzc4-] found
Submit result: kE5TXPvrZ5geWl2OZ5ZK5foLzc4- has been submitted
Track | CTDB Status
1 | (8/8) Accurately ripped
2 | (8/8) Accurately ripped
3 | (8/8) Accurately ripped
4 | (8/8) Accurately ripped
5 | (8/8) Accurately ripped
6 | (8/8) Accurately ripped
7 | (8/8) Accurately ripped
8 | (8/8) Accurately ripped
9 | (8/8) Accurately ripped
10 | (8/8) Accurately ripped
11 | (8/8) Accurately ripped
12 | (8/8) Accurately ripped
13 | (8/8) Accurately ripped
14 | (8/8) Accurately ripped
15 | (8/8) Differs in 4 samples @02:52:74
16 | (8/8) Accurately ripped
17 | (8/8) Differs in 8 samples @03:21:29,03:21:39,03:21:50
18 | (8/8) Accurately ripped
19 | (8/8) Accurately ripped
20 | (8/8) Accurately ripped
If you are sure that your rip contains errors, you can use CUETools to repair it.
 
Содержание индексной карты (.CUE)
REM GENRE Soul
REM DATE 2016
REM DISCID 1A0FA914
REM COMMENT "ExactAudioCopy v1.1"
PERFORMER "Various"
TITLE "100 Hits Ultimate Soul - Disc - 05"
FILE "0001.Peaches & Herb - Let's Fall In Love.flac" WAVE
TRACK 01 AUDIO
TITLE "Let's Fall In Love"
PERFORMER "Peaches & Herb"
INDEX 01 00:00:00
FILE "0002.Glady's Knight & The Pips - Part Time Love.flac" WAVE
TRACK 02 AUDIO
TITLE "Part Time Love"
PERFORMER "Glady's Knight & The Pips"
INDEX 01 00:00:00
FILE "0003.Aretha Franklin - Soulville.flac" WAVE
TRACK 03 AUDIO
TITLE "Soulville"
PERFORMER "Aretha Franklin"
INDEX 01 00:00:00
FILE "0004.Deniece Williams - Free.flac" WAVE
TRACK 04 AUDIO
TITLE "Free"
PERFORMER "Deniece Williams"
INDEX 01 00:00:00
FILE "0005.Freda Payne - Deeper And Deeper.flac" WAVE
TRACK 05 AUDIO
TITLE "Deeper And Deeper"
PERFORMER "Freda Payne"
INDEX 01 00:00:00
FILE "0006.The Ronettes - Baby I Love You.flac" WAVE
TRACK 06 AUDIO
TITLE "Baby I Love You"
PERFORMER "The Ronettes"
INDEX 01 00:00:00
FILE "0007.Barbara Mason - Give Me Your Love.flac" WAVE
TRACK 07 AUDIO
TITLE "Give Me Your Love"
PERFORMER "Barbara Mason"
INDEX 01 00:00:00
FILE "0008.Shirley Ellis - Soul Time.flac" WAVE
TRACK 08 AUDIO
TITLE "Soul Time"
PERFORMER "Shirley Ellis"
INDEX 01 00:00:00
FILE "0009.Phyllis Hyman - You Know How To Love Me.flac" WAVE
TRACK 09 AUDIO
TITLE "You Know How To Love Me"
PERFORMER "Phyllis Hyman"
INDEX 01 00:00:00
FILE "0010.The Honeycone - Stick Up.flac" WAVE
TRACK 10 AUDIO
TITLE "Stick Up"
PERFORMER "The Honeycone"
INDEX 01 00:00:00
FILE "0011.Pointer Sisters - Fire.flac" WAVE
TRACK 11 AUDIO
TITLE "Fire"
PERFORMER "Pointer Sisters"
INDEX 01 00:00:00
FILE "0012.Cherrelle - I Didn't Mean To Turn You On.flac" WAVE
TRACK 12 AUDIO
TITLE "I Didn't Mean To Turn You On"
PERFORMER "Cherrelle"
INDEX 01 00:00:00
FILE "0013.The Three Degrees - A Toast Of Love.flac" WAVE
TRACK 13 AUDIO
TITLE "A Toast Of Love"
PERFORMER "The Three Degrees"
INDEX 01 00:00:00
FILE "0014.Johnny Mathis - Too Much, Too Little, Too Late.flac" WAVE
TRACK 14 AUDIO
TITLE "Too Much, Too Little, Too Late"
PERFORMER "Johnny Mathis"
INDEX 01 00:00:00
FILE "0015.Tyrone Davis - Give It Up [Turn It Loose].flac" WAVE
TRACK 15 AUDIO
TITLE "Give It Up [Turn It Loose]"
PERFORMER "Tyrone Davis"
INDEX 01 00:00:00
FILE "0016.Johnny Johnson And The Bandwagon - Sweet Inspiration.flac" WAVE
TRACK 16 AUDIO
TITLE "Sweet Inspiration"
PERFORMER "Johnny Johnson And The Bandwagon"
INDEX 01 00:00:00
FILE "0017.The Tymes - Ms. Grace.flac" WAVE
TRACK 17 AUDIO
TITLE "Ms. Grace"
PERFORMER "The Tymes"
INDEX 01 00:00:00
FILE "0018.Stevie B - Because I Love You [The Postman Song].flac" WAVE
TRACK 18 AUDIO
TITLE "Because I Love You [The Postman Song]"
PERFORMER "Stevie B"
INDEX 01 00:00:00
FILE "0019.The Manhattans - Hurt.flac" WAVE
TRACK 19 AUDIO
TITLE "Hurt"
PERFORMER "The Manhattans"
INDEX 01 00:00:00
FILE "0020.The S.O.S. Band - The Finest.flac" WAVE
TRACK 20 AUDIO
TITLE "The Finest"
PERFORMER "The S.O.S. Band"
INDEX 01 00:00:00
Приватный:
Нет (DHT включён)
Размер:
2.26 Гб (2,425,004,913 байт) » файлов: 120
Участники:
0 раздают, 0 качают (0 участников всего)
Внешние участники:
5 раздают, 1 качают (6 участников всего) [ Обновить ]
No seeders - write a personal message to user M0p94ok. Нет сидеров - пишите личное сообщение пользователю M0p94ok.
12:27
93
Нет комментариев. Ваш будет первым!