Поиск

(Jazz, Funk, Soul) [CD] VA - Rare Groove Story (5CD Box Set) - 2005, FLAC (tracks+.cue), lossless

(Jazz, Funk, Soul) [CD] VA - Rare Groove Story (5CD Box Set) - 2005, FLAC (tracks+.cue), lossless
Треклист:
Rare Groove Story (5CD Box Set)
Жанр: Jazz, Funk, Soul
Носитель: CD
Страна-производитель диска (релиза): UK
Год издания: 2005
Издатель (лейбл): Classic Cuts Music Inc
Номер по каталогу: 065 192-2
Аудиокодек: FLAC (*.flac)
Тип рипа: tracks+.cue
Битрейт аудио: lossless
Продолжительность: 06:27:58
Источник (релизер): artmuss
Наличие сканов в содержимом раздачи: нет
 
CD 1
01. Starvue – Body Fusion
02. Two Tons Of Fun – Never Like This
03. Arnold Blair – Trying To Get Next To You
04. Side Effect – S.O.S.
05. The Vibrations – Shake It Up
06. Milton Wright – Keep It Up
07. Foster Sylvers – Misdemeanor
08. Jean Knight – Mr Big Stuff
09. Foxy – Madamoiselle
10. Carl Anderson – Buttercup
11. Maze Featuring Frankie Beverly – While I'm Alone
12. Dynasty – Adventures In The Land Of Music
13. Archie Bell & The Drells – Don't Let Love Get You Down
14. Jean Terrell – How Can You Live Without Love
15. 'Sweet' Charles – Yes It's You
16. Benny Golson – I'm Always Dancing To The Music
17. Vernon Burch – Lovely Lady
18. Bar-Kays – Open Your Heart
19. Eighties Ladies – Turned On To You
20. L.A. Boppers – You Did It Good
 
Лог создания рипа
Exact Audio Copy V1.0 beta 3 from 29. August 2011
EAC extraction logfile from 10. February 2015, 5:18
- / Rare Groove Story
Used drive : hp DVD-RAM UJ8B1 Adapter: 0 ID: 0
Read mode : Secure
Utilize accurate stream : Yes
Defeat audio cache : Yes
Make use of C2 pointers : No
Read offset correction : 6
Overread into Lead-In and Lead-Out : No
Fill up missing offset samples with silence : Yes
Delete leading and trailing silent blocks : No
Null samples used in CRC calculations : Yes
Used interface : Native Win32 interface for Win NT & 2000
Gap handling : Appended to previous track
Used output format : User Defined Encoder
Selected bitrate : 1024 kBit/s
Quality : High
Add ID3 tag : No
Command line compressor : C:\Program Files (x86)\Exact Audio Copy\Flac\flac.exe
Additional command line options : -8 -V -T "artist=%artist%" -T "title=%title%" -T "album=%albumtitle%" -T "date=%year%" -T "tracknumber=%tracknr%" -T "genre=%genre%" %source%
TOC of the extracted CD
Track | Start | Length | Start sector | End sector
---------------------------------------------------------
1 | 0:00.00 | 3:47.74 | 0 | 17098
2 | 3:47.74 | 4:00.06 | 17099 | 35104
3 | 7:48.05 | 2:48.52 | 35105 | 47756
4 | 10:36.57 | 3:40.42 | 47757 | 64298
5 | 14:17.24 | 3:09.06 | 64299 | 78479
6 | 17:26.30 | 3:46.43 | 78480 | 95472
7 | 21:12.73 | 2:33.28 | 95473 | 106975
8 | 23:46.26 | 2:49.37 | 106976 | 119687
9 | 26:35.63 | 4:43.18 | 119688 | 140930
10 | 31:19.06 | 3:49.73 | 140931 | 158178
11 | 35:09.04 | 4:33.04 | 158179 | 178657
12 | 39:42.08 | 3:44.59 | 178658 | 195516
13 | 43:26.67 | 3:53.19 | 195517 | 213010
14 | 47:20.11 | 3:11.01 | 213011 | 227336
15 | 50:31.12 | 3:13.43 | 227337 | 241854
16 | 53:44.55 | 6:14.51 | 241855 | 269955
17 | 59:59.31 | 2:57.36 | 269956 | 283266
18 | 62:56.67 | 3:48.46 | 283267 | 300412
19 | 66:45.38 | 3:47.64 | 300413 | 317501
20 | 70:33.27 | 3:42.70 | 317502 | 334221
Track 1
Filename C:\VA - Rare Groove Story (2005) [Flac] {065 192-2}\Chapter One\01 - Star Vue - Body Fusion.wav
Pre-gap length 0:00:02.00
Peak level 48.9 %
Extraction speed 2.8 X
Track quality 100.0 %
Test CRC 3AE3315E
Copy CRC 3AE3315E
Track not present in AccurateRip database
Copy OK
Track 2
Filename C:\VA - Rare Groove Story (2005) [Flac] {065 192-2}\Chapter One\02 - 2 Trons - Never Like This.wav
Pre-gap length 0:00:02.00
Peak level 42.0 %
Extraction speed 3.1 X
Track quality 100.0 %
Test CRC 55ABF9C7
Copy CRC 55ABF9C7
Track not present in AccurateRip database
Copy OK
Track 3
Filename C:\VA - Rare Groove Story (2005) [Flac] {065 192-2}\Chapter One\03 - Arnold Blair - Trying To Get Next To You.wav
Pre-gap length 0:00:02.00
Peak level 55.7 %
Extraction speed 3.2 X
Track quality 100.0 %
Test CRC 92518FE9
Copy CRC 92518FE9
Track not present in AccurateRip database
Copy OK
Track 4
Filename C:\VA - Rare Groove Story (2005) [Flac] {065 192-2}\Chapter One\04 - Side Effects - S. O. S..wav
Pre-gap length 0:00:02.00
Peak level 61.2 %
Extraction speed 3.5 X
Track quality 100.0 %
Test CRC 52B4C5B4
Copy CRC 52B4C5B4
Track not present in AccurateRip database
Copy OK
Track 5
Filename C:\VA - Rare Groove Story (2005) [Flac] {065 192-2}\Chapter One\05 - Vibrations - Shake It Up.wav
Pre-gap length 0:00:02.00
Peak level 57.6 %
Extraction speed 3.5 X
Track quality 100.0 %
Test CRC 145476F2
Copy CRC 145476F2
Track not present in AccurateRip database
Copy OK
Track 6
Filename C:\VA - Rare Groove Story (2005) [Flac] {065 192-2}\Chapter One\06 - Milton Wright - Keep It Up.wav
Pre-gap length 0:00:02.00
Peak level 41.8 %
Extraction speed 3.8 X
Track quality 100.0 %
Test CRC 4A92AACE
Copy CRC 4A92AACE
Track not present in AccurateRip database
Copy OK
Track 7
Filename C:\VA - Rare Groove Story (2005) [Flac] {065 192-2}\Chapter One\07 - Foster Sylvers - Misdemeanor.wav
Pre-gap length 0:00:02.00
Peak level 51.6 %
Extraction speed 2.9 X
Track quality 99.9 %
Test CRC 2CDF0598
Copy CRC 2CDF0598
Track not present in AccurateRip database
Copy OK
Track 8
Filename C:\VA - Rare Groove Story (2005) [Flac] {065 192-2}\Chapter One\08 - Jean Knight - Mr Big Stuff.wav
Pre-gap length 0:00:02.00
Peak level 56.1 %
Extraction speed 3.9 X
Track quality 100.0 %
Test CRC 06A9AD52
Copy CRC 06A9AD52
Track not present in AccurateRip database
Copy OK
Track 9
Filename C:\VA - Rare Groove Story (2005) [Flac] {065 192-2}\Chapter One\09 - Foxy - Madamoseille.wav
Pre-gap length 0:00:02.00
Peak level 46.8 %
Extraction speed 4.4 X
Track quality 100.0 %
Test CRC 1173AA62
Copy CRC 1173AA62
Track not present in AccurateRip database
Copy OK
Track 10
Filename C:\VA - Rare Groove Story (2005) [Flac] {065 192-2}\Chapter One\10 - Carl Anderson - Buttercup.wav
Pre-gap length 0:00:02.00
Peak level 48.2 %
Extraction speed 4.4 X
Track quality 100.0 %
Test CRC 30512AD0
Copy CRC 30512AD0
Track not present in AccurateRip database
Copy OK
Track 11
Filename C:\VA - Rare Groove Story (2005) [Flac] {065 192-2}\Chapter One\11 - Maze & Frankie Beverley - While I'm Alone.wav
Pre-gap length 0:00:02.00
Peak level 61.5 %
Extraction speed 4.7 X
Track quality 100.0 %
Test CRC 7F6DF5C4
Copy CRC 7F6DF5C4
Track not present in AccurateRip database
Copy OK
Track 12
Filename C:\VA - Rare Groove Story (2005) [Flac] {065 192-2}\Chapter One\12 - Dynasty - Adventures In The Land Of Music.wav
Pre-gap length 0:00:02.00
Peak level 51.7 %
Extraction speed 3.9 X
Track quality 99.9 %
Test CRC AABC6629
Copy CRC AABC6629
Track not present in AccurateRip database
Copy OK
Track 13
Filename C:\VA - Rare Groove Story (2005) [Flac] {065 192-2}\Chapter One\13 - Archie Bell & The Drells - Don't Let Love Get You Down.wav
Pre-gap length 0:00:02.00
Peak level 47.9 %
Extraction speed 4.8 X
Track quality 100.0 %
Test CRC FC217322
Copy CRC FC217322
Track not present in AccurateRip database
Copy OK
Track 14
Filename C:\VA - Rare Groove Story (2005) [Flac] {065 192-2}\Chapter One\14 - Jean Terrell - How Can You Live Without Love.wav
Pre-gap length 0:00:02.00
Peak level 57.2 %
Extraction speed 4.7 X
Track quality 100.0 %
Test CRC F5FD424C
Copy CRC F5FD424C
Track not present in AccurateRip database
Copy OK
Track 15
Filename C:\VA - Rare Groove Story (2005) [Flac] {065 192-2}\Chapter One\15 - Sweet Charles - Yes It's You.wav
Pre-gap length 0:00:02.00
Peak level 41.5 %
Extraction speed 3.2 X
Track quality 99.8 %
Test CRC 0D79EB8E
Copy CRC 0D79EB8E
Track not present in AccurateRip database
Copy OK
Track 16
Filename C:\VA - Rare Groove Story (2005) [Flac] {065 192-2}\Chapter One\16 - Benny Golson - I'm Always Dancing To The Music.wav
Pre-gap length 0:00:02.00
Peak level 67.5 %
Extraction speed 2.4 X
Track quality 99.7 %
Test CRC 93869952
Copy CRC 93869952
Track not present in AccurateRip database
Copy OK
Track 17
Filename C:\VA - Rare Groove Story (2005) [Flac] {065 192-2}\Chapter One\17 - Vernon Burch - Lovely Lady.wav
Pre-gap length 0:00:02.00
Peak level 49.1 %
Extraction speed 2.9 X
Track quality 99.8 %
Test CRC E181AD46
Copy CRC E181AD46
Track not present in AccurateRip database
Copy OK
Track 18
Filename C:\VA - Rare Groove Story (2005) [Flac] {065 192-2}\Chapter One\18 - Barkays - Open Your Heart.wav
Pre-gap length 0:00:02.00
Peak level 56.4 %
Extraction speed 2.8 X
Track quality 99.8 %
Test CRC 5C783B9E
Copy CRC 5C783B9E
Track not present in AccurateRip database
Copy OK
Track 19
Filename C:\VA - Rare Groove Story (2005) [Flac] {065 192-2}\Chapter One\19 - 80's Ladies - Turned Onto You.wav
Pre-gap length 0:00:02.00
Peak level 51.2 %
Extraction speed 3.0 X
Track quality 99.8 %
Test CRC F39B7F14
Copy CRC F39B7F14
Track not present in AccurateRip database
Copy OK
Track 20
Filename C:\VA - Rare Groove Story (2005) [Flac] {065 192-2}\Chapter One\20 - L.A. Boppers - You Did It Good.wav
Pre-gap length 0:00:02.00
Peak level 73.7 %
Extraction speed 3.9 X
Track quality 99.9 %
Test CRC 779F4A73
Copy CRC 779F4A73
Track not present in AccurateRip database
Copy OK
None of the tracks are present in the AccurateRip database
No errors occurred
End of status report
---- CUETools DB Plugin V2.1.3
[CTDB TOCID: kwTdWslHby9ve_oRD0lLaQ2UVHQ-] found, Submit result: already submitted
[3ad94452] (1/1) Accurately ripped
==== Log checksum 68AD241BEC8F90738638F0C209517F0CBCA7B0F62DE2F93AD5BF711AF9113DCD ====
 
Содержание индексной карты (.CUE)
REM DATE 2005
REM DISCID 1C116814
REM COMMENT "ExactAudioCopy v1.0b3"
PERFORMER ""
TITLE "Rare Groove Story"
FILE "01 - Star Vue - Body Fusion.wav" WAVE
TRACK 01 AUDIO
TITLE "Body Fusion"
PERFORMER "Star Vue"
INDEX 01 00:00:00
TRACK 02 AUDIO
TITLE "Never Like This"
PERFORMER "2 Trons"
INDEX 00 03:45:74
FILE "02 - 2 Trons - Never Like This.wav" WAVE
INDEX 01 00:00:00
TRACK 03 AUDIO
TITLE "Trying To Get Next To You"
PERFORMER "Arnold Blair"
INDEX 00 03:58:06
FILE "03 - Arnold Blair - Trying To Get Next To You.wav" WAVE
INDEX 01 00:00:00
TRACK 04 AUDIO
TITLE "S. O. S."
PERFORMER "Side Effects"
INDEX 00 02:46:52
FILE "04 - Side Effects - S. O. S..wav" WAVE
INDEX 01 00:00:00
TRACK 05 AUDIO
TITLE "Shake It Up"
PERFORMER "Vibrations"
INDEX 00 03:38:42
FILE "05 - Vibrations - Shake It Up.wav" WAVE
INDEX 01 00:00:00
TRACK 06 AUDIO
TITLE "Keep It Up"
PERFORMER "Milton Wright"
INDEX 00 03:07:06
FILE "06 - Milton Wright - Keep It Up.wav" WAVE
INDEX 01 00:00:00
TRACK 07 AUDIO
TITLE "Misdemeanor"
PERFORMER "Foster Sylvers"
INDEX 00 03:44:43
FILE "07 - Foster Sylvers - Misdemeanor.wav" WAVE
INDEX 01 00:00:00
TRACK 08 AUDIO
TITLE "Mr Big Stuff"
PERFORMER "Jean Knight"
INDEX 00 02:31:28
FILE "08 - Jean Knight - Mr Big Stuff.wav" WAVE
INDEX 01 00:00:00
TRACK 09 AUDIO
TITLE "Madamoseille"
PERFORMER "Foxy"
INDEX 00 02:47:37
FILE "09 - Foxy - Madamoseille.wav" WAVE
INDEX 01 00:00:00
TRACK 10 AUDIO
TITLE "Buttercup"
PERFORMER "Carl Anderson"
INDEX 00 04:41:18
FILE "10 - Carl Anderson - Buttercup.wav" WAVE
INDEX 01 00:00:00
TRACK 11 AUDIO
TITLE "While I'm Alone"
PERFORMER "Maze & Frankie Beverley"
INDEX 00 03:47:73
FILE "11 - Maze & Frankie Beverley - While I'm Alone.wav" WAVE
INDEX 01 00:00:00
TRACK 12 AUDIO
TITLE "Adventures In The Land Of Music"
PERFORMER "Dynasty"
INDEX 00 04:31:04
FILE "12 - Dynasty - Adventures In The Land Of Music.wav" WAVE
INDEX 01 00:00:00
TRACK 13 AUDIO
TITLE "Don't Let Love Get You Down"
PERFORMER "Archie Bell & The Drells"
INDEX 00 03:42:59
FILE "13 - Archie Bell & The Drells - Don't Let Love Get You Down.wav" WAVE
INDEX 01 00:00:00
TRACK 14 AUDIO
TITLE "How Can You Live Without Love"
PERFORMER "Jean Terrell"
INDEX 00 03:51:19
FILE "14 - Jean Terrell - How Can You Live Without Love.wav" WAVE
INDEX 01 00:00:00
TRACK 15 AUDIO
TITLE "Yes It's You"
PERFORMER "Sweet Charles"
INDEX 00 03:09:01
FILE "15 - Sweet Charles - Yes It's You.wav" WAVE
INDEX 01 00:00:00
TRACK 16 AUDIO
TITLE "I'm Always Dancing To The Music"
PERFORMER "Benny Golson"
INDEX 00 03:11:43
FILE "16 - Benny Golson - I'm Always Dancing To The Music.wav" WAVE
INDEX 01 00:00:00
TRACK 17 AUDIO
TITLE "Lovely Lady"
PERFORMER "Vernon Burch"
INDEX 00 06:12:51
FILE "17 - Vernon Burch - Lovely Lady.wav" WAVE
INDEX 01 00:00:00
TRACK 18 AUDIO
TITLE "Open Your Heart"
PERFORMER "Barkays"
INDEX 00 02:55:36
FILE "18 - Barkays - Open Your Heart.wav" WAVE
INDEX 01 00:00:00
TRACK 19 AUDIO
TITLE "Turned Onto You"
PERFORMER "80's Ladies"
INDEX 00 03:46:46
FILE "19 - 80's Ladies - Turned Onto You.wav" WAVE
INDEX 01 00:00:00
TRACK 20 AUDIO
TITLE "You Did It Good"
PERFORMER "L.A. Boppers"
INDEX 00 03:45:64
FILE "20 - L.A. Boppers - You Did It Good.wav" WAVE
INDEX 01 00:00:00
 
DR Log
foobar2000 1.1.10 / Dynamic Range Meter 1.1.1
log date: 2016-12-15 07:39:35
--------------------------------------------------------------------------------
Analyzed: 2 Trons / Rare Groove Story (1)
80's Ladies / Rare Groove Story (2)
Archie Bell & The Drells / Rare Groove Story (3)
Arnold Blair / Rare Groove Story (4)
Barkays / Rare Groove Story (5)
Benny Golson / Rare Groove Story (6)
Carl Anderson / Rare Groove Story (7)
Dynasty / Rare Groove Story (8)
Foster Sylvers / Rare Groove Story (9)
Foxy / Rare Groove Story (10)
Jean Knight / Rare Groove Story (11)
Jean Terrell / Rare Groove Story (12)
L.A. Boppers / Rare Groove Story (13)
Maze & Frankie Beverley / Rare Groove Story (14)
Milton Wright / Rare Groove Story (15)
Side Effects / Rare Groove Story (16)
Star Vue / Rare Groove Story (17)
Sweet Charles / Rare Groove Story (18)
Vernon Burch / Rare Groove Story (19)
Vibrations / Rare Groove Story (20)
--------------------------------------------------------------------------------
DR Peak RMS Duration Track
--------------------------------------------------------------------------------
DR7 -7.53 dB -16.52 dB 4:00 ?-Never Like This
DR9 -5.81 dB -16.53 dB 3:48 ?-Turned Onto You
DR8 -6.38 dB -16.54 dB 3:53 ?-Don't Let Love Get You Down
DR10 -5.07 dB -16.60 dB 2:49 ?-Trying To Get Next To You
DR10 -4.96 dB -16.57 dB 3:49 ?-Open Your Heart
DR12 -3.41 dB -16.51 dB 6:15 ?-I'm Always Dancing To The Music
DR9 -6.32 dB -16.54 dB 3:50 ?-Buttercup
DR9 -5.72 dB -16.53 dB 3:45 ?-Adventures In The Land Of Music
DR9 -5.74 dB -16.62 dB 2:33 ?-Misdemeanor
DR9 -6.59 dB -16.54 dB 4:43 ?-Madamoseille
DR10 -5.02 dB -16.57 dB 2:49 ?-Mr Big Stuff
DR10 -4.85 dB -16.55 dB 3:11 ?-How Can You Live Without Love
DR12 -2.65 dB -16.53 dB 3:43 ?-You Did It Good
DR10 -4.22 dB -16.52 dB 4:33 ?-While I'm Alone
DR8 -7.57 dB -16.55 dB 3:47 ?-Keep It Up
DR11 -4.25 dB -16.55 dB 3:41 ?-S. O. S.
DR9 -6.20 dB -16.52 dB 3:48 ?-Body Fusion
DR7 -7.63 dB -16.56 dB 3:14 ?-Yes It's You
DR9 -6.16 dB -16.60 dB 2:57 ?-Lovely Lady
DR10 -4.79 dB -16.53 dB 3:09 ?-Shake It Up
--------------------------------------------------------------------------------
Number of tracks: 20
Official DR value: DR9
Samplerate: 44100 Hz
Channels: 2
Bits per sample: 16
Bitrate: 966 kbps
Codec: FLAC
================================================================================
 
CD 2
01. Odyssey – Don't Tell Me, Tell Her
02. Hi Rhythm – On The Loose
03. Dazz Band – Laughing At You
04. Rita Wright – Touch Me
05. Barry White – Early Years
06. Bar-Kays – Feels Like I'm Falling In Love
07. Latimore – Sweet Vibrations
08. Karin Jones – Ready, Ready Love
09. Walter Jackson – It's Cool
10. Don Blackman – Holding On
11. Bobby Caldwell – What You Won't Do For Love
12. Haywood Tucker – Never Drive You Crazy
13. Lowrell – Mellow Mellow
14. Maxi – Lover To Lover
15. Side Effect – Midnight Lover
16. Geraldine Hunt – Undercover Lover
17. Carolyn Franklin – Sunshine Holiday
18. Willie Bobo – Comin' Over Me
19. Jean Carn – Early Morning Love
20. Esther Phillips – I Hope You'll Be Very Unhappy Without Me
 
Лог создания рипа
Exact Audio Copy V1.0 beta 3 from 29. August 2011
EAC extraction logfile from 10. February 2015, 6:24
- / Rare Groove Story
Used drive : hp DVD-RAM UJ8B1 Adapter: 0 ID: 0
Read mode : Secure
Utilize accurate stream : Yes
Defeat audio cache : Yes
Make use of C2 pointers : No
Read offset correction : 6
Overread into Lead-In and Lead-Out : No
Fill up missing offset samples with silence : Yes
Delete leading and trailing silent blocks : No
Null samples used in CRC calculations : Yes
Used interface : Native Win32 interface for Win NT & 2000
Gap handling : Appended to previous track
Used output format : User Defined Encoder
Selected bitrate : 1024 kBit/s
Quality : High
Add ID3 tag : No
Command line compressor : C:\Program Files (x86)\Exact Audio Copy\Flac\flac.exe
Additional command line options : -8 -V -T "artist=%artist%" -T "title=%title%" -T "album=%albumtitle%" -T "date=%year%" -T "tracknumber=%tracknr%" -T "genre=%genre%" %source%
TOC of the extracted CD
Track | Start | Length | Start sector | End sector
---------------------------------------------------------
1 | 0:00.00 | 3:45.67 | 0 | 16941
2 | 3:45.67 | 4:35.05 | 16942 | 37571
3 | 8:20.72 | 3:40.01 | 37572 | 54072
4 | 12:00.73 | 2:53.60 | 54073 | 67107
5 | 14:54.58 | 6:30.57 | 67108 | 96414
6 | 21:25.40 | 3:52.64 | 96415 | 113878
7 | 25:18.29 | 3:35.37 | 113879 | 130040
8 | 28:53.66 | 3:46.45 | 130041 | 147035
9 | 32:40.36 | 4:25.73 | 147036 | 166983
10 | 37:06.34 | 3:47.71 | 166984 | 184079
11 | 40:54.30 | 3:35.00 | 184080 | 200204
12 | 44:29.30 | 2:47.10 | 200205 | 212739
13 | 47:16.40 | 7:02.73 | 212740 | 244462
14 | 54:19.38 | 3:45.39 | 244463 | 261376
15 | 58:05.02 | 4:03.00 | 261377 | 279601
16 | 62:08.02 | 3:49.71 | 279602 | 296847
17 | 65:57.73 | 2:07.34 | 296848 | 306406
18 | 68:05.32 | 3:40.12 | 306407 | 322918
19 | 71:45.44 | 2:50.67 | 322919 | 335735
20 | 74:36.36 | 3:41.46 | 335736 | 352356
Track 1
Filename C:\VA - Rare Groove Story (2005) [Flac] {065 192-2}\Chapter Two\01 - Odyssey - Don't Tell Me, Tell Her.wav
Pre-gap length 0:00:02.00
Peak level 52.8 %
Extraction speed 2.7 X
Track quality 100.0 %
Test CRC EC0F1192
Copy CRC EC0F1192
Track not present in AccurateRip database
Copy OK
Track 2
Filename C:\VA - Rare Groove Story (2005) [Flac] {065 192-2}\Chapter Two\02 - Hi Rhythm - On The Loose.wav
Pre-gap length 0:00:02.00
Peak level 52.8 %
Extraction speed 3.2 X
Track quality 100.0 %
Test CRC 820B17F5
Copy CRC 820B17F5
Track not present in AccurateRip database
Copy OK
Track 3
Filename C:\VA - Rare Groove Story (2005) [Flac] {065 192-2}\Chapter Two\03 - Dazz Band - Laughing At You.wav
Pre-gap length 0:00:02.00
Peak level 52.8 %
Extraction speed 3.3 X
Track quality 100.0 %
Test CRC 6C9F9D1C
Copy CRC 6C9F9D1C
Track not present in AccurateRip database
Copy OK
Track 4
Filename C:\VA - Rare Groove Story (2005) [Flac] {065 192-2}\Chapter Two\04 - Rita Wright - Touch Me.wav
Pre-gap length 0:00:02.00
Peak level 52.8 %
Extraction speed 3.4 X
Track quality 100.0 %
Test CRC 4B5BCA21
Copy CRC 4B5BCA21
Track not present in AccurateRip database
Copy OK
Track 5
Filename C:\VA - Rare Groove Story (2005) [Flac] {065 192-2}\Chapter Two\05 - Barry White - Early Years.wav
Pre-gap length 0:00:02.00
Peak level 52.8 %
Extraction speed 3.6 X
Track quality 99.9 %
Test CRC 4CDC656D
Copy CRC 4CDC656D
Track not present in AccurateRip database
Copy OK
Track 6
Filename C:\VA - Rare Groove Story (2005) [Flac] {065 192-2}\Chapter Two\06 - Bar Kays - Feels Like I'm Falling In Love.wav
Pre-gap length 0:00:02.00
Peak level 52.8 %
Extraction speed 4.0 X
Track quality 100.0 %
Test CRC 1310D896
Copy CRC 1310D896
Track not present in AccurateRip database
Copy OK
Track 7
Filename C:\VA - Rare Groove Story (2005) [Flac] {065 192-2}\Chapter Two\07 - Latimore - Sweet Vibrations.wav
Pre-gap length 0:00:02.00
Peak level 52.8 %
Extraction speed 4.1 X
Track quality 100.0 %
Test CRC A5F94D88
Copy CRC A5F94D88
Track not present in AccurateRip database
Copy OK
Track 8
Filename C:\VA - Rare Groove Story (2005) [Flac] {065 192-2}\Chapter Two\08 - Karin Jones - Ready, Ready Love.wav
Pre-gap length 0:00:02.00
Peak level 52.8 %
Extraction speed 4.3 X
Track quality 100.0 %
Test CRC DF4EB50A
Copy CRC DF4EB50A
Track not present in AccurateRip database
Copy OK
Track 9
Filename C:\VA - Rare Groove Story (2005) [Flac] {065 192-2}\Chapter Two\09 - Walter Jackson - It's Cool.wav
Pre-gap length 0:00:02.00
Peak level 52.8 %
Extraction speed 4.6 X
Track quality 100.0 %
Test CRC 01E1982B
Copy CRC 01E1982B
Track not present in AccurateRip database
Copy OK
Track 10
Filename C:\VA - Rare Groove Story (2005) [Flac] {065 192-2}\Chapter Two\10 - Don Blackman - Holding On.wav
Pre-gap length 0:00:02.00
Peak level 52.8 %
Extraction speed 4.6 X
Track quality 100.0 %
Test CRC 161BA026
Copy CRC 161BA026
Track not present in AccurateRip database
Copy OK
Track 11
Filename C:\VA - Rare Groove Story (2005) [Flac] {065 192-2}\Chapter Two\11 - Bobby Caldwell - What You Won't Do For Love.wav
Pre-gap length 0:00:02.00
Peak level 52.8 %
Extraction speed 4.7 X
Track quality 100.0 %
Test CRC 51DBF4A0
Copy CRC 51DBF4A0
Track not present in AccurateRip database
Copy OK
Track 12
Filename C:\VA - Rare Groove Story (2005) [Flac] {065 192-2}\Chapter Two\12 - Haywoode Tucker - Never Drive You Crazy.wav
Pre-gap length 0:00:02.00
Peak level 52.8 %
Extraction speed 4.6 X
Track quality 100.0 %
Test CRC EE91B05C
Copy CRC EE91B05C
Track not present in AccurateRip database
Copy OK
Track 13
Filename C:\VA - Rare Groove Story (2005) [Flac] {065 192-2}\Chapter Two\13 - Lowrell - Mellow Mellow.wav
Pre-gap length 0:00:02.00
Peak level 52.8 %
Extraction speed 4.8 X
Track quality 99.9 %
Test CRC 6F0DDC40
Copy CRC 6F0DDC40
Track not present in AccurateRip database
Copy OK
Track 14
Filename C:\VA - Rare Groove Story (2005) [Flac] {065 192-2}\Chapter Two\14 - Maxi - Lover To Lover.wav
Pre-gap length 0:00:02.00
Peak level 52.8 %
Extraction speed 5.2 X
Track quality 100.0 %
Test CRC 6A5FE464
Copy CRC 6A5FE464
Track not present in AccurateRip database
Copy OK
Track 15
Filename C:\VA - Rare Groove Story (2005) [Flac] {065 192-2}\Chapter Two\15 - Side Effects - Midnight Lover.wav
Pre-gap length 0:00:02.00
Peak level 52.8 %
Extraction speed 3.3 X
Track quality 99.8 %
Test CRC 1155BDDD
Copy CRC 1155BDDD
Track not present in AccurateRip database
Copy OK
Track 16
Filename C:\VA - Rare Groove Story (2005) [Flac] {065 192-2}\Chapter Two\16 - Geraldine Hunt - Undercover Lover.wav
Pre-gap length 0:00:02.00
Peak level 52.8 %
Extraction speed 2.6 X
Track quality 99.7 %
Test CRC E02F5F21
Copy CRC E02F5F21
Track not present in AccurateRip database
Copy OK
Track 17
Filename C:\VA - Rare Groove Story (2005) [Flac] {065 192-2}\Chapter Two\17 - Carolyn Franklin - Sunshine Holiday.wav
Pre-gap length 0:00:02.00
Peak level 52.8 %
Extraction speed 2.9 X
Track quality 99.8 %
Test CRC 7D7A8E2F
Copy CRC 7D7A8E2F
Track not present in AccurateRip database
Copy OK
Track 18
Filename C:\VA - Rare Groove Story (2005) [Flac] {065 192-2}\Chapter Two\18 - Wille Bobbo - Coming Over Me.wav
Pre-gap length 0:00:02.00
Peak level 52.8 %
Extraction speed 2.5 X
Track quality 99.7 %
Test CRC EA0BD84B
Copy CRC EA0BD84B
Track not present in AccurateRip database
Copy OK
Track 19
Filename C:\VA - Rare Groove Story (2005) [Flac] {065 192-2}\Chapter Two\19 - Jean Carne - Early Morning Love.wav
Pre-gap length 0:00:02.00
Peak level 52.8 %
Extraction speed 2.1 X
Track quality 99.6 %
Test CRC EC6143A3
Copy CRC EC6143A3
Track not present in AccurateRip database
Copy OK
Track 20
Filename C:\VA - Rare Groove Story (2005) [Flac] {065 192-2}\Chapter Two\20 - Esther Phillips - I'll Hope You Will Be Very Unhappy Without Me.wav
Pre-gap length 0:00:02.00
Peak level 52.8 %
Extraction speed 2.4 X
Track quality 99.7 %
Test CRC 4095F16E
Copy CRC 4095F16E
Track not present in AccurateRip database
Copy OK
None of the tracks are present in the AccurateRip database
No errors occurred
End of status report
---- CUETools DB Plugin V2.1.3
[CTDB TOCID: .ufc42f1TKfKFymZhkIYIYUpWj8-] disk not present in database, Submit result: .ufc42f1TKfKFymZhkIYIYUpWj8- has been uploaded
==== Log checksum 91ACC89533657E90E6AAC5B0D0414823C24523227B7BBF96679D3E0F33B14504 ====
 
Содержание индексной карты (.CUE)
REM DATE 2005
REM DISCID 38125A14
REM COMMENT "ExactAudioCopy v1.0b3"
PERFORMER ""
TITLE "Rare Groove Story"
FILE "01 - Odyssey - Don't Tell Me, Tell Her.wav" WAVE
TRACK 01 AUDIO
TITLE "Don't Tell Me, Tell Her"
PERFORMER "Odyssey"
INDEX 01 00:00:00
TRACK 02 AUDIO
TITLE "On The Loose"
PERFORMER "Hi Rhythm"
INDEX 00 03:43:67
FILE "02 - Hi Rhythm - On The Loose.wav" WAVE
INDEX 01 00:00:00
TRACK 03 AUDIO
TITLE "Laughing At You"
PERFORMER "Dazz Band"
INDEX 00 04:33:05
FILE "03 - Dazz Band - Laughing At You.wav" WAVE
INDEX 01 00:00:00
TRACK 04 AUDIO
TITLE "Touch Me"
PERFORMER "Rita Wright"
INDEX 00 03:38:01
FILE "04 - Rita Wright - Touch Me.wav" WAVE
INDEX 01 00:00:00
TRACK 05 AUDIO
TITLE "Early Years"
PERFORMER "Barry White"
INDEX 00 02:51:60
FILE "05 - Barry White - Early Years.wav" WAVE
INDEX 01 00:00:00
TRACK 06 AUDIO
TITLE "Feels Like I'm Falling In Love"
PERFORMER "Bar Kays"
INDEX 00 06:28:57
FILE "06 - Bar Kays - Feels Like I'm Falling In Love.wav" WAVE
INDEX 01 00:00:00
TRACK 07 AUDIO
TITLE "Sweet Vibrations"
PERFORMER "Latimore"
INDEX 00 03:50:64
FILE "07 - Latimore - Sweet Vibrations.wav" WAVE
INDEX 01 00:00:00
TRACK 08 AUDIO
TITLE "Ready, Ready Love"
PERFORMER "Karin Jones"
INDEX 00 03:33:37
FILE "08 - Karin Jones - Ready, Ready Love.wav" WAVE
INDEX 01 00:00:00
TRACK 09 AUDIO
TITLE "It's Cool"
PERFORMER "Walter Jackson"
INDEX 00 03:44:45
FILE "09 - Walter Jackson - It's Cool.wav" WAVE
INDEX 01 00:00:00
TRACK 10 AUDIO
TITLE "Holding On"
PERFORMER "Don Blackman"
INDEX 00 04:23:73
FILE "10 - Don Blackman - Holding On.wav" WAVE
INDEX 01 00:00:00
TRACK 11 AUDIO
TITLE "What You Won't Do For Love"
PERFORMER "Bobby Caldwell"
INDEX 00 03:45:71
FILE "11 - Bobby Caldwell - What You Won't Do For Love.wav" WAVE
INDEX 01 00:00:00
TRACK 12 AUDIO
TITLE "Never Drive You Crazy"
PERFORMER "Haywoode Tucker"
INDEX 00 03:33:00
FILE "12 - Haywoode Tucker - Never Drive You Crazy.wav" WAVE
INDEX 01 00:00:00
TRACK 13 AUDIO
TITLE "Mellow Mellow"
PERFORMER "Lowrell"
INDEX 00 02:45:10
FILE "13 - Lowrell - Mellow Mellow.wav" WAVE
INDEX 01 00:00:00
TRACK 14 AUDIO
TITLE "Lover To Lover"
PERFORMER "Maxi"
INDEX 00 07:00:73
FILE "14 - Maxi - Lover To Lover.wav" WAVE
INDEX 01 00:00:00
TRACK 15 AUDIO
TITLE "Midnight Lover"
PERFORMER "Side Effects"
INDEX 00 03:43:39
FILE "15 - Side Effects - Midnight Lover.wav" WAVE
INDEX 01 00:00:00
TRACK 16 AUDIO
TITLE "Undercover Lover"
PERFORMER "Geraldine Hunt"
INDEX 00 04:01:00
FILE "16 - Geraldine Hunt - Undercover Lover.wav" WAVE
INDEX 01 00:00:00
TRACK 17 AUDIO
TITLE "Sunshine Holiday"
PERFORMER "Carolyn Franklin"
INDEX 00 03:47:71
FILE "17 - Carolyn Franklin - Sunshine Holiday.wav" WAVE
INDEX 01 00:00:00
TRACK 18 AUDIO
TITLE "Coming Over Me"
PERFORMER "Wille Bobbo"
INDEX 00 02:05:34
FILE "18 - Wille Bobbo - Coming Over Me.wav" WAVE
INDEX 01 00:00:00
TRACK 19 AUDIO
TITLE "Early Morning Love"
PERFORMER "Jean Carne"
INDEX 00 03:38:12
FILE "19 - Jean Carne - Early Morning Love.wav" WAVE
INDEX 01 00:00:00
TRACK 20 AUDIO
TITLE "I'll Hope You Will Be Very Unhappy Without Me"
PERFORMER "Esther Phillips"
INDEX 00 02:48:67
FILE "20 - Esther Phillips - I'll Hope You Will Be Very Unhappy Without Me.wav" WAVE
INDEX 01 00:00:00
 
DR LOG
foobar2000 1.1.10 / Dynamic Range Meter 1.1.1
log date: 2016-12-15 07:43:11
--------------------------------------------------------------------------------
Analyzed: Bar Kays / Rare Groove Story (1)
Barry White / Rare Groove Story (2)
Bobby Caldwell / Rare Groove Story (3)
Carolyn Franklin / Rare Groove Story (4)
Dazz Band / Rare Groove Story (5)
Don Blackman / Rare Groove Story (6)
Esther Phillips / Rare Groove Story (7)
Geraldine Hunt / Rare Groove Story (8)
Haywoode Tucker / Rare Groove Story (9)
Hi Rhythm / Rare Groove Story (10)
Jean Carne / Rare Groove Story (11)
Karin Jones / Rare Groove Story (12)
Latimore / Rare Groove Story (13)
Lowrell / Rare Groove Story (14)
Maxi / Rare Groove Story (15)
Odyssey / Rare Groove Story (16)
Rita Wright / Rare Groove Story (17)
Side Effects / Rare Groove Story (18)
Walter Jackson / Rare Groove Story (19)
Wille Bobbo / Rare Groove Story (20)
--------------------------------------------------------------------------------
DR Peak RMS Duration Track
--------------------------------------------------------------------------------
DR9 -5.54 dB -16.09 dB 3:53 ?-Feels Like I'm Falling In Love
DR13 -5.54 dB -21.49 dB 6:31 ?-Early Years
DR10 -5.54 dB -16.68 dB 3:35 ?-What You Won't Do For Love
DR7 -5.54 dB -14.18 dB 2:07 ?-Sunshine Holiday
DR8 -5.54 dB -15.64 dB 3:40 ?-Laughing At You
DR9 -5.54 dB -16.52 dB 3:48 ?-Holding On
DR8 -5.54 dB -16.16 dB 3:42 ?-I'll Hope You Will Be Very Unhappy Without Me
DR8 -5.54 dB -14.96 dB 3:50 ?-Undercover Lover
DR7 -5.54 dB -14.08 dB 2:47 ?-Never Drive You Crazy
DR7 -5.54 dB -13.56 dB 4:35 ?-On The Loose
DR11 -5.54 dB -18.10 dB 2:51 ?-Early Morning Love
DR7 -5.54 dB -14.15 dB 3:47 ?-Ready, Ready Love
DR9 -5.54 dB -15.43 dB 3:35 ?-Sweet Vibrations
DR8 -5.54 dB -15.56 dB 7:03 ?-Mellow Mellow
DR7 -5.54 dB -14.18 dB 3:46 ?-Lover To Lover
DR8 -5.54 dB -16.18 dB 3:46 ?-Don't Tell Me, Tell Her
DR6 -5.54 dB -12.91 dB 2:54 ?-Touch Me
DR8 -5.54 dB -15.10 dB 4:03 ?-Midnight Lover
DR7 -5.54 dB -14.64 dB 4:26 ?-It's Cool
DR8 -5.54 dB -15.45 dB 3:40 ?-Coming Over Me
--------------------------------------------------------------------------------
Number of tracks: 20
Official DR value: DR8
Samplerate: 44100 Hz
Channels: 2
Bits per sample: 16
Bitrate: 925 kbps
Codec: FLAC
================================================================================
 
CD 3
01. Jeff Lorber – Think Back & Remember
02. Sylvia Striplin – You Can't Turn Me Away
03. Father's Children – Hollywood Dreaming
04. Jeannie Reynolds – The Fruit Song
05. Willie "Beaver" Hale – Groove On
06. LJ Reynolds – Key To The World
07. Michael Cooper – Over & Over
08. Passion – Midnight Lovers
09. Barbra Streisand – Guilty (feat. Barry Gibb)
10. Randy Crawford – Endlessly
11. Gwen McCrae – 90% Of Me
12. Ashford & Simpson – Love Or Physical
13. Sérgio Mendes – That's Enough For Me
14. L.T.D. – Lovers Everywhere
15. Peabo Bryson – I've Been Down
16. The Jacksons – Blues Away
17. Cymande – The Message
18. Barbara Lynn – You Make Me So Hot
19. Leroy Hutson – So In Love
20. Black Ice – Postcard Love Affair
 
Лог создания рипа
Exact Audio Copy V1.0 beta 3 from 29. August 2011
EAC extraction logfile from 10. February 2015, 7:24
- / Rare Groove Story
Used drive : hp DVD-RAM UJ8B1 Adapter: 0 ID: 0
Read mode : Secure
Utilize accurate stream : Yes
Defeat audio cache : Yes
Make use of C2 pointers : No
Read offset correction : 6
Overread into Lead-In and Lead-Out : No
Fill up missing offset samples with silence : Yes
Delete leading and trailing silent blocks : No
Null samples used in CRC calculations : Yes
Used interface : Native Win32 interface for Win NT & 2000
Gap handling : Appended to previous track
Used output format : User Defined Encoder
Selected bitrate : 1024 kBit/s
Quality : High
Add ID3 tag : No
Command line compressor : C:\Program Files (x86)\Exact Audio Copy\Flac\flac.exe
Additional command line options : -8 -V -T "artist=%artist%" -T "title=%title%" -T "album=%albumtitle%" -T "date=%year%" -T "tracknumber=%tracknr%" -T "genre=%genre%" %source%
TOC of the extracted CD
Track | Start | Length | Start sector | End sector
---------------------------------------------------------
1 | 0:00.00 | 4:00.68 | 0 | 18067
2 | 4:00.68 | 5:28.72 | 18068 | 42739
3 | 9:29.65 | 3:48.54 | 42740 | 59893
4 | 13:18.44 | 6:04.05 | 59894 | 87198
5 | 19:22.49 | 3:53.44 | 87199 | 104717
6 | 23:16.18 | 3:38.63 | 104718 | 121130
7 | 26:55.06 | 5:57.15 | 121131 | 147920
8 | 32:52.21 | 3:40.03 | 147921 | 164423
9 | 36:32.24 | 3:48.11 | 164424 | 181534
10 | 40:20.35 | 3:45.64 | 181535 | 198473
11 | 44:06.24 | 2:55.00 | 198474 | 211598
12 | 47:01.24 | 3:48.15 | 211599 | 228713
13 | 50:49.39 | 3:41.51 | 228714 | 245339
14 | 54:31.15 | 3:45.40 | 245340 | 262254
15 | 58:16.55 | 3:44.30 | 262255 | 279084
16 | 62:01.10 | 3:09.09 | 279085 | 293268
17 | 65:10.19 | 3:21.34 | 293269 | 308377
18 | 68:31.53 | 3:37.53 | 308378 | 324705
19 | 72:09.31 | 2:55.04 | 324706 | 337834
20 | 75:04.35 | 3:31.41 | 337835 | 353700
Track 1
Filename C:\VA - Rare Groove Story (2005) [Flac] {065 192-2}\Chapter Three\01 - Jeff Lorber - Think Back & Remember.wav
Pre-gap length 0:00:02.00
Peak level 38.6 %
Extraction speed 2.9 X
Track quality 100.0 %
Test CRC B7D8E386
Copy CRC B7D8E386
Track not present in AccurateRip database
Copy OK
Track 2
Filename C:\VA - Rare Groove Story (2005) [Flac] {065 192-2}\Chapter Three\02 - Sylvia Striplin - Yor Can't Turn Love Away.wav
Pre-gap length 0:00:02.00
Peak level 61.2 %
Extraction speed 3.3 X
Track quality 100.0 %
Test CRC 5C396746
Copy CRC 5C396746
Track not present in AccurateRip database
Copy OK
Track 3
Filename C:\VA - Rare Groove Story (2005) [Flac] {065 192-2}\Chapter Three\03 - Father's Children - Hollywood Dreaming.wav
Pre-gap length 0:00:02.00
Peak level 60.4 %
Extraction speed 2.9 X
Track quality 99.9 %
Test CRC 4AD6B928
Copy CRC 4AD6B928
Track not present in AccurateRip database
Copy OK
Track 4
Filename C:\VA - Rare Groove Story (2005) [Flac] {065 192-2}\Chapter Three\04 - Jeanie Reynolds - The Fruit Song.wav
Pre-gap length 0:00:02.00
Peak level 50.6 %
Extraction speed 3.9 X
Track quality 100.0 %
Test CRC 1ACE9DC3
Copy CRC 1ACE9DC3
Track not present in AccurateRip database
Copy OK
Track 5
Filename C:\VA - Rare Groove Story (2005) [Flac] {065 192-2}\Chapter Three\05 - Willie Beaver Hall - Groove On.wav
Pre-gap length 0:00:02.00
Peak level 56.1 %
Extraction speed 4.0 X
Track quality 100.0 %
Test CRC 50593E59
Copy CRC 50593E59
Track not present in AccurateRip database
Copy OK
Track 6
Filename C:\VA - Rare Groove Story (2005) [Flac] {065 192-2}\Chapter Three\06 - LJ. Reynolds - Key To The World.wav
Pre-gap length 0:00:02.00
Peak level 63.3 %
Extraction speed 4.2 X
Track quality 100.0 %
Test CRC 6E4BDEA8
Copy CRC 6E4BDEA8
Track not present in AccurateRip database
Copy OK
Track 7
Filename C:\VA - Rare Groove Story (2005) [Flac] {065 192-2}\Chapter Three\07 - Michael Cooper - Over & Over.wav
Pre-gap length 0:00:02.00
Peak level 44.5 %
Extraction speed 4.1 X
Track quality 99.9 %
Test CRC 5834B2CC
Copy CRC 5834B2CC
Track not present in AccurateRip database
Copy OK
Track 8
Filename C:\VA - Rare Groove Story (2005) [Flac] {065 192-2}\Chapter Three\08 - Passion - Midnight Lovers.wav
Pre-gap length 0:00:02.00
Peak level 67.9 %
Extraction speed 4.5 X
Track quality 100.0 %
Test CRC D0D38C36
Copy CRC D0D38C36
Track not present in AccurateRip database
Copy OK
Track 9
Filename C:\VA - Rare Groove Story (2005) [Flac] {065 192-2}\Chapter Three\09 - Barbara Streisand & Barry Gibb - Guilty.wav
Pre-gap length 0:00:02.00
Peak level 58.6 %
Extraction speed 4.7 X
Track quality 100.0 %
Test CRC CEDE2397
Copy CRC CEDE2397
Track not present in AccurateRip database
Copy OK
Track 10
Filename C:\VA - Rare Groove Story (2005) [Flac] {065 192-2}\Chapter Three\10 - Randy Crawford - Endlessly.wav
Pre-gap length 0:00:02.00
Peak level 61.8 %
Extraction speed 4.8 X
Track quality 100.0 %
Test CRC 1F61E0CE
Copy CRC 1F61E0CE
Track not present in AccurateRip database
Copy OK
Track 11
Filename C:\VA - Rare Groove Story (2005) [Flac] {065 192-2}\Chapter Three\11 - Gwen McRae - 90% Of Me.wav
Pre-gap length 0:00:02.00
Peak level 42.4 %
Extraction speed 4.7 X
Track quality 100.0 %
Test CRC CD605F47
Copy CRC CD605F47
Track not present in AccurateRip database
Copy OK
Track 12
Filename C:\VA - Rare Groove Story (2005) [Flac] {065 192-2}\Chapter Three\12 - Ashford & Simpson - Love Or Physical.wav
Pre-gap length 0:00:02.00
Peak level 96.8 %
Extraction speed 5.1 X
Track quality 100.0 %
Test CRC C735A855
Copy CRC C735A855
Track not present in AccurateRip database
Copy OK
Track 13
Filename C:\VA - Rare Groove Story (2005) [Flac] {065 192-2}\Chapter Three\13 - Sergio Mendes - That's Enough For Me.wav
Pre-gap length 0:00:02.00
Peak level 77.5 %
Extraction speed 5.2 X
Track quality 100.0 %
Test CRC 2FC38062
Copy CRC 2FC38062
Track not present in AccurateRip database
Copy OK
Track 14
Filename C:\VA - Rare Groove Story (2005) [Flac] {065 192-2}\Chapter Three\14 - L.T.D. - Lovers Everywhere.wav
Pre-gap length 0:00:02.00
Peak level 38.4 %
Extraction speed 5.3 X
Track quality 100.0 %
Test CRC AFED28D0
Copy CRC AFED28D0
Track not present in AccurateRip database
Copy OK
Track 15
Filename C:\VA - Rare Groove Story (2005) [Flac] {065 192-2}\Chapter Three\15 - Peabo Bryson - I've Been Down.wav
Pre-gap length 0:00:02.00
Peak level 46.7 %
Extraction speed 4.5 X
Track quality 99.9 %
Test CRC DDDD8B9D
Copy CRC DDDD8B9D
Track not present in AccurateRip database
Copy OK
Track 16
Filename C:\VA - Rare Groove Story (2005) [Flac] {065 192-2}\Chapter Three\16 - Jackson 5 - Blues Away.wav
Pre-gap length 0:00:02.00
Peak level 49.1 %
Extraction speed 5.3 X
Track quality 100.0 %
Test CRC E9F50D52
Copy CRC E9F50D52
Track not present in AccurateRip database
Copy OK
Track 17
Filename C:\VA - Rare Groove Story (2005) [Flac] {065 192-2}\Chapter Three\17 - Cymande - The Message.wav
Pre-gap length 0:00:02.00
Peak level 44.4 %
Extraction speed 5.5 X
Track quality 100.0 %
Test CRC D312BB79
Copy CRC D312BB79
Track not present in AccurateRip database
Copy OK
Track 18
Filename C:\VA - Rare Groove Story (2005) [Flac] {065 192-2}\Chapter Three\18 - Barbara Lynn - You Make Me So Hot.wav
Pre-gap length 0:00:02.00
Peak level 51.2 %
Extraction speed 5.7 X
Track quality 100.0 %
Test CRC C39CAFF2
Copy CRC C39CAFF2
Track not present in AccurateRip database
Copy OK
Track 19
Filename C:\VA - Rare Groove Story (2005) [Flac] {065 192-2}\Chapter Three\19 - Leyroy Hutson - So In Love.wav
Pre-gap length 0:00:02.00
Peak level 29.4 %
Extraction speed 5.6 X
Track quality 100.0 %
Test CRC F0CDAA2E
Copy CRC F0CDAA2E
Track not present in AccurateRip database
Copy OK
Track 20
Filename C:\VA - Rare Groove Story (2005) [Flac] {065 192-2}\Chapter Three\20 - Black Ice - Postcard Love Affair.wav
Pre-gap length 0:00:02.00
Peak level 52.3 %
Extraction speed 5.8 X
Track quality 100.0 %
Test CRC BB4E3366
Copy CRC BB4E3366
Track not present in AccurateRip database
Copy OK
None of the tracks are present in the AccurateRip database
No errors occurred
End of status report
---- CUETools DB Plugin V2.1.3
[CTDB TOCID: SoxBx.FRksl5Uo0rwgWSTRufCkM-] disk not present in database, Submit result: SoxBx.FRksl5Uo0rwgWSTRufCkM- has been uploaded
==== Log checksum 3A342E1480F427C0E5147B7C2E9BAC76FAB4CDB154D588EB9651B167C88D9695 ====
 
Содержание индексной карты (.CUE)
REM DATE 2005
REM DISCID 13126C14
REM COMMENT "ExactAudioCopy v1.0b3"
PERFORMER ""
TITLE "Rare Groove Story"
FILE "01 - Jeff Lorber - Think Back & Remember.wav" WAVE
TRACK 01 AUDIO
TITLE "Think Back & Remember"
PERFORMER "Jeff Lorber"
INDEX 01 00:00:00
TRACK 02 AUDIO
TITLE "Yor Can't Turn Love Away"
PERFORMER "Sylvia Striplin"
INDEX 00 03:58:68
FILE "02 - Sylvia Striplin - Yor Can't Turn Love Away.wav" WAVE
INDEX 01 00:00:00
TRACK 03 AUDIO
TITLE "Hollywood Dreaming"
PERFORMER "Father's Children"
INDEX 00 05:26:72
FILE "03 - Father's Children - Hollywood Dreaming.wav" WAVE
INDEX 01 00:00:00
TRACK 04 AUDIO
TITLE "The Fruit Song"
PERFORMER "Jeanie Reynolds"
INDEX 00 03:46:54
FILE "04 - Jeanie Reynolds - The Fruit Song.wav" WAVE
INDEX 01 00:00:00
TRACK 05 AUDIO
TITLE "Groove On"
PERFORMER "Willie Beaver Hall"
INDEX 00 06:02:05
FILE "05 - Willie Beaver Hall - Groove On.wav" WAVE
INDEX 01 00:00:00
TRACK 06 AUDIO
TITLE "Key To The World"
PERFORMER "LJ. Reynolds"
INDEX 00 03:51:44
FILE "06 - LJ. Reynolds - Key To The World.wav" WAVE
INDEX 01 00:00:00
TRACK 07 AUDIO
TITLE "Over & Over"
PERFORMER "Michael Cooper"
INDEX 00 03:36:63
FILE "07 - Michael Cooper - Over & Over.wav" WAVE
INDEX 01 00:00:00
TRACK 08 AUDIO
TITLE "Midnight Lovers"
PERFORMER "Passion"
INDEX 00 05:55:15
FILE "08 - Passion - Midnight Lovers.wav" WAVE
INDEX 01 00:00:00
TRACK 09 AUDIO
TITLE "Guilty"
PERFORMER "Barbara Streisand & Barry Gibb"
INDEX 00 03:38:03
FILE "09 - Barbara Streisand & Barry Gibb - Guilty.wav" WAVE
INDEX 01 00:00:00
TRACK 10 AUDIO
TITLE "Endlessly"
PERFORMER "Randy Crawford"
INDEX 00 03:46:11
FILE "10 - Randy Crawford - Endlessly.wav" WAVE
INDEX 01 00:00:00
TRACK 11 AUDIO
TITLE "90% Of Me"
PERFORMER "Gwen McRae"
INDEX 00 03:43:64
FILE "11 - Gwen McRae - 90% Of Me.wav" WAVE
INDEX 01 00:00:00
TRACK 12 AUDIO
TITLE "Love Or Physical"
PERFORMER "Ashford & Simpson"
INDEX 00 02:53:00
FILE "12 - Ashford & Simpson - Love Or Physical.wav" WAVE
INDEX 01 00:00:00
TRACK 13 AUDIO
TITLE "That's Enough For Me"
PERFORMER "Sergio Mendes"
INDEX 00 03:46:15
FILE "13 - Sergio Mendes - That's Enough For Me.wav" WAVE
INDEX 01 00:00:00
TRACK 14 AUDIO
TITLE "Lovers Everywhere"
PERFORMER "L.T.D."
INDEX 00 03:39:51
FILE "14 - L.T.D. - Lovers Everywhere.wav" WAVE
INDEX 01 00:00:00
TRACK 15 AUDIO
TITLE "I've Been Down"
PERFORMER "Peabo Bryson"
INDEX 00 03:43:40
FILE "15 - Peabo Bryson - I've Been Down.wav" WAVE
INDEX 01 00:00:00
TRACK 16 AUDIO
TITLE "Blues Away"
PERFORMER "Jackson 5"
INDEX 00 03:42:30
FILE "16 - Jackson 5 - Blues Away.wav" WAVE
INDEX 01 00:00:00
TRACK 17 AUDIO
TITLE "The Message"
PERFORMER "Cymande"
INDEX 00 03:07:09
FILE "17 - Cymande - The Message.wav" WAVE
INDEX 01 00:00:00
TRACK 18 AUDIO
TITLE "You Make Me So Hot"
PERFORMER "Barbara Lynn"
INDEX 00 03:19:34
FILE "18 - Barbara Lynn - You Make Me So Hot.wav" WAVE
INDEX 01 00:00:00
TRACK 19 AUDIO
TITLE "So In Love"
PERFORMER "Leyroy Hutson"
INDEX 00 03:35:53
FILE "19 - Leyroy Hutson - So In Love.wav" WAVE
INDEX 01 00:00:00
TRACK 20 AUDIO
TITLE "Postcard Love Affair"
PERFORMER "Black Ice"
INDEX 00 02:53:04
FILE "20 - Black Ice - Postcard Love Affair.wav" WAVE
INDEX 01 00:00:00
 
DR LOG
foobar2000 1.1.10 / Dynamic Range Meter 1.1.1
log date: 2016-12-15 07:45:52
--------------------------------------------------------------------------------
Analyzed: Ashford & Simpson / Rare Groove Story (1)
Barbara Lynn / Rare Groove Story (2)
Barbara Streisand & Barry Gibb / Rare Groove Story (3)
Black Ice / Rare Groove Story (4)
Cymande / Rare Groove Story (5)
Father's Children / Rare Groove Story (6)
Gwen McRae / Rare Groove Story (7)
Jackson 5 / Rare Groove Story (8)
Jeanie Reynolds / Rare Groove Story (9)
Jeff Lorber / Rare Groove Story (10)
L.T.D. / Rare Groove Story (11)
Leyroy Hutson / Rare Groove Story (12)
LJ. Reynolds / Rare Groove Story (13)
Michael Cooper / Rare Groove Story (14)
Passion / Rare Groove Story (15)
Peabo Bryson / Rare Groove Story (16)
Randy Crawford / Rare Groove Story (17)
Sergio Mendes / Rare Groove Story (18)
Sylvia Striplin / Rare Groove Story (19)
Willie Beaver Hall / Rare Groove Story (20)
--------------------------------------------------------------------------------
DR Peak RMS Duration Track
--------------------------------------------------------------------------------
DR15 -0.27 dB -16.52 dB 3:48 ?-Love Or Physical
DR9 -5.80 dB -16.55 dB 3:38 ?-You Make Me So Hot
DR10 -4.64 dB -16.52 dB 3:48 ?-Guilty
DR9 -5.62 dB -16.51 dB 3:32 ?-Postcard Love Affair
DR8 -7.05 dB -16.58 dB 3:21 ?-The Message
DR11 -4.37 dB -16.57 dB 3:49 ?-Hollywood Dreaming
DR7 -7.45 dB -16.59 dB 2:55 ?-90% Of Me
DR9 -6.17 dB -16.53 dB 3:09 ?-Blues Away
DR9 -5.91 dB -16.53 dB 6:04 ?-The Fruit Song
DR7 -8.25 dB -16.56 dB 4:01 ?-Think Back & Remember
DR6 -8.29 dB -16.57 dB 3:46 ?-Lovers Everywhere
DR5 -10.62 dB -16.58 dB 2:55 ?-So In Love
DR10 -3.97 dB -16.53 dB 3:39 ?-Key To The World
DR8 -7.03 dB -16.51 dB 5:57 ?-Over & Over
DR11 -3.35 dB -16.56 dB 3:40 ?-Midnight Lovers
DR8 -6.60 dB -16.54 dB 3:44 ?-I've Been Down
DR10 -4.18 dB -16.57 dB 3:46 ?-Endlessly
DR13 -2.21 dB -16.53 dB 3:42 ?-That's Enough For Me
DR11 -4.26 dB -16.52 dB 5:29 ?-Yor Can't Turn Love Away
DR10 -5.01 dB -16.53 dB 3:54 ?-Groove On
--------------------------------------------------------------------------------
Number of tracks: 20
Official DR value: DR9
Samplerate: 44100 Hz
Channels: 2
Bits per sample: 16
Bitrate: 942 kbps
Codec: FLAC
================================================================================
 
CD 4
01. The Futures – Ain't No Time Fa Nothin'
02. Bennie Johnson – I've Got To Know
03. The Staple Singers – Do It Again
04. Chuck Mangione – Do You Ever Think About Me
05. Love Unlimited – If You Want Me
06. Melvin Hudson – Life In The City
07. Yvonne Elleman – Love Me
08. Lou Raglin – Making Love
09. The Gap Band – Yearning For Your Love
10. Jean Carn – Don't Let It Go To Your Head
11. Brenda & Herb – What Goes Around
12. The Emotions – Feeling Is
13. Bobby Womack – How Could You Break My Heart
14. Natalie Cole – Annie Mae
15. La Toya Jackson – Camp Kuchi Kaia
16. Dee Edwards – Deal With That
17. James Brown – Someone To Talk To
18. Soul Survivors – City Of Brotherly Love
19. Edee – Make It Last
20. Rupert Holmes – Pina Colada
 
Лог создания рипа
Exact Audio Copy V1.0 beta 3 from 29. August 2011
EAC extraction logfile from 10. February 2015, 12:52
- / Rare Groove Story
Used drive : hp DVD-RAM UJ8B1 Adapter: 0 ID: 0
Read mode : Secure
Utilize accurate stream : Yes
Defeat audio cache : Yes
Make use of C2 pointers : No
Read offset correction : 6
Overread into Lead-In and Lead-Out : No
Fill up missing offset samples with silence : Yes
Delete leading and trailing silent blocks : No
Null samples used in CRC calculations : Yes
Used interface : Native Win32 interface for Win NT & 2000
Gap handling : Appended to previous track
Used output format : User Defined Encoder
Selected bitrate : 1024 kBit/s
Quality : High
Add ID3 tag : No
Command line compressor : C:\Program Files (x86)\Exact Audio Copy\Flac\flac.exe
Additional command line options : -8 -V -T "artist=%artist%" -T "title=%title%" -T "album=%albumtitle%" -T "date=%year%" -T "tracknumber=%tracknr%" -T "genre=%genre%" %source%
TOC of the extracted CD
Track | Start | Length | Start sector | End sector
---------------------------------------------------------
1 | 0:00.00 | 5:28.35 | 0 | 24634
2 | 5:28.35 | 2:34.60 | 24635 | 36244
3 | 8:03.20 | 4:39.07 | 36245 | 57176
4 | 12:42.27 | 3:43.74 | 57177 | 73975
5 | 16:26.26 | 3:46.61 | 73976 | 90986
6 | 20:13.12 | 3:51.27 | 90987 | 108338
7 | 24:04.39 | 3:17.74 | 108339 | 123187
8 | 27:22.38 | 4:50.12 | 123188 | 144949
9 | 32:12.50 | 5:39.29 | 144950 | 170403
10 | 37:52.04 | 4:51.19 | 170404 | 192247
11 | 42:43.23 | 3:46.00 | 192248 | 209197
12 | 46:29.23 | 3:31.27 | 209198 | 225049
13 | 50:00.50 | 3:46.54 | 225050 | 242053
14 | 53:47.29 | 3:31.38 | 242054 | 257916
15 | 57:18.67 | 3:33.45 | 257917 | 273936
16 | 60:52.37 | 3:32.01 | 273937 | 289837
17 | 64:24.38 | 3:31.29 | 289838 | 305691
18 | 67:55.67 | 3:24.00 | 305692 | 320991
19 | 71:19.67 | 3:31.30 | 320992 | 336846
20 | 74:51.22 | 3:51.05 | 336847 | 354176
Track 1
Filename C:\VA - Rare Groove Story (2005) [Flac] {065 192-2}\CD 4\01 - The Futures - Ain't No Time For Nothing.wav
Pre-gap length 0:00:02.00
Peak level 41.7 %
Extraction speed 2.9 X
Track quality 100.0 %
Test CRC 8AAFFD2E
Copy CRC 8AAFFD2E
Track not present in AccurateRip database
Copy OK
Track 2
Filename C:\VA - Rare Groove Story (2005) [Flac] {065 192-2}\CD 4\02 - Bennie Johnson - I've Got To Know.wav
Pre-gap length 0:00:02.00
Peak level 41.7 %
Extraction speed 2.9 X
Track quality 100.0 %
Test CRC 6FBA16F9
Copy CRC 6FBA16F9
Track not present in AccurateRip database
Copy OK
Track 3
Filename C:\VA - Rare Groove Story (2005) [Flac] {065 192-2}\CD 4\03 - The Staple Singers - Do It Again.wav
Pre-gap length 0:00:02.00
Peak level 41.7 %
Extraction speed 3.5 X
Track quality 100.0 %
Test CRC 145AC6AC
Copy CRC 145AC6AC
Track not present in AccurateRip database
Copy OK
Track 4
Filename C:\VA - Rare Groove Story (2005) [Flac] {065 192-2}\CD 4\04 - Chuck Mangione - Do You Ever Think About Me.wav
Pre-gap length 0:00:02.00
Peak level 41.7 %
Extraction speed 3.6 X
Track quality 100.0 %
Test CRC DD728B55
Copy CRC DD728B55
Track not present in AccurateRip database
Copy OK
Track 5
Filename C:\VA - Rare Groove Story (2005) [Flac] {065 192-2}\CD 4\05 - Love Unlimited - If You Want Me.wav
Pre-gap length 0:00:02.00
Peak level 41.7 %
Extraction speed 3.7 X
Track quality 100.0 %
Test CRC 193D791E
Copy CRC 193D791E
Track not present in AccurateRip database
Copy OK
Track 6
Filename C:\VA - Rare Groove Story (2005) [Flac] {065 192-2}\CD 4\06 - Melvin Hudson - Life In The City.wav
Pre-gap length 0:00:02.00
Peak level 41.7 %
Extraction speed 3.9 X
Track quality 100.0 %
Test CRC 7B624DC3
Copy CRC 7B624DC3
Track not present in AccurateRip database
Copy OK
Track 7
Filename C:\VA - Rare Groove Story (2005) [Flac] {065 192-2}\CD 4\07 - Yvonne Elleman - Love Me.wav
Pre-gap length 0:00:02.00
Peak level 41.7 %
Extraction speed 4.0 X
Track quality 100.0 %
Test CRC 78C30BAD
Copy CRC 78C30BAD
Track not present in AccurateRip database
Copy OK
Track 8
Filename C:\VA - Rare Groove Story (2005) [Flac] {065 192-2}\CD 4\08 - Lou Raglin - Making Love.wav
Pre-gap length 0:00:02.00
Peak level 41.7 %
Extraction speed 3.8 X
Track quality 99.9 %
Test CRC 1608B3CA
Copy CRC 1608B3CA
Track not present in AccurateRip database
Copy OK
Track 9
Filename C:\VA - Rare Groove Story (2005) [Flac] {065 192-2}\CD 4\09 - The Gap Band - Yearning For Your Love.wav
Pre-gap length 0:00:02.00
Peak level 41.7 %
Extraction speed 4.7 X
Track quality 100.0 %
Test CRC 7DFB520A
Copy CRC 7DFB520A
Track not present in AccurateRip database
Copy OK
Track 10
Filename C:\VA - Rare Groove Story (2005) [Flac] {065 192-2}\CD 4\10 - Jean Carne - Don't Let It Go To Your Head.wav
Pre-gap length 0:00:02.00
Peak level 41.7 %
Extraction speed 4.8 X
Track quality 100.0 %
Test CRC 1B667E24
Copy CRC 1B667E24
Track not present in AccurateRip database
Copy OK
Track 11
Filename C:\VA - Rare Groove Story (2005) [Flac] {065 192-2}\CD 4\11 - Brenda & Herb - What Goes Around.wav
Pre-gap length 0:00:02.00
Peak level 41.7 %
Extraction speed 4.8 X
Track quality 100.0 %
Test CRC CD5186A6
Copy CRC CD5186A6
Track not present in AccurateRip database
Copy OK
Track 12
Filename C:\VA - Rare Groove Story (2005) [Flac] {065 192-2}\CD 4\12 - Emotions - Feeling Is.wav
Pre-gap length 0:00:02.00
Peak level 41.7 %
Extraction speed 4.9 X
Track quality 100.0 %
Test CRC 762A6C54
Copy CRC 762A6C54
Track not present in AccurateRip database
Copy OK
Track 13
Filename C:\VA - Rare Groove Story (2005) [Flac] {065 192-2}\CD 4\13 - Bobby Womack - How Could You Break My Heart.wav
Pre-gap length 0:00:02.00
Peak level 41.7 %
Extraction speed 4.2 X
Track quality 99.9 %
Test CRC 4D6053EA
Copy CRC 4D6053EA
Track not present in AccurateRip database
Copy OK
Track 14
Filename C:\VA - Rare Groove Story (2005) [Flac] {065 192-2}\CD 4\14 - Natalie Cole - Annie Mae.wav
Pre-gap length 0:00:02.00
Peak level 41.7 %
Extraction speed 4.2 X
Track quality 99.9 %
Test CRC 07A236D1
Copy CRC 07A236D1
Track not present in AccurateRip database
Copy OK
Track 15
Filename C:\VA - Rare Groove Story (2005) [Flac] {065 192-2}\CD 4\15 - Latoya Jackson - Camp Kutchi Kaia.wav
Pre-gap length 0:00:02.00
Peak level 41.7 %
Extraction speed 5.2 X
Track quality 100.0 %
Test CRC C8BA46DB
Copy CRC C8BA46DB
Track not present in AccurateRip database
Copy OK
Track 16
Filename C:\VA - Rare Groove Story (2005) [Flac] {065 192-2}\CD 4\16 - Dee Edwards - Deal With That.wav
Pre-gap length 0:00:02.00
Peak level 41.7 %
Extraction speed 5.3 X
Track quality 100.0 %
Test CRC 1CB5C413
Copy CRC 1CB5C413
Track not present in AccurateRip database
Copy OK
Track 17
Filename C:\VA - Rare Groove Story (2005) [Flac] {065 192-2}\CD 4\17 - James Brown - Someone To Talk To.wav
Pre-gap length 0:00:02.00
Peak level 41.7 %
Extraction speed 5.4 X
Track quality 100.0 %
Test CRC 4A6251F2
Copy CRC 4A6251F2
Track not present in AccurateRip database
Copy OK
Track 18
Filename C:\VA - Rare Groove Story (2005) [Flac] {065 192-2}\CD 4\18 - Soul Survivors - City Of Brotherly Love.wav
Pre-gap length 0:00:02.00
Peak level 41.7 %
Extraction speed 5.5 X
Track quality 100.0 %
Test CRC 328E6328
Copy CRC 328E6328
Track not present in AccurateRip database
Copy OK
Track 19
Filename C:\VA - Rare Groove Story (2005) [Flac] {065 192-2}\CD 4\19 - Edee - Make It Last.wav
Pre-gap length 0:00:02.00
Peak level 41.7 %
Extraction speed 5.6 X
Track quality 100.0 %
Test CRC B03028C3
Copy CRC B03028C3
Track not present in AccurateRip database
Copy OK
Track 20
Filename C:\VA - Rare Groove Story (2005) [Flac] {065 192-2}\CD 4\20 - Rupert Holmes - Pina Colada.wav
Pre-gap length 0:00:02.00
Peak level 41.7 %
Extraction speed 4.8 X
Track quality 99.9 %
Test CRC 4C120953
Copy CRC 4C120953
Track not present in AccurateRip database
Copy OK
None of the tracks are present in the AccurateRip database
No errors occurred
End of status report
---- CUETools DB Plugin V2.1.3
[CTDB TOCID: fCazQClRuFl0Nhqr8iiRzkW6AYU-] disk not present in database, Submit result: fCazQClRuFl0Nhqr8iiRzkW6AYU- has been uploaded
==== Log checksum A3DF68BE1A7941C981476F4504CFC16E41EDC279BA0602067289A9F44DAA80E9 ====
 
Содержание индексной карты (.CUE)
REM DATE 2005
REM DISCID 2E127214
REM COMMENT "ExactAudioCopy v1.0b3"
PERFORMER ""
TITLE "Rare Groove Story"
FILE "01 - The Futures - Ain't No Time For Nothing.wav" WAVE
TRACK 01 AUDIO
TITLE "Ain't No Time For Nothing"
PERFORMER "The Futures"
INDEX 01 00:00:00
TRACK 02 AUDIO
TITLE "I've Got To Know"
PERFORMER "Bennie Johnson"
INDEX 00 05:26:35
FILE "02 - Bennie Johnson - I've Got To Know.wav" WAVE
INDEX 01 00:00:00
TRACK 03 AUDIO
TITLE "Do It Again"
PERFORMER "The Staple Singers"
INDEX 00 02:32:60
FILE "03 - The Staple Singers - Do It Again.wav" WAVE
INDEX 01 00:00:00
TRACK 04 AUDIO
TITLE "Do You Ever Think About Me"
PERFORMER "Chuck Mangione"
INDEX 00 04:37:07
FILE "04 - Chuck Mangione - Do You Ever Think About Me.wav" WAVE
INDEX 01 00:00:00
TRACK 05 AUDIO
TITLE "If You Want Me"
PERFORMER "Love Unlimited"
INDEX 00 03:41:74
FILE "05 - Love Unlimited - If You Want Me.wav" WAVE
INDEX 01 00:00:00
TRACK 06 AUDIO
TITLE "Life In The City"
PERFORMER "Melvin Hudson"
INDEX 00 03:44:61
FILE "06 - Melvin Hudson - Life In The City.wav" WAVE
INDEX 01 00:00:00
TRACK 07 AUDIO
TITLE "Love Me"
PERFORMER "Yvonne Elleman"
INDEX 00 03:49:27
FILE "07 - Yvonne Elleman - Love Me.wav" WAVE
INDEX 01 00:00:00
TRACK 08 AUDIO
TITLE "Making Love"
PERFORMER "Lou Raglin"
INDEX 00 03:15:74
FILE "08 - Lou Raglin - Making Love.wav" WAVE
INDEX 01 00:00:00
TRACK 09 AUDIO
TITLE "Yearning For Your Love"
PERFORMER "The Gap Band"
INDEX 00 04:48:12
FILE "09 - The Gap Band - Yearning For Your Love.wav" WAVE
INDEX 01 00:00:00
TRACK 10 AUDIO
TITLE "Don't Let It Go To Your Head"
PERFORMER "Jean Carne"
INDEX 00 05:37:29
FILE "10 - Jean Carne - Don't Let It Go To Your Head.wav" WAVE
INDEX 01 00:00:00
TRACK 11 AUDIO
TITLE "What Goes Around"
PERFORMER "Brenda & Herb"
INDEX 00 04:49:19
FILE "11 - Brenda & Herb - What Goes Around.wav" WAVE
INDEX 01 00:00:00
TRACK 12 AUDIO
TITLE "Feeling Is"
PERFORMER "Emotions"
INDEX 00 03:44:00
FILE "12 - Emotions - Feeling Is.wav" WAVE
INDEX 01 00:00:00
TRACK 13 AUDIO
TITLE "How Could You Break My Heart"
PERFORMER "Bobby Womack"
INDEX 00 03:29:27
FILE "13 - Bobby Womack - How Could You Break My Heart.wav" WAVE
INDEX 01 00:00:00
TRACK 14 AUDIO
TITLE "Annie Mae"
PERFORMER "Natalie Cole"
INDEX 00 03:44:54
FILE "14 - Natalie Cole - Annie Mae.wav" WAVE
INDEX 01 00:00:00
TRACK 15 AUDIO
TITLE "Camp Kutchi Kaia"
PERFORMER "Latoya Jackson"
INDEX 00 03:29:38
FILE "15 - Latoya Jackson - Camp Kutchi Kaia.wav" WAVE
INDEX 01 00:00:00
TRACK 16 AUDIO
TITLE "Deal With That"
PERFORMER "Dee Edwards"
INDEX 00 03:31:45
FILE "16 - Dee Edwards - Deal With That.wav" WAVE
INDEX 01 00:00:00
TRACK 17 AUDIO
TITLE "Someone To Talk To"
PERFORMER "James Brown"
INDEX 00 03:30:01
FILE "17 - James Brown - Someone To Talk To.wav" WAVE
INDEX 01 00:00:00
TRACK 18 AUDIO
TITLE "City Of Brotherly Love"
PERFORMER "Soul Survivors"
INDEX 00 03:29:29
FILE "18 - Soul Survivors - City Of Brotherly Love.wav" WAVE
INDEX 01 00:00:00
TRACK 19 AUDIO
TITLE "Make It Last"
PERFORMER "Edee"
INDEX 00 03:22:00
FILE "19 - Edee - Make It Last.wav" WAVE
INDEX 01 00:00:00
TRACK 20 AUDIO
TITLE "Pina Colada"
PERFORMER "Rupert Holmes"
INDEX 00 03:29:30
FILE "20 - Rupert Holmes - Pina Colada.wav" WAVE
INDEX 01 00:00:00
 
DR LOG
foobar2000 1.1.10 / Dynamic Range Meter 1.1.1
log date: 2016-12-15 07:46:58
--------------------------------------------------------------------------------
Analyzed: Bennie Johnson / Rare Groove Story (1)
Bobby Womack / Rare Groove Story (2)
Brenda & Herb / Rare Groove Story (3)
Chuck Mangione / Rare Groove Story (4)
Dee Edwards / Rare Groove Story (5)
Edee / Rare Groove Story (6)
Emotions / Rare Groove Story (7)
James Brown / Rare Groove Story (8)
Jean Carne / Rare Groove Story (9)
Latoya Jackson / Rare Groove Story (10)
Lou Raglin / Rare Groove Story (11)
Love Unlimited / Rare Groove Story (12)
Melvin Hudson / Rare Groove Story (13)
Natalie Cole / Rare Groove Story (14)
Rupert Holmes / Rare Groove Story (15)
Soul Survivors / Rare Groove Story (16)
The Futures / Rare Groove Story (17)
The Gap Band / Rare Groove Story (18)
The Staple Singers / Rare Groove Story (19)
Yvonne Elleman / Rare Groove Story (20)
--------------------------------------------------------------------------------
DR Peak RMS Duration Track
--------------------------------------------------------------------------------
DR7 -7.59 dB -16.27 dB 2:35 ?-I've Got To Know
DR8 -7.59 dB -18.13 dB 3:47 ?-How Could You Break My Heart
DR7 -7.59 dB -16.50 dB 3:46 ?-What Goes Around
DR12 -7.59 dB -22.01 dB 3:44 ?-Do You Ever Think About Me
DR9 -7.59 dB -18.39 dB 3:32 ?-Deal With That
DR10 -7.59 dB -20.81 dB 3:31 ?-Make It Last
DR9 -7.59 dB -17.72 dB 3:31 ?-Feeling Is
DR6 -7.59 dB -16.14 dB 3:31 ?-Someone To Talk To
DR8 -7.59 dB -17.54 dB 4:51 ?-Don't Let It Go To Your Head
DR10 -7.59 dB -19.61 dB 3:34 ?-Camp Kutchi Kaia
DR7 -7.59 dB -16.72 dB 4:50 ?-Making Love
DR10 -7.59 dB -19.46 dB 3:47 ?-If You Want Me
DR12 -7.59 dB -20.46 dB 3:51 ?-Life In The City
DR8 -7.59 dB -17.20 dB 3:32 ?-Annie Mae
DR8 -7.59 dB -17.99 dB 3:51 ?-Pina Colada
DR8 -7.59 dB -16.92 dB 3:24 ?-City Of Brotherly Love
DR8 -7.59 dB -17.69 dB 5:28 ?-Ain't No Time For Nothing
DR9 -7.59 dB -18.01 dB 5:39 ?-Yearning For Your Love
DR8 -7.59 dB -17.69 dB 4:39 ?-Do It Again
DR6 -7.59 dB -15.11 dB 3:18 ?-Love Me
--------------------------------------------------------------------------------
Number of tracks: 20
Official DR value: DR9
Samplerate: 44100 Hz
Channels: 2
Bits per sample: 16
Bitrate: 928 kbps
Codec: FLAC
================================================================================
 
CD 5
01. Leon Ware – Rockin' You Eternally
02. Tracy Spurlin & George Kerr – If You Could Read My Mind
03. George Howard – Shower You With Love
04. Guinn – Give Everything You Got For Love
05. Tyrone Davis – In The Mood
06. Joshie Jo Armstead – In The Right Place
07. Earth, Wind & Fire – Reasons
08. Club Nouveau – Share Your Love
09. Nayobe – Who Do I Call
10. Debra Laws – Very Special
11. Carl Carlton – This Feeling's Rated X-Tra
12. Aretha Franklin – Day Dreaming
13. Black Ice – Blind Over You
14. Gladys Knight And The Pips – You're Number One (In My Book)
15. The Whispers – I'm The One For You
16. Cloe Martin – It Comes To My Attention
17. Paris – I Choose You
18. Cameo – I Never Knew
19. Major Harris – Love Won't Let Me Wait
20. Skool Boyz – Your Love
 
Лог создания рипа
Exact Audio Copy V1.0 beta 3 from 29. August 2011
EAC extraction logfile from 10. February 2015, 20:16
- / Rare Groove Story
Used drive : hp DVD-RAM UJ8B1 Adapter: 0 ID: 0
Read mode : Secure
Utilize accurate stream : Yes
Defeat audio cache : Yes
Make use of C2 pointers : No
Read offset correction : 6
Overread into Lead-In and Lead-Out : No
Fill up missing offset samples with silence : Yes
Delete leading and trailing silent blocks : No
Null samples used in CRC calculations : Yes
Used interface : Native Win32 interface for Win NT & 2000
Gap handling : Appended to previous track
Used output format : User Defined Encoder
Selected bitrate : 1024 kBit/s
Quality : High
Add ID3 tag : No
Command line compressor : C:\Program Files (x86)\Exact Audio Copy\Flac\flac.exe
Additional command line options : -8 -V -T "artist=%artist%" -T "title=%title%" -T "album=%albumtitle%" -T "date=%year%" -T "tracknumber=%tracknr%" -T "genre=%genre%" %source%
TOC of the extracted CD
Track | Start | Length | Start sector | End sector
---------------------------------------------------------
1 | 0:00.00 | 4:00.04 | 0 | 18003
2 | 4:00.04 | 3:48.32 | 18004 | 35135
3 | 7:48.36 | 3:51.66 | 35136 | 52526
4 | 11:40.27 | 3:45.20 | 52527 | 69421
5 | 15:25.47 | 3:50.72 | 69422 | 86743
6 | 19:16.44 | 3:46.03 | 86744 | 103696
7 | 23:02.47 | 5:03.37 | 103697 | 126458
8 | 28:06.09 | 3:48.37 | 126459 | 143595
9 | 31:54.46 | 4:07.55 | 143596 | 162175
10 | 36:02.26 | 3:47.00 | 162176 | 179200
11 | 39:49.26 | 4:09.71 | 179201 | 197946
12 | 43:59.22 | 3:58.51 | 197947 | 215847
13 | 47:57.73 | 3:34.71 | 215848 | 231968
14 | 51:32.69 | 3:44.01 | 231969 | 248769
15 | 55:16.70 | 4:07.13 | 248770 | 267307
16 | 59:24.08 | 3:29.04 | 267308 | 282986
17 | 62:53.12 | 3:49.13 | 282987 | 300174
18 | 66:42.25 | 3:42.00 | 300175 | 316824
19 | 70:24.25 | 3:45.00 | 316825 | 333699
20 | 74:09.25 | 3:56.07 | 333700 | 351406
Track 1
Filename C:\VA - Rare Groove Story (2005) [Flac] {065 192-2}\CD 5\01 - Leon Ware - Rocking You Eternally.wav
Pre-gap length 0:00:02.00
Peak level 77.4 %
Extraction speed 2.6 X
Track quality 100.0 %
Test CRC 612F8355
Copy CRC 612F8355
Track not present in AccurateRip database
Copy OK
Track 2
Filename C:\VA - Rare Groove Story (2005) [Flac] {065 192-2}\CD 5\02 - Tracy Spurlin - If You Could Read My Mind.wav
Pre-gap length 0:00:02.00
Peak level 77.6 %
Extraction speed 2.6 X
Track quality 99.9 %
Test CRC EFF95153
Copy CRC EFF95153
Track not present in AccurateRip database
Copy OK
Track 3
Filename C:\VA - Rare Groove Story (2005) [Flac] {065 192-2}\CD 5\03 - George Howard - Shower You With Love.wav
Pre-gap length 0:00:02.00
Peak level 77.7 %
Extraction speed 3.3 X
Track quality 100.0 %
Test CRC F02B02A8
Copy CRC F02B02A8
Track not present in AccurateRip database
Copy OK
Track 4
Filename C:\VA - Rare Groove Story (2005) [Flac] {065 192-2}\CD 5\04 - Guinn - Give Everything.wav
Pre-gap length 0:00:02.00
Peak level 77.7 %
Extraction speed 3.5 X
Track quality 100.0 %
Test CRC 631C4296
Copy CRC 631C4296
Track not present in AccurateRip database
Copy OK
Track 5
Filename C:\VA - Rare Groove Story (2005) [Flac] {065 192-2}\CD 5\05 - Tyrone Davis - In The Mood.wav
Pre-gap length 0:00:02.00
Peak level 77.7 %
Extraction speed 3.7 X
Track quality 100.0 %
Test CRC 7CCF06DC
Copy CRC 7CCF06DC
Track not present in AccurateRip database
Copy OK
Track 6
Filename C:\VA - Rare Groove Story (2005) [Flac] {065 192-2}\CD 5\06 - Joshie Jo Armstead - In The Right Place.wav
Pre-gap length 0:00:02.00
Peak level 77.6 %
Extraction speed 3.9 X
Track quality 100.0 %
Test CRC A0B83CB0
Copy CRC A0B83CB0
Track not present in AccurateRip database
Copy OK
Track 7
Filename C:\VA - Rare Groove Story (2005) [Flac] {065 192-2}\CD 5\07 - Earth Wind & Fire - Reasons.wav
Pre-gap length 0:00:02.00
Peak level 77.7 %
Extraction speed 4.2 X
Track quality 100.0 %
Test CRC EB0D7455
Copy CRC EB0D7455
Track not present in AccurateRip database
Copy OK
Track 8
Filename C:\VA - Rare Groove Story (2005) [Flac] {065 192-2}\CD 5\08 - Club Nouveau - Share Your Love.wav
Pre-gap length 0:00:02.00
Peak level 77.4 %
Extraction speed 4.2 X
Track quality 100.0 %
Test CRC 99ECDC22
Copy CRC 99ECDC22
Track not present in AccurateRip database
Copy OK
Track 9
Filename C:\VA - Rare Groove Story (2005) [Flac] {065 192-2}\CD 5\09 - Nayobe - Who Do I Call.wav
Pre-gap length 0:00:02.00
Peak level 77.6 %
Extraction speed 4.4 X
Track quality 100.0 %
Test CRC 0E1703F8
Copy CRC 0E1703F8
Track not present in AccurateRip database
Copy OK
Track 10
Filename C:\VA - Rare Groove Story (2005) [Flac] {065 192-2}\CD 5\10 - Debra Laws - Very Special.wav
Pre-gap length 0:00:02.00
Peak level 77.6 %
Extraction speed 4.5 X
Track quality 100.0 %
Test CRC C508B614
Copy CRC C508B614
Track not present in AccurateRip database
Copy OK
Track 11
Filename C:\VA - Rare Groove Story (2005) [Flac] {065 192-2}\CD 5\11 - Carl Carlton - Feeling Rated X.wav
Pre-gap length 0:00:02.00
Peak level 77.7 %
Extraction speed 4.7 X
Track quality 100.0 %
Test CRC 8F6FDDA3
Copy CRC 8F6FDDA3
Track not present in AccurateRip database
Copy OK
Track 12
Filename C:\VA - Rare Groove Story (2005) [Flac] {065 192-2}\CD 5\12 - Aretha Franklin - Day Dreaming.wav
Pre-gap length 0:00:02.00
Peak level 77.6 %
Extraction speed 4.0 X
Track quality 99.9 %
Test CRC B9B84B14
Copy CRC B9B84B14
Track not present in AccurateRip database
Copy OK
Track 13
Filename C:\VA - Rare Groove Story (2005) [Flac] {065 192-2}\CD 5\13 - Black Ice - Blind Over You.wav
Pre-gap length 0:00:02.00
Peak level 77.5 %
Extraction speed 3.4 X
Track quality 99.9 %
Test CRC 6980E431
Copy CRC 6980E431
Track not present in AccurateRip database
Copy OK
Track 14
Filename C:\VA - Rare Groove Story (2005) [Flac] {065 192-2}\CD 5\14 - Gladys Knight & The Pips - Your Number One.wav
Pre-gap length 0:00:02.00
Peak level 77.5 %
Extraction speed 2.8 X
Track quality 99.8 %
Test CRC 782DCBF1
Copy CRC 782DCBF1
Track not present in AccurateRip database
Copy OK
Track 15
Filename C:\VA - Rare Groove Story (2005) [Flac] {065 192-2}\CD 5\15 - The Whispers - I'm The One For You.wav
Pre-gap length 0:00:02.00
Peak level 77.6 %
Extraction speed 2.0 X
Track quality 99.6 %
Test CRC 2437ED27
Copy CRC 2437ED27
Track not present in AccurateRip database
Copy OK
Track 16
Filename C:\VA - Rare Groove Story (2005) [Flac] {065 192-2}\CD 5\16 - Cloe Martin - It Comes To My Attention.wav
Pre-gap length 0:00:02.00
Peak level 77.5 %
Extraction speed 2.6 X
Track quality 99.7 %
Test CRC 70F173F4
Copy CRC 70F173F4
Track not present in AccurateRip database
Copy OK
Track 17
Filename C:\VA - Rare Groove Story (2005) [Flac] {065 192-2}\CD 5\17 - Paris - I Choose You.wav
Pre-gap length 0:00:02.00
Peak level 77.6 %
Extraction speed 2.2 X
Track quality 99.6 %
Test CRC A2728360
Copy CRC A2728360
Track not present in AccurateRip database
Copy OK
Track 18
Filename C:\VA - Rare Groove Story (2005) [Flac] {065 192-2}\CD 5\18 - Cameo - I Never Knew.wav
Pre-gap length 0:00:02.00
Peak level 77.5 %
Extraction speed 2.7 X
Track quality 99.7 %
Test CRC 396837BA
Copy CRC 396837BA
Track not present in AccurateRip database
Copy OK
Track 19
Filename C:\VA - Rare Groove Story (2005) [Flac] {065 192-2}\CD 5\19 - Major Harris - Love Won't Let Me Wait.wav
Pre-gap length 0:00:02.00
Peak level 77.6 %
Extraction speed 2.5 X
Track quality 99.7 %
Test CRC D380830A
Copy CRC D380830A
Track not present in AccurateRip database
Copy OK
Track 20
Filename C:\VA - Rare Groove Story (2005) [Flac] {065 192-2}\CD 5\20 - The Skool Boys - Your Love.wav
Pre-gap length 0:00:02.00
Peak level 77.5 %
Extraction speed 3.2 X
Track quality 99.8 %
Test CRC 05505078
Copy CRC 05505078
Track not present in AccurateRip database
Copy OK
None of the tracks are present in the AccurateRip database
No errors occurred
End of status report
---- CUETools DB Plugin V2.1.3
[CTDB TOCID: jCJBVcB3cndBBiUNF0jCgJfmS0E-] disk not present in database, Submit result: jCJBVcB3cndBBiUNF0jCgJfmS0E- has been uploaded
==== Log checksum 2ABC8D936E6F953EEC519E870DB5F7678870B3480521069CC3C12748B353CFD2 ====
 
Содержание индексной карты (.CUE)
REM DATE 2005
REM DISCID 28124D14
REM COMMENT "ExactAudioCopy v1.0b3"
PERFORMER ""
TITLE "Rare Groove Story"
FILE "01 - Leon Ware - Rocking You Eternally.wav" WAVE
TRACK 01 AUDIO
TITLE "Rocking You Eternally"
PERFORMER "Leon Ware"
INDEX 01 00:00:00
TRACK 02 AUDIO
TITLE "If You Could Read My Mind"
PERFORMER "Tracy Spurlin"
INDEX 00 03:58:04
FILE "02 - Tracy Spurlin - If You Could Read My Mind.wav" WAVE
INDEX 01 00:00:00
TRACK 03 AUDIO
TITLE "Shower You With Love"
PERFORMER "George Howard"
INDEX 00 03:46:32
FILE "03 - George Howard - Shower You With Love.wav" WAVE
INDEX 01 00:00:00
TRACK 04 AUDIO
TITLE "Give Everything"
PERFORMER "Guinn"
INDEX 00 03:49:66
FILE "04 - Guinn - Give Everything.wav" WAVE
INDEX 01 00:00:00
TRACK 05 AUDIO
TITLE "In The Mood"
PERFORMER "Tyrone Davis"
INDEX 00 03:43:20
FILE "05 - Tyrone Davis - In The Mood.wav" WAVE
INDEX 01 00:00:00
TRACK 06 AUDIO
TITLE "In The Right Place"
PERFORMER "Joshie Jo Armstead"
INDEX 00 03:48:72
FILE "06 - Joshie Jo Armstead - In The Right Place.wav" WAVE
INDEX 01 00:00:00
TRACK 07 AUDIO
TITLE "Reasons"
PERFORMER "Earth Wind & Fire"
INDEX 00 03:44:03
FILE "07 - Earth Wind & Fire - Reasons.wav" WAVE
INDEX 01 00:00:00
TRACK 08 AUDIO
TITLE "Share Your Love"
PERFORMER "Club Nouveau"
INDEX 00 05:01:37
FILE "08 - Club Nouveau - Share Your Love.wav" WAVE
INDEX 01 00:00:00
TRACK 09 AUDIO
TITLE "Who Do I Call"
PERFORMER "Nayobe"
INDEX 00 03:46:37
FILE "09 - Nayobe - Who Do I Call.wav" WAVE
INDEX 01 00:00:00
TRACK 10 AUDIO
TITLE "Very Special"
PERFORMER "Debra Laws"
INDEX 00 04:05:55
FILE "10 - Debra Laws - Very Special.wav" WAVE
INDEX 01 00:00:00
TRACK 11 AUDIO
TITLE "Feeling Rated X"
PERFORMER "Carl Carlton"
INDEX 00 03:45:00
FILE "11 - Carl Carlton - Feeling Rated X.wav" WAVE
INDEX 01 00:00:00
TRACK 12 AUDIO
TITLE "Day Dreaming"
PERFORMER "Aretha Franklin"
INDEX 00 04:07:71
FILE "12 - Aretha Franklin - Day Dreaming.wav" WAVE
INDEX 01 00:00:00
TRACK 13 AUDIO
TITLE "Blind Over You"
PERFORMER "Black Ice"
INDEX 00 03:56:51
FILE "13 - Black Ice - Blind Over You.wav" WAVE
INDEX 01 00:00:00
TRACK 14 AUDIO
TITLE "Your Number One"
PERFORMER "Gladys Knight & The Pips"
INDEX 00 03:32:71
FILE "14 - Gladys Knight & The Pips - Your Number One.wav" WAVE
INDEX 01 00:00:00
TRACK 15 AUDIO
TITLE "I'm The One For You"
PERFORMER "The Whispers"
INDEX 00 03:42:01
FILE "15 - The Whispers - I'm The One For You.wav" WAVE
INDEX 01 00:00:00
TRACK 16 AUDIO
TITLE "It Comes To My Attention"
PERFORMER "Cloe Martin"
INDEX 00 04:05:13
FILE "16 - Cloe Martin - It Comes To My Attention.wav" WAVE
INDEX 01 00:00:00
TRACK 17 AUDIO
TITLE "I Choose You"
PERFORMER "Paris"
INDEX 00 03:27:04
FILE "17 - Paris - I Choose You.wav" WAVE
INDEX 01 00:00:00
TRACK 18 AUDIO
TITLE "I Never Knew"
PERFORMER "Cameo"
INDEX 00 03:47:13
FILE "18 - Cameo - I Never Knew.wav" WAVE
INDEX 01 00:00:00
TRACK 19 AUDIO
TITLE "Love Won't Let Me Wait"
PERFORMER "Major Harris"
INDEX 00 03:40:00
FILE "19 - Major Harris - Love Won't Let Me Wait.wav" WAVE
INDEX 01 00:00:00
TRACK 20 AUDIO
TITLE "Your Love"
PERFORMER "The Skool Boys"
INDEX 00 03:43:00
FILE "20 - The Skool Boys - Your Love.wav" WAVE
INDEX 01 00:00:00
 
DR LOG
foobar2000 1.1.10 / Dynamic Range Meter 1.1.1
log date: 2016-12-15 07:48:06
--------------------------------------------------------------------------------
Analyzed: Aretha Franklin / Rare Groove Story (1)
Black Ice / Rare Groove Story (2)
Cameo / Rare Groove Story (3)
Carl Carlton / Rare Groove Story (4)
Cloe Martin / Rare Groove Story (5)
Club Nouveau / Rare Groove Story (6)
Debra Laws / Rare Groove Story (7)
Earth Wind & Fire / Rare Groove Story (8)
George Howard / Rare Groove Story (9)
Gladys Knight & The Pips / Rare Groove Story (10)
Guinn / Rare Groove Story (11)
Joshie Jo Armstead / Rare Groove Story (12)
Leon Ware / Rare Groove Story (13)
Major Harris / Rare Groove Story (14)
Nayobe / Rare Groove Story (15)
Paris / Rare Groove Story (16)
The Skool Boys / Rare Groove Story (17)
The Whispers / Rare Groove Story (18)
Tracy Spurlin / Rare Groove Story (19)
Tyrone Davis / Rare Groove Story (20)
--------------------------------------------------------------------------------
DR Peak RMS Duration Track
--------------------------------------------------------------------------------
DR8 -2.20 dB -13.44 dB 3:59 ?-Day Dreaming
DR8 -2.20 dB -12.56 dB 3:35 ?-Blind Over You
DR9 -2.20 dB -13.20 dB 3:42 ?-I Never Knew
DR8 -2.19 dB -12.52 dB 4:10 ?-Feeling Rated X
DR9 -2.21 dB -12.92 dB 3:29 ?-It Comes To My Attention
DR9 -2.22 dB -12.83 dB 3:48 ?-Share Your Love
DR10 -2.20 dB -13.50 dB 3:47 ?-Very Special
DR8 -2.19 dB -12.59 dB 5:03 ?-Reasons
DR9 -2.18 dB -13.12 dB 3:52 ?-Shower You With Love
DR10 -2.21 dB -14.25 dB 3:44 ?-Your Number One
DR10 -2.19 dB -13.14 dB 3:45 ?-Give Everything
DR10 -2.20 dB -13.96 dB 3:46 ?-In The Right Place
DR12 -2.21 dB -15.48 dB 4:00 ?-Rocking You Eternally
DR8 -2.20 dB -12.82 dB 3:45 ?-Love Won't Let Me Wait
DR10 -2.20 dB -13.54 dB 4:08 ?-Who Do I Call
DR9 -2.20 dB -13.32 dB 3:49 ?-I Choose You
DR12 -2.21 dB -16.08 dB 3:56 ?-Your Love
DR9 -2.19 dB -12.19 dB 4:07 ?-I'm The One For You
DR11 -2.20 dB -14.79 dB 3:48 ?-If You Could Read My Mind
DR10 -2.19 dB -14.78 dB 3:51 ?-In The Mood
--------------------------------------------------------------------------------
Number of tracks: 20
Official DR value: DR9
Samplerate: 44100 Hz
Channels: 2
Bits per sample: 16
Bitrate: 829 kbps
Codec: FLAC
================================================================================
Приватный:
Нет (DHT включён)
Размер:
2.37 Гб (2,548,227,795 байт) » файлов: 120
Участники:
0 раздают, 0 качают (0 участников всего)
Внешние участники:
5 раздают, 1 качают (6 участников всего) [ Обновить ]
Есть вопросы - пишите личное сообщение пользователю M0p94ok.
12:25
64
Нет комментариев. Ваш будет первым!