Поиск

(Jazz-Funk, Rhythm & Blues, Disco) [CD] Various Artists - Big Deal! Weinberger Funk Library UK 1975-1979 - 2016, FLAC (image+.cue), lossless

(Jazz-Funk, Rhythm & Blues, Disco) [CD] Various Artists - Big Deal! Weinberger Funk Library UK 1975-1979 - 2016, FLAC (image+.cue), lossless
Треклист:
Various Artists / Big Deal! Weinberger Funk Library UK 1975-1979
Жанр: Jazz-Funk, Rhythm & Blues, Disco
Носитель: CD
Страна-производитель диска (релиза): Germany
Год издания: 2016
Издатель (лейбл): Sonorama Records
Номер по каталогу: Sonorama C-96
Страна исполнителя (группы): UK
Аудиокодек: FLAC (*.flac)
Тип рипа: image+.cue
Битрейт аудио: lossless
Продолжительность: 00:44:37
Источник (релизер): собственный рип
Наличие сканов в содержимом раздачи: да
Треклист:
01. Big Deal! - Midas Touch 2:40
02. Over And Out - Toni Campo 3:16
03. Riff Raff - Martin Kershaw 2:48
04. Rhythm-Rhythm-Rhythm - Reginald Wale 2:53
05. Integration - Trevor Bastow 3:24
06. Point Blank - Toni Campo 2:00
07. Soul Punch - Piet Van Meren 3:38
08. Tooty Flooty - Toni Campo 1:40
09. Make No Bones - Midas Touch 2:22
10. Centrefold - Toni Campo 3:18
11. Knock On Wood - Sidney Dale 2:46
12. Gone-Gone-Gone - Reginald Wale 3:36
13. Do The Stumble - Toni Campo 2:06
14. Hydrogene - Trevor Bastow 2:52
15. Focus On The Middle East - Ishfahan Farid 2:26
16. Santaren - Vick Flick 2:42
 
Лог создания рипа
Exact Audio Copy V1.1 from 23. June 2015
Отчёт EAC об извлечении, выполненном 8. ноября 2016, 17:18
Various Artists / Big Deal! Weinberger Funk Library UK 1975-1979
Дисковод: ASUS DRW-24B3ST Adapter: 0 ID: 0
Режим чтения : Достоверность
Использование точного потока : Да
Отключение кэша аудио : Да
Использование указателей C2 : Нет
Коррекция смещения при чтении : 6
Способность читать области Lead-in и Lead-out : Нет
Заполнение пропущенных сэмплов тишиной : Да
Удаление блоков с тишиной в начале и конце : Нет
При вычислениях CRC использовались нулевые сэмплы : Да
Интерфейс : Установленный внешний ASPI-интерфейс
Выходной формат : Пользовательский кодировщик
Выбранный битрейт : 1024 kBit/s
Качество : Высокий
Добавление ID3-тега : Нет
Утилита сжатия : C:\Program Files (x86)\Exact Audio Copy\FLAC\FLAC.EXE
Дополнительные параметры : -6 -V -T "ARTIST=%artist%" -T "TITLE=%title%" -T "ALBUM=%albumtitle%" -T "DATE=%year%" -T "TRACKNUMBER=%tracknr%" -T "GENRE=%genre%" -T "COMMENT=%comment%" -T "BAND=%albuminterpret%" -T "ALBUMARTIST=%albuminterpret%" -T "COMPOSER=%composer%" %haslyrics%--tag-from-file=LYRICS="%lyricsfile%"%haslyrics% -T "DISCNUMBER=%cdnumber%" -T "TOTALDISCS=%totalcds%" -T "TOTALTRACKS=%numtracks%" %hascover%--picture="%coverfile%"%hascover% %source% -o %dest%
TOC извлечённого CD
Трек | Старт | Длительность | Начальный сектор | Конечный сектор
---------------------------------------------------------------------
1 | 0:00.00 | 2:41.37 | 0 | 12111
2 | 2:41.37 | 3:15.37 | 12112 | 26773
3 | 5:56.74 | 2:47.37 | 26774 | 39335
4 | 8:44.36 | 2:57.00 | 39336 | 52610
5 | 11:41.36 | 3:23.37 | 52611 | 67872
6 | 15:04.73 | 2:00.37 | 67873 | 76909
7 | 17:05.35 | 3:38.00 | 76910 | 93259
8 | 20:43.35 | 1:42.00 | 93260 | 100909
9 | 22:25.35 | 2:24.56 | 100910 | 111765
10 | 24:50.16 | 3:17.37 | 111766 | 126577
11 | 28:07.53 | 2:47.37 | 126578 | 139139
12 | 30:55.15 | 3:36.37 | 139140 | 155376
13 | 34:31.52 | 2:05.00 | 155377 | 164751
14 | 36:36.52 | 2:52.00 | 164752 | 177651
15 | 39:28.52 | 2:27.46 | 177652 | 188722
16 | 41:56.23 | 2:41.00 | 188723 | 200797
Характеристики диапазона извлечения и сообщения об ошибках
Выбранный диапазон
Имя файла C:\Torrents - my\Various Artists - 2016 - Big Deal! Weinberger Funk Library UK 1975-1979\Various Artists - Big Deal! Weinberger Funk Library UK 1975-1979.wav
Пиковый уровень 100.0 %
Скорость извлечения 8.1 X
Качество диапазона 100.0 %
CRC теста DF569CC5
CRC копии DF569CC5
Копирование... OK
Ошибок не произошло
AccurateRip: сводка
Трек 1 отсутствует в базе данных
Трек 2 отсутствует в базе данных
Трек 3 отсутствует в базе данных
Трек 4 отсутствует в базе данных
Трек 5 отсутствует в базе данных
Трек 6 отсутствует в базе данных
Трек 7 отсутствует в базе данных
Трек 8 отсутствует в базе данных
Трек 9 отсутствует в базе данных
Трек 10 отсутствует в базе данных
Трек 11 отсутствует в базе данных
Трек 12 отсутствует в базе данных
Трек 13 отсутствует в базе данных
Трек 14 отсутствует в базе данных
Трек 15 отсутствует в базе данных
Трек 16 отсутствует в базе данных
Ни одного трека нет в базе AccurateRip
Конец отчёта
==== Контрольная сумма отчёта 4AE4631018AD0529FC018D63825A44A91976CEE4020483102E2EE03748ECE572 ====
Приватный:
Нет (DHT включён)
Размер:
341.36 Мб (357,947,088 байт) » файлов: 9
Участники:
0 раздают, 0 качают (0 участников всего)
Внешние участники:
2 раздают, 1 качают (3 участников всего) [ Обновить ]
Есть вопросы - пишите личное сообщение пользователю M0p94ok.
12:17
60
Нет комментариев. Ваш будет первым!