Поиск

(Soul) [CD] VA - Smooth Vocal Music For Small Rooms - 2002, FLAC (tracks+.cue), lossless

(Soul) [CD] VA - Smooth Vocal Music For Small Rooms - 2002, FLAC (tracks+.cue), lossless
Треклист:
Smooth Vocal Music For Small Rooms
Жанр: Soul
Носитель: CD
Страна-производитель диска (релиза): Canada
Год издания: 2002
Издатель (лейбл): Warner Music Canada
Номер по каталогу: WTVD48081
Аудиокодек: FLAC (*.flac)
Тип рипа: tracks+.cue
Битрейт аудио: lossless
Продолжительность: 1:09:41.
Источник (релизер): clustert
Наличие сканов в содержимом раздачи: да
Треклист:
01. Sade / Smooth Operator [0:04:17.37]
02. Grover Washington Jr. & Bill Withers / Just The Two Of Us [0:03:59.03]
03. Toni Braxton / Un-Break My Heart [0:04:31.20]
04. Patti Austin & James Ingram / Baby, Come To Me [0:03:34.67]
05. Smokey Robinson / Being With You [0:04:00.48]
06. Brenda Russell / Piano In The Dark [0:04:04.30]
07. Brian McKnight / Crazy Love [0:04:04.02]
08. Al Jarreau / We're In This Love Together [0:03:47.23]
09. Erykah Badu / On And On [0:03:48.25]
10. Keith Sweat / Twisted [0:04:32.02]
11. Earth, Wind & Fire / After The Love Has Gone [0:04:26.60]
12. George Benson / This Masquerade [0:03:18.63]
13. Eric Benet / Spend My Life With You [0:04:37.27]
14. Sergio Mendes / Never Gonna Let You Go [0:04:17.50]
15. Al B. Sure / Nite And Day [0:03:59.15]
16. Peabo Bryson / If Ever You're In My Arms Again [0:04:15.10]
17. Vanessa Williams / Save The Best For Last [0:03:39.60]
 
Лог создания рипа
Exact Audio Copy V1.0 beta 3 from 29. August 2011
Отчёт EAC об извлечении, выполненном 28. октября 2016, 21:12
VA / Smooth Vocal Music For Small Rooms
Дисковод: ASUS DRW-1814BLT Adapter: 4 ID: 0
Режим чтения : Достоверность
Использование точного потока : Да
Отключение кэша аудио : Да
Использование указателей C2 : Нет
Коррекция смещения при чтении : 6
Способность читать области Lead-in и Lead-out : Нет
Заполнение пропущенных сэмплов тишиной : Да
Удаление блоков с тишиной в начале и конце : Нет
При вычислениях CRC использовались нулевые сэмплы : Да
Интерфейс : Встроенный Win32-интерфейс для Win NT/2000
Обработка зазоров : Добавлено к предыдущему треку
Выходной формат : Пользовательский кодировщик
Выбранный битрейт : 128 kBit/s
Качество : Высокий
Добавление ID3-тега : Нет
Утилита сжатия : C:\Program Files\Exact Audio Copy\Flac\flac.exe
Дополнительные параметры : -V -8 -T "Genre=%genre%" -T "Artist=%artist%" -T "Title=%title%" -T "Album=%albumtitle%" -T "Date=%year%" -T "Tracknumber=%tracknr%" -T "Comment=EAC1.0b2 FLAC -8" %source%
TOC извлечённого CD
Трек | Старт | Длительность | Начальный сектор | Конечный сектор
---------------------------------------------------------------------
1 | 0:00.00 | 4:17.37 | 0 | 19311
2 | 4:17.37 | 3:59.03 | 19312 | 37239
3 | 8:16.40 | 4:31.20 | 37240 | 57584
4 | 12:47.60 | 3:34.67 | 57585 | 73701
5 | 16:22.52 | 4:00.48 | 73702 | 91749
6 | 20:23.25 | 4:04.30 | 91750 | 110079
7 | 24:27.55 | 4:04.02 | 110080 | 128381
8 | 28:31.57 | 3:47.23 | 128382 | 145429
9 | 32:19.05 | 3:48.25 | 145430 | 162554
10 | 36:07.30 | 4:32.02 | 162555 | 182956
11 | 40:39.32 | 4:26.60 | 182957 | 202966
12 | 45:06.17 | 3:18.63 | 202967 | 217879
13 | 48:25.05 | 4:37.27 | 217880 | 238681
14 | 53:02.32 | 4:17.50 | 238682 | 258006
15 | 57:20.07 | 3:59.15 | 258007 | 275946
16 | 61:19.22 | 4:15.10 | 275947 | 295081
17 | 65:34.32 | 3:39.60 | 295082 | 311566
Трек 1
Имя файла R:\Раздача 68\VA - Smooth Vocal Music For Small Rooms - 2002\01 Smooth Operator .wav
Длина предзазора 0:00:02.00
Пиковый уровень 99.0 %
Скорость извлечения 3.0 X
Качество трека 100.0 %
CRC теста A8ED9953
CRC копии A8ED9953
Точное извлечение (достоверность 4) [303080B6] (AR v1)
Копирование... OK
Трек 2
Имя файла R:\Раздача 68\VA - Smooth Vocal Music For Small Rooms - 2002\02 Just The Two Of Us .wav
Длина предзазора 0:00:01.47
Пиковый уровень 98.5 %
Скорость извлечения 1.9 X
Качество трека 99.9 %
CRC теста 8DF52E40
CRC копии 8DF52E40
Точное извлечение (достоверность 4) [464C889E] (AR v1)
Копирование... OK
Трек 3
Имя файла R:\Раздача 68\VA - Smooth Vocal Music For Small Rooms - 2002\03 Un-Break My Heart .wav
Длина предзазора 0:00:01.20
Пиковый уровень 97.0 %
Скорость извлечения 2.2 X
Качество трека 99.9 %
CRC теста 43181CEB
CRC копии 43181CEB
Точное извлечение (достоверность 3) [173A05F9] (AR v1)
Копирование... OK
Трек 4
Имя файла R:\Раздача 68\VA - Smooth Vocal Music For Small Rooms - 2002\04 Baby, Come To Me .wav
Пиковый уровень 97.4 %
Скорость извлечения 3.7 X
Качество трека 100.0 %
CRC теста DB09B920
CRC копии DB09B920
Точное извлечение (достоверность 4) [14CB34C5] (AR v1)
Копирование... OK
Трек 5
Имя файла R:\Раздача 68\VA - Smooth Vocal Music For Small Rooms - 2002\05 Being With You .wav
Пиковый уровень 97.3 %
Скорость извлечения 4.0 X
Качество трека 100.0 %
CRC теста E2F575F3
CRC копии E2F575F3
Точное извлечение (достоверность 4) [FD440FF7] (AR v1)
Копирование... OK
Трек 6
Имя файла R:\Раздача 68\VA - Smooth Vocal Music For Small Rooms - 2002\06 Piano In The Dark .wav
Длина предзазора 0:00:01.53
Пиковый уровень 94.2 %
Скорость извлечения 4.3 X
Качество трека 100.0 %
CRC теста 7606E30C
CRC копии 7606E30C
Точное извлечение (достоверность 4) [85A3F70E] (AR v1)
Копирование... OK
Трек 7
Имя файла R:\Раздача 68\VA - Smooth Vocal Music For Small Rooms - 2002\07 Crazy Love .wav
Длина предзазора 0:00:01.45
Пиковый уровень 84.2 %
Скорость извлечения 2.6 X
Качество трека 99.9 %
CRC теста 8EA443A7
CRC копии 8EA443A7
Точное извлечение (достоверность 4) [5977C813] (AR v1)
Копирование... OK
Трек 8
Имя файла R:\Раздача 68\VA - Smooth Vocal Music For Small Rooms - 2002\08 We're In This Love Together .wav
Длина предзазора 0:00:01.02
Пиковый уровень 94.8 %
Скорость извлечения 4.6 X
Качество трека 100.0 %
CRC теста 69AC5D83
CRC копии 69AC5D83
Точное извлечение (достоверность 4) [9184657D] (AR v1)
Копирование... OK
Трек 9
Имя файла R:\Раздача 68\VA - Smooth Vocal Music For Small Rooms - 2002\09 On And On .wav
Длина предзазора 0:00:02.15
Пиковый уровень 91.6 %
Скорость извлечения 4.8 X
Качество трека 100.0 %
CRC теста 6098F241
CRC копии 6098F241
Точное извлечение (достоверность 4) [E2896AC7] (AR v1)
Копирование... OK
Трек 10
Имя файла R:\Раздача 68\VA - Smooth Vocal Music For Small Rooms - 2002\10 Twisted .wav
Длина предзазора 0:00:01.60
Пиковый уровень 95.7 %
Скорость извлечения 5.1 X
Качество трека 100.0 %
CRC теста 8C16EEEB
CRC копии 8C16EEEB
Точное извлечение (достоверность 4) [AFC2F0D1] (AR v1)
Копирование... OK
Трек 11
Имя файла R:\Раздача 68\VA - Smooth Vocal Music For Small Rooms - 2002\11 After The Love Has Gone .wav
Длина предзазора 0:00:01.40
Пиковый уровень 100.0 %
Скорость извлечения 5.2 X
Качество трека 100.0 %
CRC теста A9A5E9FE
CRC копии A9A5E9FE
Точное извлечение (достоверность 4) [EDE37EA3] (AR v1)
Копирование... OK
Трек 12
Имя файла R:\Раздача 68\VA - Smooth Vocal Music For Small Rooms - 2002\12 This Masquerade .wav
Длина предзазора 0:00:01.52
Пиковый уровень 95.7 %
Скорость извлечения 3.0 X
Качество трека 99.9 %
CRC теста DFE30FC8
CRC копии DFE30FC8
Точное извлечение (достоверность 4) [5516ADD6] (AR v1)
Копирование... OK
Трек 13
Имя файла R:\Раздача 68\VA - Smooth Vocal Music For Small Rooms - 2002\13 Spend My Life With You .wav
Длина предзазора 0:00:01.10
Пиковый уровень 79.2 %
Скорость извлечения 3.8 X
Качество трека 100.0 %
CRC теста 44151B19
CRC копии 44151B19
Точное извлечение (достоверность 4) [59903DDA] (AR v1)
Копирование... OK
Трек 14
Имя файла R:\Раздача 68\VA - Smooth Vocal Music For Small Rooms - 2002\14 Never Gonna Let You Go .wav
Длина предзазора 0:00:01.40
Пиковый уровень 94.0 %
Скорость извлечения 5.7 X
Качество трека 100.0 %
CRC теста 979618B7
CRC копии 979618B7
Точное извлечение (достоверность 5) [70B68D85] (AR v1)
Копирование... OK
Трек 15
Имя файла R:\Раздача 68\VA - Smooth Vocal Music For Small Rooms - 2002\15 Nite And Day .wav
Длина предзазора 0:00:01.40
Пиковый уровень 98.4 %
Скорость извлечения 5.8 X
Качество трека 100.0 %
CRC теста 1046AC3A
CRC копии 1046AC3A
Точное извлечение (достоверность 4) [81306B0B] (AR v1)
Копирование... OK
Трек 16
Имя файла R:\Раздача 68\VA - Smooth Vocal Music For Small Rooms - 2002\16 If Ever You're In My Arms Again .wav
Длина предзазора 0:00:01.25
Пиковый уровень 94.0 %
Скорость извлечения 6.0 X
Качество трека 100.0 %
CRC теста 662E00E3
CRC копии 662E00E3
Точное извлечение (достоверность 4) [09B57E2E] (AR v1)
Копирование... OK
Трек 17
Имя файла R:\Раздача 68\VA - Smooth Vocal Music For Small Rooms - 2002\17 Save The Best For Last .wav
Пиковый уровень 86.6 %
Скорость извлечения 3.5 X
Качество трека 99.9 %
CRC теста 14A488AF
CRC копии 14A488AF
Точное извлечение (достоверность 4) [A9E53F90] (AR v1)
Копирование... OK
Все треки извлечены точно
Ошибок не произошло
Конец отчёта
==== Контрольная сумма отчёта F97C04319DA9BD4778299DEAB6E43CB0BF8ACD0A48DB65A0AF5DFC159F515357 ====
 
Содержание индексной карты (.CUE)
REM GENRE Soul
REM DATE 2002
REM DISCID 10103A11
REM COMMENT "ExactAudioCopy v1.0b3"
PERFORMER "VA"
TITLE "Smooth Vocal Music For Small Rooms"
FILE "01 Smooth Operator .wav" WAVE
TRACK 01 AUDIO
TITLE "Smooth Operator"
PERFORMER "Sade"
ISRC GAQLB8400016
INDEX 01 00:00:00
TRACK 02 AUDIO
TITLE "Just The Two Of Us"
PERFORMER "Grover Washington Jr. & Bill Withers"
ISRC H2KM18000395
INDEX 00 04:15:65
FILE "02 Just The Two Of Us .wav" WAVE
INDEX 01 00:00:00
TRACK 03 AUDIO
TITLE "Un-Break My Heart"
PERFORMER "Toni Braxton"
ISRC H2D@29600015
INDEX 00 03:57:58
FILE "03 Un-Break My Heart .wav" WAVE
INDEX 01 00:00:00
FILE "04 Baby, Come To Me .wav" WAVE
TRACK 04 AUDIO
TITLE "Baby, Come To Me"
PERFORMER "Patti Austin & James Ingram"
ISRC H2I319900084
INDEX 01 00:00:00
FILE "05 Being With You .wav" WAVE
TRACK 05 AUDIO
TITLE "Being With You"
PERFORMER "Smokey Robinson"
ISRC H2EO18100484
INDEX 01 00:00:00
TRACK 06 AUDIO
TITLE "Piano In The Dark"
PERFORMER "Brenda Russell"
INDEX 00 03:58:70
FILE "06 Piano In The Dark .wav" WAVE
INDEX 01 00:00:00
TRACK 07 AUDIO
TITLE "Crazy Love"
PERFORMER "Brian McKnight"
INDEX 00 04:02:60
FILE "07 Crazy Love .wav" WAVE
INDEX 01 00:00:00
TRACK 08 AUDIO
TITLE "We're In This Love Together"
PERFORMER "Al Jarreau"
ISRC H2OB18100013
INDEX 00 04:03:00
FILE "08 We're In This Love Together .wav" WAVE
INDEX 01 00:00:00
TRACK 09 AUDIO
TITLE "On And On"
PERFORMER "Erykah Badu"
ISRC H2Ln19700556
INDEX 00 03:45:08
FILE "09 On And On .wav" WAVE
INDEX 01 00:00:00
TRACK 10 AUDIO
TITLE "Twisted"
PERFORMER "Keith Sweat"
ISRC H2<g19694711
INDEX 00 03:46:40
FILE "10 Twisted .wav" WAVE
INDEX 01 00:00:00
TRACK 11 AUDIO
TITLE "After The Love Has Gone"
PERFORMER "Earth, Wind & Fire"
ISRC H2KM17800068
INDEX 00 04:30:37
FILE "11 After The Love Has Gone .wav" WAVE
INDEX 01 00:00:00
TRACK 12 AUDIO
TITLE "This Masquerade"
PERFORMER "George Benson"
ISRC H2OB19500928
INDEX 00 04:25:08
FILE "12 This Masquerade .wav" WAVE
INDEX 01 00:00:00
TRACK 13 AUDIO
TITLE "Spend My Life With You"
PERFORMER "Eric Benet"
ISRC H2OB19801241
INDEX 00 03:17:53
FILE "13 Spend My Life With You .wav" WAVE
INDEX 01 00:00:00
TRACK 14 AUDIO
TITLE "Never Gonna Let You Go"
PERFORMER "Sergio Mendes"
ISRC H29M18300301
INDEX 00 04:35:62
FILE "14 Never Gonna Let You Go .wav" WAVE
INDEX 01 00:00:00
TRACK 15 AUDIO
TITLE "Nite And Day"
PERFORMER "Al B. Sure"
ISRC H2OB19901225
INDEX 00 04:16:10
FILE "15 Nite And Day .wav" WAVE
INDEX 01 00:00:00
TRACK 16 AUDIO
TITLE "If Ever You're In My Arms Again"
PERFORMER "Peabo Bryson"
ISRC H2<g10100373
INDEX 00 03:57:65
FILE "16 If Ever You're In My Arms Again .wav" WAVE
INDEX 01 00:00:00
FILE "17 Save The Best For Last .wav" WAVE
TRACK 17 AUDIO
TITLE "Save The Best For Last"
PERFORMER "Vanessa Williams"
ISRC H2HA19190052
INDEX 01 00:00:00
Приватный:
Нет (DHT включён)
Размер:
440.07 Мб (461,446,013 байт) » файлов: 26
Участники:
0 раздают, 0 качают (0 участников всего)
Внешние участники:
3 раздают, 1 качают (4 участников всего) [ Обновить ]
Есть вопросы - пишите личное сообщение пользователю M0p94ok.
12:16
66
Нет комментариев. Ваш будет первым!