Поиск

(Soul, blues) [CD] Various Artists - Soul & Blues Vol. 2 - 1995 (tracks+.cue), lossless

(Soul, blues) [CD] Various Artists - Soul & Blues Vol. 2 - 1995 (tracks+.cue), lossless
Треклист:



Various Artists - Soul & Blues Vol. 2 - 1995
Жанр: Soul, blues
Носитель:CD (compilation)
Страна-производитель диска (релиза): Switzerland
Год издания: 1995
Издатель (лейбл): Selected Sound Carrier
Номер по каталогу: 2168.2044-2
Аудио кодек: FLAC (*.flac)
Тип рипа: (tracks + .cue)
Битрейт аудио: lossless
Наличие сканов в содержимом раздачи: full scans, png, 300 dpi
Продолжительность: 66:07
Источник (релизер): Моя коллекция, мой рип
Трэклист:
1. George Mc Crae - Rock your baby (3:09) (H. Casey)
2. Rare Earth feai. Peter Rivera - Get ready (2:55) (W. Robinson)
3. Jimmy Castor Bunch - Bertha Butt boogie (3:50) (/. Castor /J. Pruitl)
4. Chi-Lites - (For god's sake) give more power to the people (3:04) (B. Record)
5. Rare Earth feat. Peter Rivera - (I know) I'm losing you (3:37) (B. Holland / N. Winfield / C. Grant)
6. Rufus Thomas - Do the funky chicken (3:17) (Thomas)
7. Billy Ocean - Love really hurts without you (4:10) (B. Pindon/L Charles)
8. James Brown - Hot pants (live) (1:12) Q. Broum)
9. Sam & Dave - Soul man (2:49) (Isaac Hayes /Darid Porter)
10. Canned Heat - Rollin' and tumblin'(harmonica version) (2:03) (James / Sehorn)
11. La Toya Jackson - Bad girl (4:03) (Klarmann / Weber)
12. George Mc Crae - I ain't lying (3:50) (H. Casey/Finch)
13. Ike & Tina Turner - You got mc running (2:54) (Ran is)
14. Howlin' Wolf - Wang dang doodle (2:23) (Willie Dixon)
15. Canned Heat - Pretty thing (2:00) (Willie Dixon)
16. Jimi Hendrix - People's people (7:37) (Hendrix) PPX Publishing Co. Inc.
17. Howlin'Wolf - Little red rooster (2:25) (Willie Dixon)
18. Muddy Waters - Mean mistreater (2:45) (Mc Kinler Morganfietd)
19. B.B. King - Everyday I have the blues (5:01) (P. Chatman)
20. John Lee Hooker - I'm in the mood (2:39) (John Lee Hooker)
 
Лог создания рипа
Exact Audio Copy V1.0 beta 2 from 29. April 2011
EAC extraction logfile from 21. November 2012, 17:56
Various Artists / Soul & Blues Vol. 2
Used drive : HL-DT-STDVD-RAM GH22NP20 Adapter: 0 ID: 0
Read mode : Secure
Utilize accurate stream : Yes
Defeat audio cache : Yes
Make use of C2 pointers : No
Read offset correction : 102
Overread into Lead-In and Lead-Out : No
Fill up missing offset samples with silence : Yes
Delete leading and trailing silent blocks : No
Null samples used in CRC calculations : Yes
Used interface : Native Win32 interface for Win NT & 2000
Gap handling : Appended to previous track
Used output format : User Defined Encoder
Selected bitrate : 1024 kBit/s
Quality : High
Add ID3 tag : No
Command line compressor : C:\Program Files\Exact Audio Copy\Flac\flac.exe
Additional command line options : -8 -V -T "ARTIST=%artist%" -T "TITLE=%title%" -T "ALBUM=%albumtitle%" -T "DATE=%year%" -T "TRACKNUMBER=%tracknr%" -T "GENRE=%genre%" -T "PERFORMER=%albuminterpret%" -T "COMMENT=EAC V1.0 beta 2, Secure Mode, Test & Copy, Acc
TOC of the extracted CD
Track | Start | Length | Start sector | End sector
---------------------------------------------------------
1 | 0:00.00 | 3:11.45 | 0 | 14369
2 | 3:11.45 | 2:56.35 | 14370 | 27604
3 | 6:08.05 | 3:48.45 | 27605 | 44749
4 | 9:56.50 | 3:05.50 | 44750 | 58674
5 | 13:02.25 | 3:36.17 | 58675 | 74891
6 | 16:38.42 | 3:19.08 | 74892 | 89824
7 | 19:57.50 | 4:11.40 | 89825 | 108689
8 | 24:09.15 | 1:12.62 | 108690 | 114151
9 | 25:22.02 | 2:49.73 | 114152 | 126899
10 | 28:12.00 | 2:04.60 | 126900 | 136259
11 | 30:16.60 | 4:03.65 | 136260 | 154549
12 | 34:20.50 | 3:52.27 | 154550 | 171976
13 | 38:13.02 | 2:54.55 | 171977 | 185081
14 | 41:07.57 | 2:24.28 | 185082 | 195909
15 | 43:32.10 | 1:58.55 | 195910 | 204814
16 | 45:30.65 | 7:37.17 | 204815 | 239106
17 | 53:08.07 | 2:26.05 | 239107 | 250061
18 | 55:34.12 | 2:46.45 | 250062 | 262556
19 | 58:20.57 | 5:02.40 | 262557 | 285246
20 | 63:23.22 | 2:39.23 | 285247 | 297194
Track 1
Filename D:\music\Musicgate's rips\Various Artists - Soul & Blues Vol. 2 - 1995 (Selected Sound Carrier 2168.2044-2)\01 - George McCrae - Rock Your Baby.wav
Pre-gap length 0:00:02.00
Peak level 89.3 %
Extraction speed 1.6 X
Track quality 100.0 %
Test CRC 54545848
Copy CRC 54545848
Accurately ripped (confidence 1) [AF99FCBF] (AR v1)
Copy OK
Track 2
Filename D:\music\Musicgate's rips\Various Artists - Soul & Blues Vol. 2 - 1995 (Selected Sound Carrier 2168.2044-2)\02 - Rare Earth Feat. Peter Rivera - Get Ready.wav
Pre-gap length 0:00:01.46
Peak level 100.0 %
Extraction speed 1.8 X
Track quality 100.0 %
Test CRC B6A67043
Copy CRC B6A67043
Accurately ripped (confidence 1) [196D56AD] (AR v1)
Copy OK
Track 3
Filename D:\music\Musicgate's rips\Various Artists - Soul & Blues Vol. 2 - 1995 (Selected Sound Carrier 2168.2044-2)\03 - Jimmy Castor Bunch - Bertha Butt Boogie.wav
Pre-gap length 0:00:01.46
Peak level 78.8 %
Extraction speed 2.0 X
Track quality 100.0 %
Test CRC CABF7D68
Copy CRC CABF7D68
Accurately ripped (confidence 1) [56B280EC] (AR v1)
Copy OK
Track 4
Filename D:\music\Musicgate's rips\Various Artists - Soul & Blues Vol. 2 - 1995 (Selected Sound Carrier 2168.2044-2)\04 - Chi-Lites - (For God's Sake) Give More Power To The People.wav
Pre-gap length 0:00:01.46
Peak level 87.6 %
Extraction speed 2.1 X
Track quality 100.0 %
Test CRC CB4DBCD0
Copy CRC CB4DBCD0
Accurately ripped (confidence 1) [105A1B44] (AR v1)
Copy OK
Track 5
Filename D:\music\Musicgate's rips\Various Artists - Soul & Blues Vol. 2 - 1995 (Selected Sound Carrier 2168.2044-2)\05 - Rare Earth Feat. Peter Rivera - (I Know) I'm Losing You.wav
Pre-gap length 0:00:01.46
Peak level 100.0 %
Extraction speed 2.3 X
Track quality 100.0 %
Test CRC 4419E58A
Copy CRC 4419E58A
Accurately ripped (confidence 1) [1F5BE610] (AR v1)
Copy OK
Track 6
Filename D:\music\Musicgate's rips\Various Artists - Soul & Blues Vol. 2 - 1995 (Selected Sound Carrier 2168.2044-2)\06 - Rufus Thomas - Do The Funky Chicken.wav
Pre-gap length 0:00:01.46
Peak level 64.6 %
Extraction speed 2.3 X
Track quality 100.0 %
Test CRC E7AF11CE
Copy CRC E7AF11CE
Accurately ripped (confidence 1) [FE359A04] (AR v1)
Copy OK
Track 7
Filename D:\music\Musicgate's rips\Various Artists - Soul & Blues Vol. 2 - 1995 (Selected Sound Carrier 2168.2044-2)\07 - Billy Ocean - Love Really Hurts Without You.wav
Pre-gap length 0:00:01.46
Peak level 81.6 %
Extraction speed 2.5 X
Track quality 100.0 %
Test CRC A825FC77
Copy CRC A825FC77
Accurately ripped (confidence 1) [11BFAB74] (AR v1)
Copy OK
Track 8
Filename D:\music\Musicgate's rips\Various Artists - Soul & Blues Vol. 2 - 1995 (Selected Sound Carrier 2168.2044-2)\08 - James Brown - Hot Pants [Live].wav
Pre-gap length 0:00:01.46
Peak level 69.1 %
Extraction speed 2.0 X
Track quality 100.0 %
Test CRC 25391126
Copy CRC 25391126
Accurately ripped (confidence 1) [FAC6790B] (AR v1)
Copy OK
Track 9
Filename D:\music\Musicgate's rips\Various Artists - Soul & Blues Vol. 2 - 1995 (Selected Sound Carrier 2168.2044-2)\09 - Sam & Dave - Soul Man.wav
Pre-gap length 0:00:01.46
Peak level 89.8 %
Extraction speed 2.1 X
Track quality 99.9 %
Test CRC E671892E
Copy CRC E671892E
Track not present in AccurateRip database
Copy OK
Track 10
Filename D:\music\Musicgate's rips\Various Artists - Soul & Blues Vol. 2 - 1995 (Selected Sound Carrier 2168.2044-2)\10 - Canned Heat - Rollin' And Tumblin' [Harmonica Version].wav
Pre-gap length 0:00:01.46
Peak level 86.4 %
Extraction speed 1.9 X
Track quality 99.9 %
Test CRC BDCCC3D0
Copy CRC BDCCC3D0
Accurately ripped (confidence 1) [13B47370] (AR v1)
Copy OK
Track 11
Filename D:\music\Musicgate's rips\Various Artists - Soul & Blues Vol. 2 - 1995 (Selected Sound Carrier 2168.2044-2)\11 - La Toya Jackson - Bad Girl.wav
Pre-gap length 0:00:01.46
Peak level 60.6 %
Extraction speed 2.8 X
Track quality 100.0 %
Test CRC F0BF4636
Copy CRC F0BF4636
Accurately ripped (confidence 1) [2FA2E2F4] (AR v1)
Copy OK
Track 12
Filename D:\music\Musicgate's rips\Various Artists - Soul & Blues Vol. 2 - 1995 (Selected Sound Carrier 2168.2044-2)\12 - George McCrae - I Ain't Lying.wav
Pre-gap length 0:00:01.46
Peak level 100.0 %
Extraction speed 2.9 X
Track quality 100.0 %
Test CRC 97513B88
Copy CRC 97513B88
Accurately ripped (confidence 1) [2F4632E1] (AR v1)
Copy OK
Track 13
Filename D:\music\Musicgate's rips\Various Artists - Soul & Blues Vol. 2 - 1995 (Selected Sound Carrier 2168.2044-2)\13 - Ike & Tina Turner - You Got Me Running.wav
Pre-gap length 0:00:01.46
Peak level 89.1 %
Extraction speed 2.8 X
Track quality 100.0 %
Test CRC 75B48CA3
Copy CRC 75B48CA3
Accurately ripped (confidence 1) [105F5E93] (AR v1)
Copy OK
Track 14
Filename D:\music\Musicgate's rips\Various Artists - Soul & Blues Vol. 2 - 1995 (Selected Sound Carrier 2168.2044-2)\14 - Howlin' Wolf - Wang Dang Doodle.wav
Pre-gap length 0:00:01.46
Peak level 93.4 %
Extraction speed 2.8 X
Track quality 100.0 %
Test CRC 97FC590C
Copy CRC 97FC590C
Accurately ripped (confidence 1) [347CB33A] (AR v1)
Copy OK
Track 15
Filename D:\music\Musicgate's rips\Various Artists - Soul & Blues Vol. 2 - 1995 (Selected Sound Carrier 2168.2044-2)\15 - Canned Heat - Pretty Thing.wav
Pre-gap length 0:00:01.46
Peak level 73.6 %
Extraction speed 2.7 X
Track quality 100.0 %
Test CRC DD3E25D5
Copy CRC DD3E25D5
Accurately ripped (confidence 1) [0E461D95] (AR v1)
Copy OK
Track 16
Filename D:\music\Musicgate's rips\Various Artists - Soul & Blues Vol. 2 - 1995 (Selected Sound Carrier 2168.2044-2)\16 - Jimi Hendrix - People's People.wav
Peak level 100.0 %
Extraction speed 3.5 X
Track quality 100.0 %
Test CRC 5E743910
Copy CRC 5E743910
Accurately ripped (confidence 1) [ABF304E4] (AR v1)
Copy OK
Track 17
Filename D:\music\Musicgate's rips\Various Artists - Soul & Blues Vol. 2 - 1995 (Selected Sound Carrier 2168.2044-2)\17 - Howlin' Wolf - Little Red Rooster.wav
Peak level 99.9 %
Extraction speed 2.6 X
Track quality 99.9 %
Test CRC A849270F
Copy CRC A849270F
Accurately ripped (confidence 1) [0D41EE30] (AR v1)
Copy OK
Track 18
Filename D:\music\Musicgate's rips\Various Artists - Soul & Blues Vol. 2 - 1995 (Selected Sound Carrier 2168.2044-2)\18 - Muddy Waters - Mean Mistreater.wav
Peak level 100.0 %
Extraction speed 3.1 X
Track quality 100.0 %
Test CRC 4C30D4C7
Copy CRC 4C30D4C7
Accurately ripped (confidence 1) [49A898CF] (AR v1)
Copy OK
Track 19
Filename D:\music\Musicgate's rips\Various Artists - Soul & Blues Vol. 2 - 1995 (Selected Sound Carrier 2168.2044-2)\19 - B.B. King - Everyday I Have The Blues.wav
Peak level 96.2 %
Extraction speed 3.6 X
Track quality 100.0 %
Test CRC 21A41443
Copy CRC 21A41443
Accurately ripped (confidence 1) [23DA0222] (AR v1)
Copy OK
Track 20
Filename D:\music\Musicgate's rips\Various Artists - Soul & Blues Vol. 2 - 1995 (Selected Sound Carrier 2168.2044-2)\20 - John Lee Hooker - I'm In The Mood.wav
Peak level 99.9 %
Extraction speed 3.3 X
Track quality 100.0 %
Test CRC 2131E36F
Copy CRC 2131E36F
Accurately ripped (confidence 1) [9D31257B] (AR v1)
Copy OK
19 track(s) accurately ripped
1 track(s) not present in the AccurateRip database
Some tracks could not be verified as accurate
No errors occurred
End of status report
==== Log checksum B441F803CCDE2082BA8698A6633A1E717A037F23DCFEF51D0DAA3D16A50D8560 ====
 
Содержание индексной карты (.CUE):
REM GENRE Blues
REM DATE 1995
REM DISCID 170F7A14
REM COMMENT "ExactAudioCopy v1.0b2"
CATALOG 0000000000000
PERFORMER "Various Artists"
TITLE "Soul & Blues Vol. 2"
FILE "01 - George McCrae - Rock Your Baby.wav" WAVE
TRACK 01 AUDIO
TITLE "George McCrae - Rock Your Baby"
PERFORMER "Various Artists"
INDEX 01 00:00:00
TRACK 02 AUDIO
TITLE "Rare Earth Feat. Peter Rivera - Get Ready"
PERFORMER "Various Artists"
INDEX 00 03:10:10
FILE "02 - Rare Earth Feat. Peter Rivera - Get Ready.wav" WAVE
INDEX 01 00:00:00
TRACK 03 AUDIO
TITLE "Jimmy Castor Bunch - Bertha Butt Boogie"
PERFORMER "Various Artists"
INDEX 00 02:55:00
FILE "03 - Jimmy Castor Bunch - Bertha Butt Boogie.wav" WAVE
INDEX 01 00:00:00
TRACK 04 AUDIO
TITLE "Chi-Lites - (For God's Sake) Give More Power To The People"
PERFORMER "Various Artists"
INDEX 00 03:47:10
FILE "04 - Chi-Lites - (For God's Sake) Give More Power To The People.wav" WAVE
INDEX 01 00:00:00
TRACK 05 AUDIO
TITLE "Rare Earth Feat. Peter Rivera - (I Know) I'm Losing You"
PERFORMER "Various Artists"
INDEX 00 03:04:15
FILE "05 - Rare Earth Feat. Peter Rivera - (I Know) I'm Losing You.wav" WAVE
INDEX 01 00:00:00
TRACK 06 AUDIO
TITLE "Rufus Thomas - Do The Funky Chicken"
PERFORMER "Various Artists"
INDEX 00 03:34:57
FILE "06 - Rufus Thomas - Do The Funky Chicken.wav" WAVE
INDEX 01 00:00:00
TRACK 07 AUDIO
TITLE "Billy Ocean - Love Really Hurts Without You"
PERFORMER "Various Artists"
INDEX 00 03:17:48
FILE "07 - Billy Ocean - Love Really Hurts Without You.wav" WAVE
INDEX 01 00:00:00
TRACK 08 AUDIO
TITLE "James Brown - Hot Pants [Live]"
PERFORMER "Various Artists"
INDEX 00 04:10:05
FILE "08 - James Brown - Hot Pants [Live].wav" WAVE
INDEX 01 00:00:00
TRACK 09 AUDIO
TITLE "Sam & Dave - Soul Man"
PERFORMER "Various Artists"
INDEX 00 01:11:27
FILE "09 - Sam & Dave - Soul Man.wav" WAVE
INDEX 01 00:00:00
TRACK 10 AUDIO
TITLE "Canned Heat - Rollin' And Tumblin' [Harmonica Version]"
PERFORMER "Various Artists"
INDEX 00 02:48:38
FILE "10 - Canned Heat - Rollin' And Tumblin' [Harmonica Version].wav" WAVE
INDEX 01 00:00:00
TRACK 11 AUDIO
TITLE "La Toya Jackson - Bad Girl"
PERFORMER "Various Artists"
INDEX 00 02:03:25
FILE "11 - La Toya Jackson - Bad Girl.wav" WAVE
INDEX 01 00:00:00
TRACK 12 AUDIO
TITLE "George McCrae - I Ain't Lying"
PERFORMER "Various Artists"
INDEX 00 04:02:30
FILE "12 - George McCrae - I Ain't Lying.wav" WAVE
INDEX 01 00:00:00
TRACK 13 AUDIO
TITLE "Ike & Tina Turner - You Got Me Running"
PERFORMER "Various Artists"
INDEX 00 03:50:67
FILE "13 - Ike & Tina Turner - You Got Me Running.wav" WAVE
INDEX 01 00:00:00
TRACK 14 AUDIO
TITLE "Howlin' Wolf - Wang Dang Doodle"
PERFORMER "Various Artists"
INDEX 00 02:53:20
FILE "14 - Howlin' Wolf - Wang Dang Doodle.wav" WAVE
INDEX 01 00:00:00
TRACK 15 AUDIO
TITLE "Canned Heat - Pretty Thing"
PERFORMER "Various Artists"
INDEX 00 02:22:68
FILE "15 - Canned Heat - Pretty Thing.wav" WAVE
INDEX 01 00:00:00
FILE "16 - Jimi Hendrix - People's People.wav" WAVE
TRACK 16 AUDIO
TITLE "Jimi Hendrix - People's People"
PERFORMER "Various Artists"
INDEX 01 00:00:00
FILE "17 - Howlin' Wolf - Little Red Rooster.wav" WAVE
TRACK 17 AUDIO
TITLE "Howlin' Wolf - Little Red Rooster"
PERFORMER "Various Artists"
INDEX 01 00:00:00
FILE "18 - Muddy Waters - Mean Mistreater.wav" WAVE
TRACK 18 AUDIO
TITLE "Muddy Waters - Mean Mistreater"
PERFORMER "Various Artists"
INDEX 01 00:00:00
FILE "19 - B.B. King - Everyday I Have The Blues.wav" WAVE
TRACK 19 AUDIO
TITLE "B.B. King - Everyday I Have The Blues"
PERFORMER "Various Artists"
INDEX 01 00:00:00
FILE "20 - John Lee Hooker - I'm In The Mood.wav" WAVE
TRACK 20 AUDIO
TITLE "John Lee Hooker - I'm In The Mood"
PERFORMER "Various Artists"
INDEX 01 00:00:00
 
Лог проверки качества

 
Матрица
 
Back
Приватный:
Нет (DHT включён)
Размер:
398.02 Мб (417,359,321 байт) » файлов: 30
Участники:
0 раздают, 0 качают (0 участников всего)
Внешние участники:
1 раздают, 0 качают (1 участников всего) [ Обновить ]
Есть вопросы - пишите личное сообщение пользователю M0p94ok.
12:32
54
Нет комментариев. Ваш будет первым!