Поиск

(Rock, Reggae, Funk, Soul) VA - Northern Soul Forever - 2004, FLAC (tracks+.cue), lossless

(Rock, Reggae, Funk, Soul) VA - Northern Soul Forever - 2004, FLAC (tracks+.cue), lossless
Треклист:
Northern Soul Forever
Жанр: Rock, Reggae, Funk, Soul
Страна-производитель диска (релиза): UK
Год издания: 2004
Издатель (лейбл): Castle Pulse
Номер по каталогу: PLSCD 719
Аудиокодек: FLAC (*.flac)
Тип рипа: tracks+.cue
Битрейт аудио: lossless
Продолжительность: 55:16
Источник (релизер): DP
Наличие сканов в содержимом раздачи: нет
Треклист:
01. The Cherry People – And Suddenly
02. Jimmy James & The Vagabonds – This Heart Of Mine
03. Otis Smith – Let Her Go
04. The Sapphires – Baby You Got Me
05. Geno Washington & The Ram Jam Band – If This Is Love (I'd Rather Be Lonely)
06. The Yums Yums – Gonna Be A Big Thing
07. Candy & The Kisses – The 81
08. The Showstoppers – What Can A Man Do
09. Band Of Angels – I'm Gonna Pick Up My Toys
10. Barbara Jean English – I'm Living A Lie
11. The Whispers – Remember Me
12. Willie And West – Get Away From Me Girl
13. Eloise Laws – Love Factory
14. The Carstairs – It Really Hurts Me Girl
15. Carl Douglas – I Want To Give You My Everything
16. Spooky & Sue – I Got The Need
17. New Cymbals – I Will Always Love You
18. Virgil Henry – You Ain't Sayin' Nothing New
19. Margo & The Marvettes – When Love Slips Away
 
Лог создания рипа
X Lossless Decoder version 20161007 (149.3)
XLD extraction logfile from 2016-12-16 22:43:49 +0000
Various Artists / Northern Soul Forever
Used drive : TSSTcorp CDDVDW SE-208DB (revision MF00)
Media type : Pressed CD
Ripper mode : XLD Secure Ripper
Disable audio cache : OK for the drive with a cache less than 1375KiB
Make use of C2 pointers : NO
Read offset correction : 6
Max retry count : 20
Gap status : Analyzed, Appended (except HTOA)
TOC of the extracted CD
Track | Start | Length | Start sector | End sector
---------------------------------------------------------
1 | 00:00:00 | 02:06:21 | 0 | 9470
2 | 02:06:21 | 02:32:59 | 9471 | 20929
3 | 04:39:05 | 02:44:63 | 20930 | 33292
4 | 07:23:68 | 02:32:62 | 33293 | 44754
5 | 09:56:55 | 02:42:16 | 44755 | 56920
6 | 12:38:71 | 02:24:20 | 56921 | 67740
7 | 15:03:16 | 02:33:04 | 67741 | 79219
8 | 17:36:20 | 02:31:61 | 79220 | 90605
9 | 20:08:06 | 03:32:39 | 90606 | 106544
10 | 23:40:45 | 02:55:62 | 106545 | 119731
11 | 26:36:32 | 02:36:42 | 119732 | 131473
12 | 29:12:74 | 03:04:26 | 131474 | 145299
13 | 32:17:25 | 02:10:57 | 145300 | 155106
14 | 34:28:07 | 03:25:60 | 155107 | 170541
15 | 37:53:67 | 03:31:70 | 170542 | 186436
16 | 41:25:62 | 02:38:33 | 186437 | 198319
17 | 44:04:20 | 02:55:45 | 198320 | 211489
18 | 46:59:65 | 02:22:42 | 211490 | 222181
19 | 49:22:32 | 02:54:74 | 222182 | 235305
20 | 52:17:31 | 02:58:62 | 235306 | 248717
AccurateRip Summary (DiscID: 0026aaca-023da479-220cf414)
Track 01 : OK (v2, confidence 1/2)
Track 02 : OK (v2, confidence 1/2)
Track 03 : OK (v2, confidence 1/2)
Track 04 : OK (v2, confidence 1/2)
Track 05 : OK (v2, confidence 1/2)
Track 06 : OK (v2, confidence 1/2)
Track 07 : OK (v2, confidence 1/2)
Track 08 : OK (v2, confidence 1/2)
Track 09 : OK (v2, confidence 1/2)
Track 10 : OK (v2, confidence 1/2)
Track 11 : OK (v2, confidence 1/2)
Track 12 : OK (v2, confidence 1/2)
Track 13 : OK (v2, confidence 1/2)
Track 14 : OK (v2, confidence 1/2)
Track 15 : OK (v2, confidence 1/2)
Track 16 : OK (v2, confidence 1/2)
Track 17 : OK (v2, confidence 1/2)
Track 18 : OK (v2, confidence 1/2)
Track 19 : OK (v2, confidence 1/2)
Track 20 : OK (v2, confidence 1/2)
->All tracks accurately ripped.
All Tracks
Album gain : -7.89 dB
Peak : 0.930603
Statistics
Read error : 0
Jitter error (maybe fixed) : 0
Retry sector count : 0
Damaged sector count : 0
Track 01
Filename : /Users/KbeeOriginal/Desktop/untitled folder 2/Compilations - Northern Soul Forever (2004) [FLAC]/01 And Suddenly.flac
Pre-gap length : 00:02:00
Track gain : -4.58 dB
Peak : 0.803589
CRC32 hash (test run) : A1AE2AD4
CRC32 hash : A1AE2AD4
CRC32 hash (skip zero) : 3B230E3A
AccurateRip v1 signature : DD2A1840
AccurateRip v2 signature : 21B59EF5
->Accurately ripped (v2, confidence 1/2)
Statistics
Read error : 0
Jitter error (maybe fixed) : 0
Retry sector count : 0
Damaged sector count : 0
Track 02
Filename : /Users/KbeeOriginal/Desktop/untitled folder 2/Compilations - Northern Soul Forever (2004) [FLAC]/02 This Heart Of Mine.flac
Pre-gap length : 00:02:61
Track gain : -6.14 dB
Peak : 0.785278
CRC32 hash (test run) : BC9F5C56
CRC32 hash : BC9F5C56
CRC32 hash (skip zero) : C8458F88
AccurateRip v1 signature : 46DAB401
AccurateRip v2 signature : 968227F5
->Accurately ripped (v2, confidence 1/2)
Statistics
Read error : 0
Jitter error (maybe fixed) : 0
Retry sector count : 0
Damaged sector count : 0
Track 03
Filename : /Users/KbeeOriginal/Desktop/untitled folder 2/Compilations - Northern Soul Forever (2004) [FLAC]/03 Let Her Go.flac
Pre-gap length : 00:02:60
Track gain : -6.42 dB
Peak : 0.826660
CRC32 hash (test run) : C69301B6
CRC32 hash : C69301B6
CRC32 hash (skip zero) : 29D5C258
AccurateRip v1 signature : E4DB0F63
AccurateRip v2 signature : E88366FB
->Accurately ripped (v2, confidence 1/2)
Statistics
Read error : 0
Jitter error (maybe fixed) : 0
Retry sector count : 0
Damaged sector count : 0
Track 04
Filename : /Users/KbeeOriginal/Desktop/untitled folder 2/Compilations - Northern Soul Forever (2004) [FLAC]/04 Baby You Got Me.flac
Pre-gap length : 00:02:61
Track gain : -8.31 dB
Peak : 0.912018
CRC32 hash (test run) : 20E25E50
CRC32 hash : 20E25E50
CRC32 hash (skip zero) : 0A1ACDC7
AccurateRip v1 signature : 4C5A48DC
AccurateRip v2 signature : 80A6A897
->Accurately ripped (v2, confidence 1/2)
Statistics
Read error : 0
Jitter error (maybe fixed) : 0
Retry sector count : 0
Damaged sector count : 0
Track 05
Filename : /Users/KbeeOriginal/Desktop/untitled folder 2/Compilations - Northern Soul Forever (2004) [FLAC]/05 If This Is Love (I'd Rather Be Lonely).flac
Pre-gap length : 00:02:61
Track gain : -6.60 dB
Peak : 0.901642
CRC32 hash (test run) : B6D79F24
CRC32 hash : B6D79F24
CRC32 hash (skip zero) : 502A9797
AccurateRip v1 signature : EC3EBF6C
AccurateRip v2 signature : 7580C0C3
->Accurately ripped (v2, confidence 1/2)
Statistics
Read error : 0
Jitter error (maybe fixed) : 0
Retry sector count : 0
Damaged sector count : 0
Track 06
Filename : /Users/KbeeOriginal/Desktop/untitled folder 2/Compilations - Northern Soul Forever (2004) [FLAC]/06 Gonna Be A Big Thing.flac
Pre-gap length : 00:02:61
Track gain : -7.58 dB
Peak : 0.922607
CRC32 hash (test run) : ECB28CE0
CRC32 hash : ECB28CE0
CRC32 hash (skip zero) : E577427B
AccurateRip v1 signature : CBE8E7BE
AccurateRip v2 signature : 4E33C1FB
->Accurately ripped (v2, confidence 1/2)
Statistics
Read error : 0
Jitter error (maybe fixed) : 0
Retry sector count : 0
Damaged sector count : 0
Track 07
Filename : /Users/KbeeOriginal/Desktop/untitled folder 2/Compilations - Northern Soul Forever (2004) [FLAC]/07 The 81.flac
Pre-gap length : 00:02:61
Track gain : -8.32 dB
Peak : 0.822296
CRC32 hash (test run) : F62EAD70
CRC32 hash : F62EAD70
CRC32 hash (skip zero) : AA223637
AccurateRip v1 signature : 453AABD6
AccurateRip v2 signature : 31C9AAFD
->Accurately ripped (v2, confidence 1/2)
Statistics
Read error : 0
Jitter error (maybe fixed) : 0
Retry sector count : 0
Damaged sector count : 0
Track 08
Filename : /Users/KbeeOriginal/Desktop/untitled folder 2/Compilations - Northern Soul Forever (2004) [FLAC]/08 What Can A Man Do.flac
Pre-gap length : 00:02:60
Track gain : -6.84 dB
Peak : 0.922607
CRC32 hash (test run) : A82E4275
CRC32 hash : A82E4275
CRC32 hash (skip zero) : D0ADF126
AccurateRip v1 signature : 859EC9AE
AccurateRip v2 signature : AB4D9782
->Accurately ripped (v2, confidence 1/2)
Statistics
Read error : 0
Jitter error (maybe fixed) : 0
Retry sector count : 0
Damaged sector count : 0
Track 09
Filename : /Users/KbeeOriginal/Desktop/untitled folder 2/Compilations - Northern Soul Forever (2004) [FLAC]/09 I'm Gonna Pick Up My Toys.flac
Pre-gap length : 00:02:61
Track gain : -6.61 dB
Peak : 0.803589
CRC32 hash (test run) : 5F49E80F
CRC32 hash : 5F49E80F
CRC32 hash (skip zero) : 904F5461
AccurateRip v1 signature : F3F0DEB5
AccurateRip v2 signature : A7862FF4
->Accurately ripped (v2, confidence 1/2)
Statistics
Read error : 0
Jitter error (maybe fixed) : 0
Retry sector count : 0
Damaged sector count : 0
Track 10
Filename : /Users/KbeeOriginal/Desktop/untitled folder 2/Compilations - Northern Soul Forever (2004) [FLAC]/10 I'm Living A Lie.flac
Pre-gap length : 00:02:60
Track gain : -10.09 dB
Peak : 0.930603
CRC32 hash (test run) : C7339982
CRC32 hash : C7339982
CRC32 hash (skip zero) : 361E7B54
AccurateRip v1 signature : DCA1AEBC
AccurateRip v2 signature : EB9DD7CF
->Accurately ripped (v2, confidence 1/2)
Statistics
Read error : 0
Jitter error (maybe fixed) : 0
Retry sector count : 0
Damaged sector count : 0
Track 11
Filename : /Users/KbeeOriginal/Desktop/untitled folder 2/Compilations - Northern Soul Forever (2004) [FLAC]/11 Remember Me.flac
Pre-gap length : 00:02:61
Track gain : -7.34 dB
Peak : 0.841431
CRC32 hash (test run) : D5DC90DC
CRC32 hash : D5DC90DC
CRC32 hash (skip zero) : C4450E9E
AccurateRip v1 signature : 75572B2D
AccurateRip v2 signature : 648BABE4
->Accurately ripped (v2, confidence 1/2)
Statistics
Read error : 0
Jitter error (maybe fixed) : 0
Retry sector count : 0
Damaged sector count : 0
Track 12
Filename : /Users/KbeeOriginal/Desktop/untitled folder 2/Compilations - Northern Soul Forever (2004) [FLAC]/12 The Way I Love You.flac
Pre-gap length : 00:02:61
Track gain : -8.30 dB
Peak : 0.922638
CRC32 hash (test run) : A1326A89
CRC32 hash : A1326A89
CRC32 hash (skip zero) : 7C0DA0EF
AccurateRip v1 signature : 8BA2E350
AccurateRip v2 signature : 926D86E8
->Accurately ripped (v2, confidence 1/2)
Statistics
Read error : 0
Jitter error (maybe fixed) : 0
Retry sector count : 0
Damaged sector count : 0
Track 13
Filename : /Users/KbeeOriginal/Desktop/untitled folder 2/Compilations - Northern Soul Forever (2004) [FLAC]/13 Willie & West.flac
Pre-gap length : 00:02:61
Track gain : -7.66 dB
Peak : 0.912018
CRC32 hash (test run) : 1A126ED0
CRC32 hash : 1A126ED0
CRC32 hash (skip zero) : F7CD5425
AccurateRip v1 signature : D3638FF8
AccurateRip v2 signature : 3F9E1547
->Accurately ripped (v2, confidence 1/2)
Statistics
Read error : 0
Jitter error (maybe fixed) : 0
Retry sector count : 0
Damaged sector count : 0
Track 14
Filename : /Users/KbeeOriginal/Desktop/untitled folder 2/Compilations - Northern Soul Forever (2004) [FLAC]/14 Love Factory.flac
Pre-gap length : 00:02:61
Track gain : -8.19 dB
Peak : 0.812836
CRC32 hash (test run) : FF571E12
CRC32 hash : FF571E12
CRC32 hash (skip zero) : 7C3C2184
AccurateRip v1 signature : E5D02884
AccurateRip v2 signature : CED82F8E
->Accurately ripped (v2, confidence 1/2)
Statistics
Read error : 0
Jitter error (maybe fixed) : 0
Retry sector count : 0
Damaged sector count : 0
Track 15
Filename : /Users/KbeeOriginal/Desktop/untitled folder 2/Compilations - Northern Soul Forever (2004) [FLAC]/15 It Really Hurts Me Girl.flac
Pre-gap length : 00:02:61
Track gain : -7.02 dB
Peak : 0.922607
CRC32 hash (test run) : 94C799B4
CRC32 hash : 94C799B4
CRC32 hash (skip zero) : 4CDDFB45
AccurateRip v1 signature : 6B2D3F0C
AccurateRip v2 signature : 6B6A590B
->Accurately ripped (v2, confidence 1/2)
Statistics
Read error : 0
Jitter error (maybe fixed) : 0
Retry sector count : 0
Damaged sector count : 0
Track 16
Filename : /Users/KbeeOriginal/Desktop/untitled folder 2/Compilations - Northern Soul Forever (2004) [FLAC]/16 I Want To Give You My Everything.flac
Pre-gap length : 00:02:61
Track gain : -8.37 dB
Peak : 0.922638
CRC32 hash (test run) : AE11770E
CRC32 hash : AE11770E
CRC32 hash (skip zero) : 56BCC4B7
AccurateRip v1 signature : 38D72511
AccurateRip v2 signature : 8C4FE0E5
->Accurately ripped (v2, confidence 1/2)
Statistics
Read error : 0
Jitter error (maybe fixed) : 0
Retry sector count : 0
Damaged sector count : 0
Track 17
Filename : /Users/KbeeOriginal/Desktop/untitled folder 2/Compilations - Northern Soul Forever (2004) [FLAC]/17 I Got The Need.flac
Pre-gap length : 00:02:61
Track gain : -6.72 dB
Peak : 0.922638
CRC32 hash (test run) : 67CCD9CA
CRC32 hash : 67CCD9CA
CRC32 hash (skip zero) : B4A16136
AccurateRip v1 signature : 5A72C421
AccurateRip v2 signature : 125C068D
->Accurately ripped (v2, confidence 1/2)
Statistics
Read error : 0
Jitter error (maybe fixed) : 0
Retry sector count : 0
Damaged sector count : 0
Track 18
Filename : /Users/KbeeOriginal/Desktop/untitled folder 2/Compilations - Northern Soul Forever (2004) [FLAC]/18 I Will Always Love You.flac
Pre-gap length : 00:02:61
Track gain : -7.44 dB
Peak : 0.841461
CRC32 hash (test run) : E582F577
CRC32 hash : E582F577
CRC32 hash (skip zero) : 64ED1B3F
AccurateRip v1 signature : 16A66CD8
AccurateRip v2 signature : E6FAEDEE
->Accurately ripped (v2, confidence 1/2)
Statistics
Read error : 0
Jitter error (maybe fixed) : 0
Retry sector count : 0
Damaged sector count : 0
Track 19
Filename : /Users/KbeeOriginal/Desktop/untitled folder 2/Compilations - Northern Soul Forever (2004) [FLAC]/19 You Ain't Sayin' Nothing New.flac
Pre-gap length : 00:02:61
Track gain : -5.58 dB
Peak : 0.741364
CRC32 hash (test run) : 2B378CB4
CRC32 hash : 2B378CB4
CRC32 hash (skip zero) : C845EEF4
AccurateRip v1 signature : C05D8599
AccurateRip v2 signature : EC5F7291
->Accurately ripped (v2, confidence 1/2)
Statistics
Read error : 0
Jitter error (maybe fixed) : 0
Retry sector count : 0
Damaged sector count : 0
Track 20
Filename : /Users/KbeeOriginal/Desktop/untitled folder 2/Compilations - Northern Soul Forever (2004) [FLAC]/20 When Love Slips Away.flac
Pre-gap length : 00:02:61
Track gain : -7.24 dB
Peak : 0.922607
CRC32 hash (test run) : D28F20A1
CRC32 hash : D28F20A1
CRC32 hash (skip zero) : 9D6D8F51
AccurateRip v1 signature : 216128EE
AccurateRip v2 signature : 606036DF
->Accurately ripped (v2, confidence 1/2)
Statistics
Read error : 0
Jitter error (maybe fixed) : 0
Retry sector count : 0
Damaged sector count : 0
No errors occurred
End of status report
-----BEGIN XLD SIGNATURE-----
T21IqM4clOrY2hxpfRP1VlBcGORGdvFIJBismr8G539pZAuEZ1IxlRQUthXKiZCU9lvs.P3OS0q2ccw4jMZ9eRL6.xoDqswr7K6Ae8a
-----END XLD SIGNATURE-----
 
Содержание индексной карты (.CUE)
TITLE "Northern Soul Forever"
REM GENRE "R&B"
REM DATE "2004"
REM DISCNUMBER 1
REM TOTALDISCS 1
REM DISCID 220CF414
REM REPLAYGAIN_ALBUM_GAIN -7.89 dB
REM REPLAYGAIN_ALBUM_PEAK 0.930603
REM COMPILATION TRUE
FILE "01 And Suddenly.flac" WAVE
TRACK 01 AUDIO
TITLE "And Suddenly"
PERFORMER "The Cherry People"
SONGWRITER "Various"
REM REPLAYGAIN_TRACK_GAIN -4.58 dB
REM REPLAYGAIN_TRACK_PEAK 0.803589
INDEX 01 00:00:00
TRACK 02 AUDIO
TITLE "This Heart Of Mine"
PERFORMER "Jimmy James & The Vagabonds"
SONGWRITER "Various"
REM REPLAYGAIN_TRACK_GAIN -6.14 dB
REM REPLAYGAIN_TRACK_PEAK 0.785278
INDEX 00 02:03:35
FILE "02 This Heart Of Mine.flac" WAVE
INDEX 01 00:00:00
TRACK 03 AUDIO
TITLE "Let Her Go"
PERFORMER "Otis Smith"
SONGWRITER "Various"
REM REPLAYGAIN_TRACK_GAIN -6.42 dB
REM REPLAYGAIN_TRACK_PEAK 0.826660
INDEX 00 02:29:74
FILE "03 Let Her Go.flac" WAVE
INDEX 01 00:00:00
TRACK 04 AUDIO
TITLE "Baby You Got Me"
PERFORMER "The Sapphires"
SONGWRITER "Various"
REM REPLAYGAIN_TRACK_GAIN -8.31 dB
REM REPLAYGAIN_TRACK_PEAK 0.912018
INDEX 00 02:42:02
FILE "04 Baby You Got Me.flac" WAVE
INDEX 01 00:00:00
TRACK 05 AUDIO
TITLE "If This Is Love (I'd Rather Be Lonely)"
PERFORMER "Geno Washington & The Ram Jam Band"
SONGWRITER "Various"
REM REPLAYGAIN_TRACK_GAIN -6.60 dB
REM REPLAYGAIN_TRACK_PEAK 0.901642
INDEX 00 02:30:01
FILE "05 If This Is Love (I'd Rather Be Lonely).flac" WAVE
INDEX 01 00:00:00
TRACK 06 AUDIO
TITLE "Gonna Be A Big Thing"
PERFORMER "The Yum Yums"
SONGWRITER "Various"
REM REPLAYGAIN_TRACK_GAIN -7.58 dB
REM REPLAYGAIN_TRACK_PEAK 0.922607
INDEX 00 02:39:30
FILE "06 Gonna Be A Big Thing.flac" WAVE
INDEX 01 00:00:00
TRACK 07 AUDIO
TITLE "The 81"
PERFORMER "Candy & The Kisses"
SONGWRITER "Various"
REM REPLAYGAIN_TRACK_GAIN -8.32 dB
REM REPLAYGAIN_TRACK_PEAK 0.822296
INDEX 00 02:21:34
FILE "07 The 81.flac" WAVE
INDEX 01 00:00:00
TRACK 08 AUDIO
TITLE "What Can A Man Do"
PERFORMER "The Showstoppers"
SONGWRITER "Various"
REM REPLAYGAIN_TRACK_GAIN -6.84 dB
REM REPLAYGAIN_TRACK_PEAK 0.922607
INDEX 00 02:30:19
FILE "08 What Can A Man Do.flac" WAVE
INDEX 01 00:00:00
TRACK 09 AUDIO
TITLE "I'm Gonna Pick Up My Toys"
PERFORMER "Devonnes"
SONGWRITER "Various"
REM REPLAYGAIN_TRACK_GAIN -6.61 dB
REM REPLAYGAIN_TRACK_PEAK 0.803589
INDEX 00 02:29:00
FILE "09 I'm Gonna Pick Up My Toys.flac" WAVE
INDEX 01 00:00:00
TRACK 10 AUDIO
TITLE "I'm Living A Lie"
PERFORMER "Barbara Jean English"
SONGWRITER "Various"
REM REPLAYGAIN_TRACK_GAIN -10.09 dB
REM REPLAYGAIN_TRACK_PEAK 0.930603
INDEX 00 03:29:54
FILE "10 I'm Living A Lie.flac" WAVE
INDEX 01 00:00:00
TRACK 11 AUDIO
TITLE "Remember Me"
PERFORMER "The Whispers"
SONGWRITER "Various"
REM REPLAYGAIN_TRACK_GAIN -7.34 dB
REM REPLAYGAIN_TRACK_PEAK 0.841431
INDEX 00 02:53:01
FILE "11 Remember Me.flac" WAVE
INDEX 01 00:00:00
TRACK 12 AUDIO
TITLE "The Way I Love You"
PERFORMER "The Continental Four"
SONGWRITER "Various"
REM REPLAYGAIN_TRACK_GAIN -8.30 dB
REM REPLAYGAIN_TRACK_PEAK 0.922638
INDEX 00 02:33:56
FILE "12 The Way I Love You.flac" WAVE
INDEX 01 00:00:00
TRACK 13 AUDIO
TITLE "Willie & West"
PERFORMER "Get Away From Me Girl"
SONGWRITER "Various"
REM REPLAYGAIN_TRACK_GAIN -7.66 dB
REM REPLAYGAIN_TRACK_PEAK 0.912018
INDEX 00 03:01:40
FILE "13 Willie & West.flac" WAVE
INDEX 01 00:00:00
TRACK 14 AUDIO
TITLE "Love Factory"
PERFORMER "Eloise Laws"
SONGWRITER "Various"
REM REPLAYGAIN_TRACK_GAIN -8.19 dB
REM REPLAYGAIN_TRACK_PEAK 0.812836
INDEX 00 02:07:71
FILE "14 Love Factory.flac" WAVE
INDEX 01 00:00:00
TRACK 15 AUDIO
TITLE "It Really Hurts Me Girl"
PERFORMER "The Carstairs"
SONGWRITER "Various"
REM REPLAYGAIN_TRACK_GAIN -7.02 dB
REM REPLAYGAIN_TRACK_PEAK 0.922607
INDEX 00 03:22:74
FILE "15 It Really Hurts Me Girl.flac" WAVE
INDEX 01 00:00:00
TRACK 16 AUDIO
TITLE "I Want To Give You My Everything"
PERFORMER "Carl Douglas"
SONGWRITER "Various"
REM REPLAYGAIN_TRACK_GAIN -8.37 dB
REM REPLAYGAIN_TRACK_PEAK 0.922638
INDEX 00 03:29:09
FILE "16 I Want To Give You My Everything.flac" WAVE
INDEX 01 00:00:00
TRACK 17 AUDIO
TITLE "I Got The Need"
PERFORMER "Spooky & Sue"
SONGWRITER "Various"
REM REPLAYGAIN_TRACK_GAIN -6.72 dB
REM REPLAYGAIN_TRACK_PEAK 0.922638
INDEX 00 02:35:47
FILE "17 I Got The Need.flac" WAVE
INDEX 01 00:00:00
TRACK 18 AUDIO
TITLE "I Will Always Love You"
PERFORMER "New Cymbals"
SONGWRITER "Various"
REM REPLAYGAIN_TRACK_GAIN -7.44 dB
REM REPLAYGAIN_TRACK_PEAK 0.841461
INDEX 00 02:52:59
FILE "18 I Will Always Love You.flac" WAVE
INDEX 01 00:00:00
TRACK 19 AUDIO
TITLE "You Ain't Sayin' Nothing New"
PERFORMER "Virgil Henry"
SONGWRITER "Various"
REM REPLAYGAIN_TRACK_GAIN -5.58 dB
REM REPLAYGAIN_TRACK_PEAK 0.741364
INDEX 00 02:19:56
FILE "19 You Ain't Sayin' Nothing New.flac" WAVE
INDEX 01 00:00:00
TRACK 20 AUDIO
TITLE "When Love Slips Away"
PERFORMER "Margo & The Marvettes"
SONGWRITER "Various"
REM REPLAYGAIN_TRACK_GAIN -7.24 dB
REM REPLAYGAIN_TRACK_PEAK 0.922607
INDEX 00 02:52:13
FILE "20 When Love Slips Away.flac" WAVE
INDEX 01 00:00:00
 
Лог проверки качества
foobar2000 1.1.10 / Dynamic Range Meter 1.1.1
log date: 2016-12-26 18:49:50
--------------------------------------------------------------------------------
Analyzed: Barbara Jean English / Northern Soul Forever (1)
Candy & The Kisses / Northern Soul Forever (2)
Carl Douglas / Northern Soul Forever (3)
Devonnes / Northern Soul Forever (4)
Eloise Laws / Northern Soul Forever (5)
Geno Washington & The Ram Jam Band / Northern Soul Forever (6)
Get Away From Me Girl / Northern Soul Forever (7)
Jimmy James & The Vagabonds / Northern Soul Forever (8)
Margo & The Marvettes / Northern Soul Forever (9)
New Cymbals / Northern Soul Forever (10)
Otis Smith / Northern Soul Forever (11)
Spooky & Sue / Northern Soul Forever (12)
The Carstairs / Northern Soul Forever (13)
The Cherry People / Northern Soul Forever (14)
The Continental Four / Northern Soul Forever (15)
The Sapphires / Northern Soul Forever (16)
The Showstoppers / Northern Soul Forever (17)
The Whispers / Northern Soul Forever (18)
The Yum Yums / Northern Soul Forever (19)
Virgil Henry / Northern Soul Forever (20)
--------------------------------------------------------------------------------
DR Peak RMS Duration Track
--------------------------------------------------------------------------------
DR8 -0.62 dB -9.76 dB 2:56 ?-I'm Living A Lie
DR8 -1.70 dB -10.55 dB 2:33 ?-The 81
DR8 -0.70 dB -10.37 dB 2:38 ?-I Want To Give You My Everything
DR9 -1.90 dB -11.79 dB 3:33 ?-I'm Gonna Pick Up My Toys
DR9 -1.80 dB -12.10 dB 3:26 ?-Love Factory
DR9 -0.90 dB -11.35 dB 2:42 ?-If This Is Love (I'd Rather Be Lonely)
DR8 -0.80 dB -9.52 dB 2:11 ?-Willie & West
DR8 -2.10 dB -11.93 dB 2:33 ?-This Heart Of Mine
DR9 -0.70 dB -10.90 dB 2:59 ?-When Love Slips Away
DR7 -1.50 dB -10.16 dB 2:23 ?-I Will Always Love You
DR9 -1.65 dB -11.73 dB 2:45 ?-Let Her Go
DR9 -0.70 dB -11.12 dB 2:56 ?-I Got The Need
DR9 -0.70 dB -11.48 dB 3:32 ?-It Really Hurts Me Girl
DR10 -1.90 dB -14.35 dB 2:06 ?-And Suddenly
DR7 -0.70 dB -8.34 dB 3:04 ?-The Way I Love You
DR7 -0.80 dB -9.18 dB 2:33 ?-Baby You Got Me
DR9 -0.70 dB -10.88 dB 2:32 ?-What Can A Man Do
DR8 -1.50 dB -11.01 dB 2:37 ?-Remember Me
DR9 -0.70 dB -11.31 dB 2:24 ?-Gonna Be A Big Thing
DR10 -2.60 dB -13.77 dB 2:55 ?-You Ain't Sayin' Nothing New
--------------------------------------------------------------------------------
Number of tracks: 20
Official DR value: DR8
Samplerate: 44100 Hz
Channels: 2
Bits per sample: 16
Bitrate: 792 kbps
Codec: FLAC
================================================================================
Приватный:
Нет (DHT включён)
Размер:
265.63 Мб (278,532,891 байт) » файлов: 24
Участники:
0 раздают, 0 качают (0 участников всего)
Внешние участники:
1 раздают, 0 качают (1 участников всего) [ Обновить ]
Есть вопросы - пишите личное сообщение пользователю M0p94ok.
12:34
47
Нет комментариев. Ваш будет первым!