Поиск

(Funk, Soul) [CD] VA - Living In The Streets Vol 3: Bustin' Outta The Ghetto - 2002, FLAC (tracks+.cue), lossless

(Funk, Soul) [CD] VA - Living In The Streets Vol 3: Bustin' Outta The Ghetto - 2002, FLAC (tracks+.cue), lossless
Треклист:
Living In The Streets Vol 3: Bustin' Outta The Ghetto
Жанр: Funk, Soul
Носитель: CD
Страна-производитель диска (релиза): UK
Год издания: 2002
Издатель (лейбл): BGP
Номер по каталогу: CDBGPD 151
Аудиокодек: FLAC (*.flac)
Тип рипа: tracks+.cue
Битрейт аудио: lossless
Продолжительность: 01:09:00
Источник (релизер): duppyb
Наличие сканов в содержимом раздачи: да
Треклист:
1. Carlos Malcolm - Bustin' Outta The Ghetto 3:13
2. The Generation - I'm A Good Woman 4:21
3. Billy Hawks - (Oh Baby) I Do Believe I'm Losing You 3:02
4. The Mighty Tom Cats - Dance Girl 3:44
5. Fatback - You Gotta Believe 3:13
6. The Mighty Tom Cats - -Soul Makossa 4:25
7. Tanya Winley - Vicious Rap 7:12
8. Bobby Rush - Mary Jane 2:25
9. King Hannibal - The Truth Shall Make You Free 3:16
10. Johnny King And The Fatback Band - Peace, Love Not War 2:37
11. Winfield Parker - Starvin' 3:53
12. Spanky Wilson - He Called Me Baby 4:33
13. East LA Car Pool - Seeds Of Life 3:51
14. Jade - Viva! (Viva Tirado) 3:02
15 Gary Bartz - I've Known Rivers 8:34
16. Lorez Alexandria - I'm Wishin' 2:59
17 Pat Bowie & Charles McPherson - Feeling Good 4:13
 
Лог создания рипа
Exact Audio Copy V1.0 beta 3 from 29. August 2011
EAC extraction logfile from 31. January 2013, 9:17
Various / Living in the Streets 3
Used drive : ASUS DRW-24B3ST Adapter: 3 ID: 1
Read mode : Secure
Utilize accurate stream : Yes
Defeat audio cache : Yes
Make use of C2 pointers : No
Read offset correction : 6
Overread into Lead-In and Lead-Out : No
Fill up missing offset samples with silence : Yes
Delete leading and trailing silent blocks : No
Null samples used in CRC calculations : Yes
Used interface : Native Win32 interface for Win NT & 2000
Gap handling : Appended to previous track
Used output format : User Defined Encoder
Selected bitrate : 128 kBit/s
Quality : High
Add ID3 tag : No
Command line compressor : C:\Program Files\Exact Audio Copy\Flac\flac.exe
Additional command line options : -V -8 -T "Genre=%genre%" -T "Artist=%artist%" -T "Title=%title%" -T "Album=%albumtitle%" -T "Date=%year%" -T "Tracknumber=%tracknr%" -T "Comment=%comment%" %source%
TOC of the extracted CD
Track | Start | Length | Start sector | End sector
---------------------------------------------------------
1 | 0:00.00 | 3:15.73 | 0 | 14697
2 | 3:15.73 | 4:24.07 | 14698 | 34504
3 | 7:40.05 | 3:04.74 | 34505 | 48378
4 | 10:45.04 | 3:46.45 | 48379 | 65373
5 | 14:31.49 | 3:15.53 | 65374 | 80051
6 | 17:47.27 | 4:27.48 | 80052 | 100124
7 | 22:15.00 | 7:14.25 | 100125 | 132699
8 | 29:29.25 | 2:27.62 | 132700 | 143786
9 | 31:57.12 | 3:18.73 | 143787 | 158709
10 | 35:16.10 | 2:39.64 | 158710 | 170698
11 | 37:55.74 | 3:55.66 | 170699 | 188389
12 | 41:51.65 | 4:36.15 | 188390 | 209104
13 | 46:28.05 | 3:51.13 | 209105 | 226442
14 | 50:19.18 | 3:05.09 | 226443 | 240326
15 | 53:24.27 | 8:36.66 | 240327 | 279092
16 | 62:01.18 | 3:01.50 | 279093 | 292717
17 | 65:02.68 | 4:13.64 | 292718 | 311756
Track 1
Filename G:\Complete\Various - Living in the Streets 3 (2002)\01. Carlos Malcolm - Bustin' Outta the Ghetto .wav
Pre-gap length 0:00:02.00
Peak level 96.5 %
Extraction speed 3.3 X
Track quality 100.0 %
Test CRC F0C9853A
Copy CRC F0C9853A
Cannot be verified as accurate (confidence 3) [2727F683], AccurateRip returned [A9C83991] (AR v2)
Copy OK
Track 2
Filename G:\Complete\Various - Living in the Streets 3 (2002)\02. The Generation - I'm a Good Woman .wav
Pre-gap length 0:00:02.20
Peak level 96.3 %
Extraction speed 3.8 X
Track quality 100.0 %
Test CRC 0B31E476
Copy CRC 0B31E476
Cannot be verified as accurate (confidence 3) [886CB851], AccurateRip returned [43C7AFFB] (AR v2)
Copy OK
Track 3
Filename G:\Complete\Various - Living in the Streets 3 (2002)\03. Billy Hawks - (Oh Baby) I Do Believe I'm Losing You .wav
Pre-gap length 0:00:02.20
Peak level 94.9 %
Extraction speed 4.0 X
Track quality 100.0 %
Test CRC C6D854D7
Copy CRC C6D854D7
Cannot be verified as accurate (confidence 3) [D41E4B30], AccurateRip returned [6A1E97EF] (AR v2)
Copy OK
Track 4
Filename G:\Complete\Various - Living in the Streets 3 (2002)\04. The Mighty Tom Cats - Dance Girl .wav
Pre-gap length 0:00:02.20
Peak level 96.2 %
Extraction speed 4.3 X
Track quality 100.0 %
Test CRC D4BAC519
Copy CRC D4BAC519
Cannot be verified as accurate (confidence 2) [816B93A2], AccurateRip returned [14E2F44A] (AR v2)
Copy OK
Track 5
Filename G:\Complete\Various - Living in the Streets 3 (2002)\05. Fatback - You Gotta Believe .wav
Pre-gap length 0:00:02.20
Peak level 99.8 %
Extraction speed 4.5 X
Track quality 100.0 %
Test CRC 18F825EC
Copy CRC 18F825EC
Cannot be verified as accurate (confidence 3) [9DE56AB5], AccurateRip returned [EDD12CD9] (AR v2)
Copy OK
Track 6
Filename G:\Complete\Various - Living in the Streets 3 (2002)\06. The Mighty Tom Cats - Soul Makossa .wav
Pre-gap length 0:00:02.20
Peak level 95.6 %
Extraction speed 4.9 X
Track quality 100.0 %
Test CRC 031EFCEE
Copy CRC 031EFCEE
Cannot be verified as accurate (confidence 3) [0CC64A78], AccurateRip returned [FC79188B] (AR v2)
Copy OK
Track 7
Filename G:\Complete\Various - Living in the Streets 3 (2002)\07. Tanya Winley - Vicious Rap .wav
Pre-gap length 0:00:02.20
Peak level 92.3 %
Extraction speed 5.5 X
Track quality 100.0 %
Test CRC 439BDEA6
Copy CRC 439BDEA6
Cannot be verified as accurate (confidence 3) [CCAD878F], AccurateRip returned [3C7445EC] (AR v2)
Copy OK
Track 8
Filename G:\Complete\Various - Living in the Streets 3 (2002)\08. Bobby Rush - Mary Jane .wav
Pre-gap length 0:00:02.20
Peak level 93.3 %
Extraction speed 5.0 X
Track quality 100.0 %
Test CRC EE520235
Copy CRC EE520235
Cannot be verified as accurate (confidence 3) [BFB16535], AccurateRip returned [391D6B87] (AR v2)
Copy OK
Track 9
Filename G:\Complete\Various - Living in the Streets 3 (2002)\09. King Hannibal - The Truth Shall Make You Free .wav
Pre-gap length 0:00:02.20
Peak level 95.3 %
Extraction speed 5.5 X
Track quality 100.0 %
Test CRC B5DBB3AD
Copy CRC B5DBB3AD
Cannot be verified as accurate (confidence 3) [CE205536], AccurateRip returned [3279B0BA] (AR v2)
Copy OK
Track 10
Filename G:\Complete\Various - Living in the Streets 3 (2002)\10. Johnny King and the Fatback Band - Peace, Love Not War .wav
Pre-gap length 0:00:02.20
Peak level 92.9 %
Extraction speed 5.3 X
Track quality 100.0 %
Test CRC D8A95F21
Copy CRC D8A95F21
Cannot be verified as accurate (confidence 3) [009EF423], AccurateRip returned [D7E00B9F] (AR v2)
Copy OK
Track 11
Filename G:\Complete\Various - Living in the Streets 3 (2002)\11. Winifield Parker - Starvin' .wav
Pre-gap length 0:00:02.20
Peak level 94.8 %
Extraction speed 6.0 X
Track quality 100.0 %
Test CRC 95BC83A5
Copy CRC 95BC83A5
Cannot be verified as accurate (confidence 3) [A30DFC31], AccurateRip returned [8E2C1F56] (AR v2)
Copy OK
Track 12
Filename G:\Complete\Various - Living in the Streets 3 (2002)\12. Spanky Wilson - He Called Me Baby .wav
Pre-gap length 0:00:02.20
Peak level 95.5 %
Extraction speed 5.1 X
Track quality 99.9 %
Test CRC 8FAA13EA
Copy CRC 8FAA13EA
Cannot be verified as accurate (confidence 3) [1C589A4F], AccurateRip returned [6B7E754F] (AR v2)
Copy OK
Track 13
Filename G:\Complete\Various - Living in the Streets 3 (2002)\13. East LA Car Pool - Seeds of Life .wav
Pre-gap length 0:00:02.20
Peak level 95.9 %
Extraction speed 6.3 X
Track quality 100.0 %
Test CRC 670628F5
Copy CRC 670628F5
Cannot be verified as accurate (confidence 3) [90915C04], AccurateRip returned [778A2C17] (AR v2)
Copy OK
Track 14
Filename G:\Complete\Various - Living in the Streets 3 (2002)\14. Jade - Viva! (Viva Tirado) .wav
Pre-gap length 0:00:02.20
Peak level 89.1 %
Extraction speed 6.3 X
Track quality 100.0 %
Test CRC AA22C09F
Copy CRC AA22C09F
Cannot be verified as accurate (confidence 3) [2883FD08], AccurateRip returned [0C326850] (AR v2)
Copy OK
Track 15
Filename G:\Complete\Various - Living in the Streets 3 (2002)\15. Gary Bartz - I've Known Rivers .wav
Pre-gap length 0:00:02.20
Peak level 94.0 %
Extraction speed 7.4 X
Track quality 100.0 %
Test CRC DF915F33
Copy CRC DF915F33
Cannot be verified as accurate (confidence 3) [3C0B6E51], AccurateRip returned [DD6CAFA1] (AR v2)
Copy OK
Track 16
Filename G:\Complete\Various - Living in the Streets 3 (2002)\16. Lorez Aelxandria - I'm Wishin' .wav
Pre-gap length 0:00:02.20
Peak level 93.4 %
Extraction speed 6.7 X
Track quality 100.0 %
Test CRC D20EE358
Copy CRC D20EE358
Cannot be verified as accurate (confidence 3) [FE8462B7], AccurateRip returned [84F16E38] (AR v2)
Copy OK
Track 17
Filename G:\Complete\Various - Living in the Streets 3 (2002)\17. Pat Bowie with Charles McPherson - Feeling Good .wav
Pre-gap length 0:00:02.20
Peak level 93.6 %
Extraction speed 7.3 X
Track quality 100.0 %
Test CRC D57611CE
Copy CRC D57611CE
Cannot be verified as accurate (confidence 3) [E6B3BBF8], AccurateRip returned [8374ACB6] (AR v2)
Copy OK
No tracks could be verified as accurate
You may have a different pressing from the one(s) in the database
No errors occurred
End of status report
==== Log checksum CB3C545AF325A382765E573ACD5708E2FE72F380533242EE3514362B714E2EB1 ====
 
Содержание индексной карты (.CUE)
REM GENRE R&B
REM DATE 2002
REM DISCID EF103C11
REM COMMENT "ExactAudioCopy v1.0b3"
PERFORMER "Various"
TITLE "Living in the Streets 3"
FILE "01. Carlos Malcolm - Bustin' Outta the Ghetto .wav" WAVE
TRACK 01 AUDIO
TITLE "Bustin' Outta the Ghetto"
PERFORMER "Carlos Malcolm"
INDEX 01 00:00:00
TRACK 02 AUDIO
TITLE "I'm a Good Woman"
PERFORMER "The Generation"
INDEX 00 03:13:53
FILE "02. The Generation - I'm a Good Woman .wav" WAVE
INDEX 01 00:00:00
TRACK 03 AUDIO
TITLE "(Oh Baby) I Do Believe I'm Losing You"
PERFORMER "Billy Hawks"
INDEX 00 04:21:62
FILE "03. Billy Hawks - (Oh Baby) I Do Believe I'm Losing You .wav" WAVE
INDEX 01 00:00:00
TRACK 04 AUDIO
TITLE "Dance Girl"
PERFORMER "The Mighty Tom Cats"
INDEX 00 03:02:54
FILE "04. The Mighty Tom Cats - Dance Girl .wav" WAVE
INDEX 01 00:00:00
TRACK 05 AUDIO
TITLE "You Gotta Believe"
PERFORMER "Fatback"
INDEX 00 03:44:25
FILE "05. Fatback - You Gotta Believe .wav" WAVE
INDEX 01 00:00:00
TRACK 06 AUDIO
TITLE "Soul Makossa"
PERFORMER "The Mighty Tom Cats"
INDEX 00 03:13:33
FILE "06. The Mighty Tom Cats - Soul Makossa .wav" WAVE
INDEX 01 00:00:00
TRACK 07 AUDIO
TITLE "Vicious Rap"
PERFORMER "Tanya Winley"
INDEX 00 04:25:28
FILE "07. Tanya Winley - Vicious Rap .wav" WAVE
INDEX 01 00:00:00
TRACK 08 AUDIO
TITLE "Mary Jane"
PERFORMER "Bobby Rush"
INDEX 00 07:12:05
FILE "08. Bobby Rush - Mary Jane .wav" WAVE
INDEX 01 00:00:00
TRACK 09 AUDIO
TITLE "The Truth Shall Make You Free"
PERFORMER "King Hannibal"
INDEX 00 02:25:42
FILE "09. King Hannibal - The Truth Shall Make You Free .wav" WAVE
INDEX 01 00:00:00
TRACK 10 AUDIO
TITLE "Peace, Love Not War"
PERFORMER "Johnny King and the Fatback Band"
INDEX 00 03:16:53
FILE "10. Johnny King and the Fatback Band - Peace, Love Not War .wav" WAVE
INDEX 01 00:00:00
TRACK 11 AUDIO
TITLE "Starvin'"
PERFORMER "Winifield Parker"
INDEX 00 02:37:44
FILE "11. Winifield Parker - Starvin' .wav" WAVE
INDEX 01 00:00:00
TRACK 12 AUDIO
TITLE "He Called Me Baby"
PERFORMER "Spanky Wilson"
INDEX 00 03:53:46
FILE "12. Spanky Wilson - He Called Me Baby .wav" WAVE
INDEX 01 00:00:00
TRACK 13 AUDIO
TITLE "Seeds of Life"
PERFORMER "East LA Car Pool"
INDEX 00 04:33:70
FILE "13. East LA Car Pool - Seeds of Life .wav" WAVE
INDEX 01 00:00:00
TRACK 14 AUDIO
TITLE "Viva! (Viva Tirado)"
PERFORMER "Jade"
INDEX 00 03:48:68
FILE "14. Jade - Viva! (Viva Tirado) .wav" WAVE
INDEX 01 00:00:00
TRACK 15 AUDIO
TITLE "I've Known Rivers"
PERFORMER "Gary Bartz"
INDEX 00 03:02:64
FILE "15. Gary Bartz - I've Known Rivers .wav" WAVE
INDEX 01 00:00:00
TRACK 16 AUDIO
TITLE "I'm Wishin'"
PERFORMER "Lorez Aelxandria"
INDEX 00 08:34:46
FILE "16. Lorez Aelxandria - I'm Wishin' .wav" WAVE
INDEX 01 00:00:00
TRACK 17 AUDIO
TITLE "Feeling Good"
PERFORMER "Pat Bowie with Charles McPherson"
INDEX 00 02:59:30
FILE "17. Pat Bowie with Charles McPherson - Feeling Good .wav" WAVE
INDEX 01 00:00:00
 
Об альбоме (сборнике)
Приватный:
Нет (DHT включён)
Размер:
411.48 Мб (431,472,059 байт) » файлов: 28
Участники:
0 раздают, 0 качают (0 участников всего)
Внешние участники:
2 раздают, 1 качают (3 участников всего) [ Обновить ]
Есть вопросы - пишите личное сообщение пользователю M0p94ok.
12:35
100
Нет комментариев. Ваш будет первым!