Поиск

(Soul, Early R&B) [CD] VA - The Sue Records Story: New York City: The Sound of Soul - 1994, FLAC (tracks+.cue), lossless

(Soul, Early R&B) [CD] VA - The Sue Records Story: New York City: The Sound of Soul - 1994, FLAC (tracks+.cue), lossless
Треклист:
The Sue Records Story: New York City: The Sound of Soul
Жанр: Soul, Early R&B
Носитель: CD
Год издания: 1994
Издатель (лейбл): EMI
Номер по каталогу: SUEBOX1
Аудиокодек: FLAC (*.flac)
Тип рипа: tracks+.cue
Битрейт аудио: lossless
Продолжительность: 01:02:17 + 01:07:11 + 01:05:02 + 01:05:30
Источник (релизер): сеть
Наличие сканов в содержимом раздачи: нет
 
"DISC 1
Треклист:
1. Vengeance (Will Be Mine) - The Matadors
2. Itchy Twitchy Feeling - Bobby Hendricks
3. Written in the Stars - The Four Jokers
4. Believe It or Not - Don Covay
5. A - Thousand Dreams - Bobby Hendricks
6. I Feel Like a Million - Mamie Bradley
7. Betty Jean - Don Covay
8. The Chicken Scratch - The Commandos
9. Hand in Hand - Johnny Darrow
10. Psycho - Bobby Hendricks
11. Don't Leave - Bobby Adams
12. Don't Start Me Talking - Johnny Darrow
13. A - Fool In Love - Ike & Tina Turner
14. Night Ridin' - The Night Riders
15. I Idolize You - Ike & Tina Turner
16. That's All I Need - Ike Turner & His Kings of Rhythm
17. Trouble Up the Road - Jackie Brenston
18. I'm Jealous - Ike & Tina Turner
19. I Wanna Marry You - Jimmy & Jean
20. You Ain't the One - Jackie Brenston
21. My Man Rockhead - Eloise Carter
22. I Can't Believe - Jimmy & Jean
23. My Love - Ike Turner & His Kings of Rhythm
24. Keep Your Business to Yourself - Pearl Woods
25. Stick Shift - The Duals
 
Лог создания рипа
Exact Audio Copy V0.99 prebeta 5 from 4. May 2009
EAC extraction logfile from 5. March 2010, 8:11
Various / The Sue Records Story (Disc 1)
Used drive : TSSTcorpCDDVDW SH-S223F Adapter: 0 ID: 0
Read mode : Secure
Utilize accurate stream : Yes
Defeat audio cache : Yes
Make use of C2 pointers : No
Read offset correction : 6
Overread into Lead-In and Lead-Out : No
Fill up missing offset samples with silence : Yes
Delete leading and trailing silent blocks : No
Null samples used in CRC calculations : Yes
Used interface : Installed external ASPI interface
Gap handling : Appended to previous track
Used output format : User Defined Encoder
Selected bitrate : 192 kBit/s
Quality : High
Add ID3 tag : No
Command line compressor : C:\Program Files\Exact Audio Copy\Flac\flac.exe
Additional command line options : -V -8 -T "artist=%a" -T "title=%t" -T "album=%g" -T "date=%y" -T "tracknumber=%n" -T "genre=%m" %s
TOC of the extracted CD
Track | Start | Length | Start sector | End sector
---------------------------------------------------------
1 | 0:00.33 | 3:03.30 | 33 | 13787
2 | 3:03.63 | 2:32.25 | 13788 | 25212
3 | 5:36.13 | 2:08.32 | 25213 | 34844
4 | 7:44.45 | 2:34.55 | 34845 | 46449
5 | 10:19.25 | 2:51.70 | 46450 | 59344
6 | 13:11.20 | 2:24.00 | 59345 | 70144
7 | 15:35.20 | 2:23.05 | 70145 | 80874
8 | 17:58.25 | 2:23.43 | 80875 | 91642
9 | 20:21.68 | 2:33.50 | 91643 | 103167
10 | 22:55.43 | 2:30.05 | 103168 | 114422
11 | 25:25.48 | 2:49.17 | 114423 | 127114
12 | 28:14.65 | 2:25.45 | 127115 | 138034
13 | 30:40.35 | 2:53.33 | 138035 | 151042
14 | 33:33.68 | 2:26.30 | 151043 | 162022
15 | 36:00.23 | 2:52.40 | 162023 | 174962
16 | 38:52.63 | 2:27.05 | 174963 | 185992
17 | 41:19.68 | 2:12.67 | 185993 | 195959
18 | 43:32.60 | 2:14.30 | 195960 | 206039
19 | 45:47.15 | 2:00.05 | 206040 | 215044
20 | 47:47.20 | 2:13.35 | 215045 | 225054
21 | 50:00.55 | 2:41.03 | 225055 | 237132
22 | 52:41.58 | 2:12.50 | 237133 | 247082
23 | 54:54.33 | 2:19.55 | 247083 | 257562
24 | 57:14.13 | 2:30.25 | 257563 | 268837
25 | 59:44.38 | 2:30.65 | 268838 | 280152
Track 1
Filename Z:\EAC\Various - 1994 - The Sue Records Story (Disc 1) [FLAC]\01 - Vengeance (Will Be Mine).wav
Pre-gap length 0:00:02.44
Peak level 91.9 %
Track quality 100.0 %
Test CRC 33C79BD4
Copy CRC 33C79BD4
Accurately ripped (confidence 3) [700A394B]
Copy OK
Track 2
Filename Z:\EAC\Various - 1994 - The Sue Records Story (Disc 1) [FLAC]\02 - Itchy Twitchy Feeling.wav
Pre-gap length 0:00:02.53
Peak level 94.6 %
Track quality 100.0 %
Test CRC 9533D6EE
Copy CRC 9533D6EE
Accurately ripped (confidence 2) [EB309B40]
Copy OK
Track 3
Filename Z:\EAC\Various - 1994 - The Sue Records Story (Disc 1) [FLAC]\03 - Written In The Stars.wav
Pre-gap length 0:00:02.86
Peak level 70.0 %
Track quality 100.0 %
Test CRC 2ABC7BF0
Copy CRC 2ABC7BF0
Accurately ripped (confidence 2) [38AA24D1]
Copy OK
Track 4
Filename Z:\EAC\Various - 1994 - The Sue Records Story (Disc 1) [FLAC]\04 - Believe It Or Not.wav
Pre-gap length 0:00:02.36
Peak level 85.8 %
Track quality 99.9 %
Test CRC 352B7F91
Copy CRC 352B7F91
Accurately ripped (confidence 2) [F8DD0505]
Copy OK
Track 5
Filename Z:\EAC\Various - 1994 - The Sue Records Story (Disc 1) [FLAC]\05 - A Thousand Dreams.wav
Pre-gap length 0:00:02.26
Peak level 92.0 %
Track quality 100.0 %
Test CRC 58D2EB2D
Copy CRC 58D2EB2D
Accurately ripped (confidence 2) [AC820A58]
Copy OK
Track 6
Filename Z:\EAC\Various - 1994 - The Sue Records Story (Disc 1) [FLAC]\06 - I Feel Like a Million.wav
Pre-gap length 0:00:02.82
Peak level 83.7 %
Track quality 100.0 %
Test CRC 787E628A
Copy CRC 787E628A
Accurately ripped (confidence 2) [B57946B2]
Copy OK
Track 7
Filename Z:\EAC\Various - 1994 - The Sue Records Story (Disc 1) [FLAC]\07 - Betty Jean.wav
Pre-gap length 0:00:02.93
Peak level 77.3 %
Track quality 100.0 %
Test CRC AD1A90A8
Copy CRC AD1A90A8
Accurately ripped (confidence 2) [5E87C15B]
Copy OK
Track 8
Filename Z:\EAC\Various - 1994 - The Sue Records Story (Disc 1) [FLAC]\08 - The Chicken Scratch.wav
Pre-gap length 0:00:01.46
Peak level 94.7 %
Track quality 100.0 %
Test CRC B42718BC
Copy CRC B42718BC
Accurately ripped (confidence 2) [50465AE7]
Copy OK
Track 9
Filename Z:\EAC\Various - 1994 - The Sue Records Story (Disc 1) [FLAC]\09 - Hand In Hand.wav
Pre-gap length 0:00:02.93
Peak level 89.8 %
Track quality 100.0 %
Test CRC 9C6A38D5
Copy CRC 9C6A38D5
Accurately ripped (confidence 2) [05BE200D]
Copy OK
Track 10
Filename Z:\EAC\Various - 1994 - The Sue Records Story (Disc 1) [FLAC]\10 - Psycho.wav
Pre-gap length 0:00:02.53
Peak level 87.6 %
Track quality 99.9 %
Test CRC 1117740A
Copy CRC 1117740A
Accurately ripped (confidence 2) [25D7EBFB]
Copy OK
Track 11
Filename Z:\EAC\Various - 1994 - The Sue Records Story (Disc 1) [FLAC]\11 - Don't Leave.wav
Pre-gap length 0:00:02.33
Peak level 100.0 %
Track quality 100.0 %
Test CRC 11DACEC0
Copy CRC 11DACEC0
Track not present in AccurateRip database
Copy OK
Track 12
Filename Z:\EAC\Various - 1994 - The Sue Records Story (Disc 1) [FLAC]\12 - Don't Start Me Talking.wav
Pre-gap length 0:00:01.69
Peak level 100.0 %
Track quality 100.0 %
Test CRC A410C614
Copy CRC A410C614
Accurately ripped (confidence 2) [07CA70F8]
Copy OK
Track 13
Filename Z:\EAC\Various - 1994 - The Sue Records Story (Disc 1) [FLAC]\13 - A Fool In Love.wav
Pre-gap length 0:00:02.20
Peak level 100.0 %
Track quality 100.0 %
Test CRC BC4BBB9E
Copy CRC BC4BBB9E
Accurately ripped (confidence 2) [21A258E9]
Copy OK
Track 14
Filename Z:\EAC\Various - 1994 - The Sue Records Story (Disc 1) [FLAC]\14 - Night Ridin'.wav
Pre-gap length 0:00:01.86
Peak level 81.3 %
Track quality 100.0 %
Test CRC 2D393AE2
Copy CRC 2D393AE2
Track not present in AccurateRip database
Copy OK
Track 15
Filename Z:\EAC\Various - 1994 - The Sue Records Story (Disc 1) [FLAC]\15 - I Idolize You.wav
Pre-gap length 0:00:02.50
Peak level 76.6 %
Track quality 100.0 %
Test CRC 58FC758F
Copy CRC 58FC758F
Accurately ripped (confidence 2) [B9DBD245]
Copy OK
Track 16
Filename Z:\EAC\Various - 1994 - The Sue Records Story (Disc 1) [FLAC]\16 - That's All I Need.wav
Pre-gap length 0:00:01.73
Peak level 79.4 %
Track quality 99.9 %
Test CRC 60BC1769
Copy CRC 60BC1769
Accurately ripped (confidence 2) [C458E479]
Copy OK
Track 17
Filename Z:\EAC\Various - 1994 - The Sue Records Story (Disc 1) [FLAC]\17 - Trouble Up The Road.wav
Pre-gap length 0:00:02.04
Peak level 85.9 %
Track quality 100.0 %
Test CRC 7BD471E9
Copy CRC 7BD471E9
Accurately ripped (confidence 2) [02140223]
Copy OK
Track 18
Filename Z:\EAC\Various - 1994 - The Sue Records Story (Disc 1) [FLAC]\18 - I'm Jealous.wav
Pre-gap length 0:00:02.09
Peak level 97.8 %
Track quality 100.0 %
Test CRC 3A91834F
Copy CRC 3A91834F
Track not present in AccurateRip database
Copy OK
Track 19
Filename Z:\EAC\Various - 1994 - The Sue Records Story (Disc 1) [FLAC]\19 - I Wanna Marry You.wav
Pre-gap length 0:00:01.89
Peak level 73.1 %
Track quality 100.0 %
Test CRC 6945B3F5
Copy CRC 6945B3F5
Accurately ripped (confidence 2) [AAAC8A44]
Copy OK
Track 20
Filename Z:\EAC\Various - 1994 - The Sue Records Story (Disc 1) [FLAC]\20 - You Ain't The One.wav
Pre-gap length 0:00:01.62
Peak level 97.7 %
Track quality 99.9 %
Test CRC 2332F8C5
Copy CRC 2332F8C5
Accurately ripped (confidence 2) [56310A40]
Copy OK
Track 21
Filename Z:\EAC\Various - 1994 - The Sue Records Story (Disc 1) [FLAC]\21 - My Man Rockhead.wav
Pre-gap length 0:00:02.69
Peak level 90.3 %
Track quality 99.9 %
Test CRC 90BC58A7
Copy CRC 90BC58A7
Track not present in AccurateRip database
Copy OK
Track 22
Filename Z:\EAC\Various - 1994 - The Sue Records Story (Disc 1) [FLAC]\22 - I Can't Believe.wav
Pre-gap length 0:00:02.13
Peak level 84.3 %
Track quality 100.0 %
Test CRC A7ACA16F
Copy CRC A7ACA16F
Accurately ripped (confidence 2) [CAACF0B0]
Copy OK
Track 23
Filename Z:\EAC\Various - 1994 - The Sue Records Story (Disc 1) [FLAC]\23 - My Love.wav
Pre-gap length 0:00:02.37
Peak level 73.1 %
Track quality 100.0 %
Test CRC 245DB1D7
Copy CRC 245DB1D7
Track not present in AccurateRip database
Copy OK
Track 24
Filename Z:\EAC\Various - 1994 - The Sue Records Story (Disc 1) [FLAC]\24 - Keep Your Business to Yourself.wav
Pre-gap length 0:00:02.24
Peak level 85.2 %
Track quality 100.0 %
Test CRC E35212A2
Copy CRC E35212A2
Track not present in AccurateRip database
Copy OK
Track 25
Filename Z:\EAC\Various - 1994 - The Sue Records Story (Disc 1) [FLAC]\25 - Stick Shift.wav
Pre-gap length 0:00:01.86
Peak level 93.0 %
Track quality 100.0 %
Test CRC FB5D7675
Copy CRC FB5D7675
Track not present in AccurateRip database
Copy OK
18 track(s) accurately ripped
7 track(s) not present in the AccurateRip database
Some tracks could not be verified as accurate
No errors occurred
End of status report
 
Содержание индексной карты (.CUE)
REM GENRE Soul
REM DATE 1994
REM DISCID 6B0E9719
REM COMMENT "ExactAudioCopy v0.99pb5"
PERFORMER "Various"
TITLE "The Sue Records Story (Disc 1)"
FILE "01 - Vengeance (Will Be Mine).wav" WAVE
TRACK 01 AUDIO
TITLE "Vengeance (Will Be Mine)"
PERFORMER "The Matadors"
PREGAP 00:00:33
INDEX 01 00:00:00
TRACK 02 AUDIO
TITLE "Itchy Twitchy Feeling"
PERFORMER "Bobby Hendricks"
INDEX 00 03:00:65
FILE "02 - Itchy Twitchy Feeling.wav" WAVE
INDEX 01 00:00:00
TRACK 03 AUDIO
TITLE "Written In The Stars"
PERFORMER "The Four Jokers"
INDEX 00 02:29:35
FILE "03 - Written In The Stars.wav" WAVE
INDEX 01 00:00:00
TRACK 04 AUDIO
TITLE "Believe It Or Not"
PERFORMER "Don Covay"
INDEX 00 02:06:05
FILE "04 - Believe It Or Not.wav" WAVE
INDEX 01 00:00:00
TRACK 05 AUDIO
TITLE "A Thousand Dreams"
PERFORMER "Bobby Hendricks"
INDEX 00 02:32:35
FILE "05 - A Thousand Dreams.wav" WAVE
INDEX 01 00:00:00
TRACK 06 AUDIO
TITLE "I Feel Like a Million"
PERFORMER "Mamie Bradley"
INDEX 00 02:49:08
FILE "06 - I Feel Like a Million.wav" WAVE
INDEX 01 00:00:00
TRACK 07 AUDIO
TITLE "Betty Jean"
PERFORMER "Don Covay"
INDEX 00 02:21:05
FILE "07 - Betty Jean.wav" WAVE
INDEX 01 00:00:00
TRACK 08 AUDIO
TITLE "The Chicken Scratch"
PERFORMER "The Commandos"
INDEX 00 02:21:45
FILE "08 - The Chicken Scratch.wav" WAVE
INDEX 01 00:00:00
TRACK 09 AUDIO
TITLE "Hand In Hand"
PERFORMER "Johnny Darrow"
INDEX 00 02:20:48
FILE "09 - Hand In Hand.wav" WAVE
INDEX 01 00:00:00
TRACK 10 AUDIO
TITLE "Psycho"
PERFORMER "Bobby Hendricks"
INDEX 00 02:31:10
FILE "10 - Psycho.wav" WAVE
INDEX 01 00:00:00
TRACK 11 AUDIO
TITLE "Don't Leave"
PERFORMER "Bobby Adams"
INDEX 00 02:27:55
FILE "11 - Don't Leave.wav" WAVE
INDEX 01 00:00:00
TRACK 12 AUDIO
TITLE "Don't Start Me Talking"
PERFORMER "Johnny Darrow"
INDEX 00 02:47:40
FILE "12 - Don't Start Me Talking.wav" WAVE
INDEX 01 00:00:00
TRACK 13 AUDIO
TITLE "A Fool In Love"
PERFORMER "Ike & Tina Turner"
INDEX 00 02:23:30
FILE "13 - A Fool In Love.wav" WAVE
INDEX 01 00:00:00
TRACK 14 AUDIO
TITLE "Night Ridin'"
PERFORMER "The Night Riders Featuring Piano Van"
INDEX 00 02:51:43
FILE "14 - Night Ridin'.wav" WAVE
INDEX 01 00:00:00
TRACK 15 AUDIO
TITLE "I Idolize You"
PERFORMER "Ike & Tina Turner"
INDEX 00 02:23:67
FILE "15 - I Idolize You.wav" WAVE
INDEX 01 00:00:00
TRACK 16 AUDIO
TITLE "That's All I Need"
PERFORMER "Ike Turner's Kings Of Rhythm"
INDEX 00 02:50:60
FILE "16 - That's All I Need.wav" WAVE
INDEX 01 00:00:00
TRACK 17 AUDIO
TITLE "Trouble Up The Road"
PERFORMER "Jackie Brenston"
INDEX 00 02:25:02
FILE "17 - Trouble Up The Road.wav" WAVE
INDEX 01 00:00:00
TRACK 18 AUDIO
TITLE "I'm Jealous"
PERFORMER "Ike & Tina Turner"
INDEX 00 02:10:60
FILE "18 - I'm Jealous.wav" WAVE
INDEX 01 00:00:00
TRACK 19 AUDIO
TITLE "I Wanna Marry You"
PERFORMER "Jimmy & Jean"
INDEX 00 02:12:38
FILE "19 - I Wanna Marry You.wav" WAVE
INDEX 01 00:00:00
TRACK 20 AUDIO
TITLE "You Ain't The One"
PERFORMER "Jackie Brenston"
INDEX 00 01:58:33
FILE "20 - You Ain't The One.wav" WAVE
INDEX 01 00:00:00
TRACK 21 AUDIO
TITLE "My Man Rockhead"
PERFORMER "Eloise Carter"
INDEX 00 02:10:58
FILE "21 - My Man Rockhead.wav" WAVE
INDEX 01 00:00:00
TRACK 22 AUDIO
TITLE "I Can't Believe"
PERFORMER "Jimmy & Jean"
INDEX 00 02:38:68
FILE "22 - I Can't Believe.wav" WAVE
INDEX 01 00:00:00
TRACK 23 AUDIO
TITLE "My Love"
PERFORMER "Ike Turner's Kings Of Rhythm"
INDEX 00 02:10:22
FILE "23 - My Love.wav" WAVE
INDEX 01 00:00:00
TRACK 24 AUDIO
TITLE "Keep Your Business to Yourself"
PERFORMER "Pearl Woods"
INDEX 00 02:17:37
FILE "24 - Keep Your Business to Yourself.wav" WAVE
INDEX 01 00:00:00
TRACK 25 AUDIO
TITLE "Stick Shift"
PERFORMER "The Duals"
INDEX 00 02:28:35
FILE "25 - Stick Shift.wav" WAVE
INDEX 01 00:00:00
 
"DISC 2
Треклист:
1. It's Gonna Work Out Fine - Ike & Tina Turner
2. She Put the Hurt on Me - Prince La La
3. I Know (You Don't Love Me No More) - Barbara George
4. May I Have This Dance? - The Senors
5. You Talk About Love - Barbara George
6. Gettin' Married Soon - Prince La La
7. Graveyard - The Blenders
8. Poor Fool - Ike & Tina Turner
9. I've Got A Woman: Pt. 1 - Jimmy McGriff
10. A - Handfull Of Memories - Baby Washington
11. Come on Let Me Try - Linda & The Del Rios
12. Tra la la la La - Ike & Tina Turner
13. Prancing - Ike & Tina Turner's Kings Of Rhythm
14. You Should'a Treated Me Right - Ike & Tina Turner
15. Send for Me (If You Need Some Lovin') - Barbara George
16. It Seemed Like Heaven to Me - Elmore Morris
17. Let's Shimmy - King Coleman
18. Hitch Hike: Pt. 1 - Russell Byrd
19. Come Back to Me - Prince La La
20. Worried and Hurtin' Inside - Ike & Tina Turner
21. Any Other Way - Jackie Shane
22. That's How Heartaches Are Made - Baby Washington
23. Hold on Baby - Hockadays
24. Summer's Love - Ritchie Barrett
25. All About My Girl - Jimmy McGriff
 
Лог создания рипа
Exact Audio Copy V0.99 prebeta 5 from 4. May 2009
EAC extraction logfile from 5. March 2010, 9:30
Various / The Sue Records Story (Disc 2)
Used drive : TSSTcorpCDDVDW SH-S223F Adapter: 0 ID: 0
Read mode : Secure
Utilize accurate stream : Yes
Defeat audio cache : Yes
Make use of C2 pointers : No
Read offset correction : 6
Overread into Lead-In and Lead-Out : No
Fill up missing offset samples with silence : Yes
Delete leading and trailing silent blocks : No
Null samples used in CRC calculations : Yes
Used interface : Installed external ASPI interface
Gap handling : Appended to previous track
Used output format : User Defined Encoder
Selected bitrate : 192 kBit/s
Quality : High
Add ID3 tag : No
Command line compressor : C:\Program Files\Exact Audio Copy\Flac\flac.exe
Additional command line options : -V -8 -T "artist=%a" -T "title=%t" -T "album=%g" -T "date=%y" -T "tracknumber=%n" -T "genre=%m" %s
TOC of the extracted CD
Track | Start | Length | Start sector | End sector
---------------------------------------------------------
1 | 0:00.33 | 3:05.17 | 33 | 13924
2 | 3:05.50 | 2:23.63 | 13925 | 24712
3 | 5:29.38 | 2:24.70 | 24713 | 35582
4 | 7:54.33 | 2:26.15 | 35583 | 46547
5 | 10:20.48 | 2:41.00 | 46548 | 58622
6 | 13:01.48 | 2:33.55 | 58623 | 70152
7 | 15:35.28 | 2:30.70 | 70153 | 81472
8 | 18:06.23 | 2:35.60 | 81473 | 93157
9 | 20:42.08 | 2:35.60 | 93158 | 104842
10 | 23:17.68 | 2:24.30 | 104843 | 115672
11 | 25:42.23 | 2:42.37 | 115673 | 127859
12 | 28:24.60 | 2:40.63 | 127860 | 139922
13 | 31:05.48 | 3:48.60 | 139923 | 157082
14 | 34:54.33 | 3:41.32 | 157083 | 173689
15 | 38:35.65 | 2:14.03 | 173690 | 183742
16 | 40:49.68 | 2:25.35 | 183743 | 194652
17 | 43:15.28 | 2:35.17 | 194653 | 206294
18 | 45:50.45 | 2:26.08 | 206295 | 217252
19 | 48:16.53 | 2:48.12 | 217253 | 229864
20 | 51:04.65 | 2:18.00 | 229865 | 240214
21 | 53:22.65 | 2:36.38 | 240215 | 251952
22 | 55:59.28 | 2:44.00 | 251953 | 264252
23 | 58:43.28 | 2:32.20 | 264253 | 275672
24 | 61:15.48 | 3:00.00 | 275673 | 289172
25 | 64:15.48 | 2:53.32 | 289173 | 302179
Track 1
Filename Z:\EAC\Various - 1994 - The Sue Records Story (Disc 2) [FLAC]\01 - It's Gonna Work Out Fine.wav
Pre-gap length 0:00:02.44
Peak level 96.0 %
Track quality 100.0 %
Test CRC F4AED2B1
Copy CRC F4AED2B1
Accurately ripped (confidence 2) [00BF7434]
Copy OK
Track 2
Filename Z:\EAC\Various - 1994 - The Sue Records Story (Disc 2) [FLAC]\02 - She Put The Hurt On Me.wav
Pre-gap length 0:00:02.53
Peak level 85.4 %
Track quality 100.0 %
Test CRC FD0F2298
Copy CRC FD0F2298
Accurately ripped (confidence 2) [168E8C3D]
Copy OK
Track 3
Filename Z:\EAC\Various - 1994 - The Sue Records Story (Disc 2) [FLAC]\03 - I Know (You Don't Love Me No More).wav
Pre-gap length 0:00:01.77
Peak level 100.0 %
Track quality 100.0 %
Test CRC 4352DAEE
Copy CRC 4352DAEE
Accurately ripped (confidence 2) [B0B9E95C]
Copy OK
Track 4
Filename Z:\EAC\Various - 1994 - The Sue Records Story (Disc 2) [FLAC]\04 - May I Have This Dance.wav
Pre-gap length 0:00:01.97
Peak level 71.2 %
Track quality 100.0 %
Test CRC 18B77119
Copy CRC 18B77119
Accurately ripped (confidence 2) [3ED6E3E0]
Copy OK
Track 5
Filename Z:\EAC\Various - 1994 - The Sue Records Story (Disc 2) [FLAC]\05 - You Talk About Love.wav
Pre-gap length 0:00:02.57
Peak level 68.8 %
Track quality 100.0 %
Test CRC BE9A2E21
Copy CRC BE9A2E21
Accurately ripped (confidence 2) [FE2CEEF1]
Copy OK
Track 6
Filename Z:\EAC\Various - 1994 - The Sue Records Story (Disc 2) [FLAC]\06 - Gettin' Married Soon.wav
Pre-gap length 0:00:02.00
Peak level 91.3 %
Track quality 99.9 %
Test CRC 0134E583
Copy CRC 0134E583
Accurately ripped (confidence 2) [8F38C05C]
Copy OK
Track 7
Filename Z:\EAC\Various - 1994 - The Sue Records Story (Disc 2) [FLAC]\07 - Graveyard.wav
Pre-gap length 0:00:02.17
Peak level 90.1 %
Track quality 100.0 %
Test CRC CB7843F3
Copy CRC CB7843F3
Accurately ripped (confidence 2) [48BF9D75]
Copy OK
Track 8
Filename Z:\EAC\Various - 1994 - The Sue Records Story (Disc 2) [FLAC]\08 - Poor Fool.wav
Pre-gap length 0:00:02.33
Peak level 82.0 %
Track quality 100.0 %
Test CRC 20F7BA86
Copy CRC 20F7BA86
Accurately ripped (confidence 2) [50065F83]
Copy OK
Track 9
Filename Z:\EAC\Various - 1994 - The Sue Records Story (Disc 2) [FLAC]\09 - I've Got A Woman (Part 1).wav
Pre-gap length 0:00:02.00
Peak level 78.6 %
Track quality 100.0 %
Test CRC B65DCDF5
Copy CRC B65DCDF5
Accurately ripped (confidence 2) [E3A19CB0]
Copy OK
Track 10
Filename Z:\EAC\Various - 1994 - The Sue Records Story (Disc 2) [FLAC]\10 - A Handful Of Memories.wav
Pre-gap length 0:00:02.30
Peak level 89.4 %
Track quality 100.0 %
Test CRC A19C6B03
Copy CRC A19C6B03
Accurately ripped (confidence 3) [14B2F78A]
Copy OK
Track 11
Filename Z:\EAC\Various - 1994 - The Sue Records Story (Disc 2) [FLAC]\11 - Come On Let Me Try.wav
Pre-gap length 0:00:02.26
Peak level 83.3 %
Track quality 100.0 %
Test CRC 15687F45
Copy CRC 15687F45
Accurately ripped (confidence 2) [08D22144]
Copy OK
Track 12
Filename Z:\EAC\Various - 1994 - The Sue Records Story (Disc 2) [FLAC]\12 - Tra La La La La.wav
Pre-gap length 0:00:02.53
Peak level 77.4 %
Track quality 100.0 %
Test CRC 9A678E9B
Copy CRC 9A678E9B
Accurately ripped (confidence 2) [1DD5DD62]
Copy OK
Track 13
Filename Z:\EAC\Various - 1994 - The Sue Records Story (Disc 2) [FLAC]\13 - Prancing.wav
Pre-gap length 0:00:02.64
Peak level 81.7 %
Track quality 99.9 %
Test CRC 2BB6367E
Copy CRC 2BB6367E
Accurately ripped (confidence 2) [96CC1255]
Copy OK
Track 14
Filename Z:\EAC\Various - 1994 - The Sue Records Story (Disc 2) [FLAC]\14 - You Should'a Treated Me Right.wav
Pre-gap length 0:00:02.84
Peak level 79.7 %
Track quality 100.0 %
Test CRC 010EB4DE
Copy CRC 010EB4DE
Accurately ripped (confidence 2) [AE8CA80E]
Copy OK
Track 15
Filename Z:\EAC\Various - 1994 - The Sue Records Story (Disc 2) [FLAC]\15 - Send For Me (If You Need Some Lovin').wav
Pre-gap length 0:00:02.33
Peak level 74.0 %
Track quality 100.0 %
Test CRC 2BBC48F4
Copy CRC 2BBC48F4
Accurately ripped (confidence 2) [1D6DE0BA]
Copy OK
Track 16
Filename Z:\EAC\Various - 1994 - The Sue Records Story (Disc 2) [FLAC]\16 - It Seemed Like Heaven To Me.wav
Pre-gap length 0:00:02.04
Peak level 84.9 %
Track quality 99.9 %
Test CRC C343AD3E
Copy CRC C343AD3E
Accurately ripped (confidence 2) [297AD3F1]
Copy OK
Track 17
Filename Z:\EAC\Various - 1994 - The Sue Records Story (Disc 2) [FLAC]\17 - Let's Shimmy.wav
Pre-gap length 0:00:02.93
Peak level 100.0 %
Track quality 100.0 %
Test CRC DD8EDF0C
Copy CRC DD8EDF0C
Accurately ripped (confidence 2) [CDF8EAFD]
Copy OK
Track 18
Filename Z:\EAC\Various - 1994 - The Sue Records Story (Disc 2) [FLAC]\18 - Hitch Hike (Part 1).wav
Pre-gap length 0:00:02.33
Peak level 96.5 %
Track quality 99.9 %
Test CRC DCD853D9
Copy CRC DCD853D9
Accurately ripped (confidence 2) [0BF87AE3]
Copy OK
Track 19
Filename Z:\EAC\Various - 1994 - The Sue Records Story (Disc 2) [FLAC]\19 - Come Back To Me.wav
Pre-gap length 0:00:02.13
Peak level 70.3 %
Track quality 100.0 %
Test CRC 11341EBB
Copy CRC 11341EBB
Accurately ripped (confidence 2) [2730DA61]
Copy OK
Track 20
Filename Z:\EAC\Various - 1994 - The Sue Records Story (Disc 2) [FLAC]\20 - Worried And Hurtin' Inside.wav
Pre-gap length 0:00:02.36
Peak level 84.2 %
Track quality 100.0 %
Test CRC 882800D7
Copy CRC 882800D7
Accurately ripped (confidence 2) [C2E25C27]
Copy OK
Track 21
Filename Z:\EAC\Various - 1994 - The Sue Records Story (Disc 2) [FLAC]\21 - Any Other Way.wav
Pre-gap length 0:00:02.36
Peak level 55.6 %
Track quality 100.0 %
Test CRC 4C9BFE28
Copy CRC 4C9BFE28
Accurately ripped (confidence 3) [C5AB0929]
Copy OK
Track 22
Filename Z:\EAC\Various - 1994 - The Sue Records Story (Disc 2) [FLAC]\22 - That's How Heartaches Are Made.wav
Pre-gap length 0:00:02.44
Peak level 77.3 %
Track quality 100.0 %
Test CRC 8A53E410
Copy CRC 8A53E410
Accurately ripped (confidence 3) [90AC51ED]
Copy OK
Track 23
Filename Z:\EAC\Various - 1994 - The Sue Records Story (Disc 2) [FLAC]\23 - Hold On Baby.wav
Pre-gap length 0:00:01.24
Peak level 75.7 %
Track quality 100.0 %
Test CRC 16296732
Copy CRC 16296732
Accurately ripped (confidence 2) [EC81D6F0]
Copy OK
Track 24
Filename Z:\EAC\Various - 1994 - The Sue Records Story (Disc 2) [FLAC]\24 - Summer's Love.wav
Pre-gap length 0:00:01.84
Peak level 62.8 %
Track quality 99.9 %
Test CRC 61CA3BF7
Copy CRC 61CA3BF7
Accurately ripped (confidence 2) [C009DCE0]
Copy OK
Track 25
Filename Z:\EAC\Various - 1994 - The Sue Records Story (Disc 2) [FLAC]\25 - All About My Girl.wav
Pre-gap length 0:00:02.26
Peak level 74.6 %
Track quality 100.0 %
Test CRC 88BDAC00
Copy CRC 88BDAC00
Accurately ripped (confidence 2) [023E2887]
Copy OK
All tracks accurately ripped
No errors occurred
End of status report
 
Содержание индексной карты (.CUE)
REM GENRE Soul
REM DATE 1994
REM DISCID 8C0FBD19
REM COMMENT "ExactAudioCopy v0.99pb5"
PERFORMER "Various"
TITLE "The Sue Records Story (Disc 2)"
FILE "01 - It's Gonna Work Out Fine.wav" WAVE
TRACK 01 AUDIO
TITLE "It's Gonna Work Out Fine"
PERFORMER "Ike & Tina Turner"
PREGAP 00:00:33
INDEX 01 00:00:00
TRACK 02 AUDIO
TITLE "She Put The Hurt On Me"
PERFORMER "Prince La La"
INDEX 00 03:02:52
FILE "02 - She Put The Hurt On Me.wav" WAVE
INDEX 01 00:00:00
TRACK 03 AUDIO
TITLE "I Know (You Don't Love Me No More)"
PERFORMER "Barbara George"
INDEX 00 02:22:05
FILE "03 - I Know (You Don't Love Me No More).wav" WAVE
INDEX 01 00:00:00
TRACK 04 AUDIO
TITLE "May I Have This Dance"
PERFORMER "The Senors"
INDEX 00 02:22:72
FILE "04 - May I Have This Dance.wav" WAVE
INDEX 01 00:00:00
TRACK 05 AUDIO
TITLE "You Talk About Love"
PERFORMER "Barbara George"
INDEX 00 02:23:47
FILE "05 - You Talk About Love.wav" WAVE
INDEX 01 00:00:00
TRACK 06 AUDIO
TITLE "Gettin' Married Soon"
PERFORMER "Prince La La"
INDEX 00 02:39:00
FILE "06 - Gettin' Married Soon.wav" WAVE
INDEX 01 00:00:00
TRACK 07 AUDIO
TITLE "Graveyard"
PERFORMER "The Blenders"
INDEX 00 02:31:42
FILE "07 - Graveyard.wav" WAVE
INDEX 01 00:00:00
TRACK 08 AUDIO
TITLE "Poor Fool"
PERFORMER "Ike & Tina Turner"
INDEX 00 02:28:45
FILE "08 - Poor Fool.wav" WAVE
INDEX 01 00:00:00
TRACK 09 AUDIO
TITLE "I've Got A Woman (Part 1)"
PERFORMER "Jimmy McGriff"
INDEX 00 02:33:60
FILE "09 - I've Got A Woman (Part 1).wav" WAVE
INDEX 01 00:00:00
TRACK 10 AUDIO
TITLE "A Handful Of Memories"
PERFORMER "Baby Washington"
INDEX 00 02:33:37
FILE "10 - A Handful Of Memories.wav" WAVE
INDEX 01 00:00:00
TRACK 11 AUDIO
TITLE "Come On Let Me Try"
PERFORMER "Linda & The Del Rios"
INDEX 00 02:22:10
FILE "11 - Come On Let Me Try.wav" WAVE
INDEX 01 00:00:00
TRACK 12 AUDIO
TITLE "Tra La La La La"
PERFORMER "Ike & Tina Turner"
INDEX 00 02:39:72
FILE "12 - Tra La La La La.wav" WAVE
INDEX 01 00:00:00
TRACK 13 AUDIO
TITLE "Prancing"
PERFORMER "Ike & Tina's Kings Of Rhythm"
INDEX 00 02:38:15
FILE "13 - Prancing.wav" WAVE
INDEX 01 00:00:00
TRACK 14 AUDIO
TITLE "You Should'a Treated Me Right"
PERFORMER "Ike & Tina Turner"
INDEX 00 03:45:72
FILE "14 - You Should'a Treated Me Right.wav" WAVE
INDEX 01 00:00:00
TRACK 15 AUDIO
TITLE "Send For Me (If You Need Some Lovin')"
PERFORMER "Barbara George"
INDEX 00 03:39:07
FILE "15 - Send For Me (If You Need Some Lovin').wav" WAVE
INDEX 01 00:00:00
TRACK 16 AUDIO
TITLE "It Seemed Like Heaven To Me"
PERFORMER "Elmore Morris"
INDEX 00 02:12:00
FILE "16 - It Seemed Like Heaven To Me.wav" WAVE
INDEX 01 00:00:00
TRACK 17 AUDIO
TITLE "Let's Shimmy"
PERFORMER "King Coleman"
INDEX 00 02:22:40
FILE "17 - Let's Shimmy.wav" WAVE
INDEX 01 00:00:00
TRACK 18 AUDIO
TITLE "Hitch Hike (Part 1)"
PERFORMER "Russell Byrd"
INDEX 00 02:32:67
FILE "18 - Hitch Hike (Part 1).wav" WAVE
INDEX 01 00:00:00
TRACK 19 AUDIO
TITLE "Come Back To Me"
PERFORMER "Prince La La"
INDEX 00 02:23:73
FILE "19 - Come Back To Me.wav" WAVE
INDEX 01 00:00:00
TRACK 20 AUDIO
TITLE "Worried And Hurtin' Inside"
PERFORMER "Ike & Tina Turner"
INDEX 00 02:45:60
FILE "20 - Worried And Hurtin' Inside.wav" WAVE
INDEX 01 00:00:00
TRACK 21 AUDIO
TITLE "Any Other Way"
PERFORMER "Jackie Shane"
INDEX 00 02:15:48
FILE "21 - Any Other Way.wav" WAVE
INDEX 01 00:00:00
TRACK 22 AUDIO
TITLE "That's How Heartaches Are Made"
PERFORMER "Baby Washington"
INDEX 00 02:34:05
FILE "22 - That's How Heartaches Are Made.wav" WAVE
INDEX 01 00:00:00
TRACK 23 AUDIO
TITLE "Hold On Baby"
PERFORMER "The Hockadays"
INDEX 00 02:42:57
FILE "23 - Hold On Baby.wav" WAVE
INDEX 01 00:00:00
TRACK 24 AUDIO
TITLE "Summer's Love"
PERFORMER "Ritchie Barrett"
INDEX 00 02:30:32
FILE "24 - Summer's Love.wav" WAVE
INDEX 01 00:00:00
TRACK 25 AUDIO
TITLE "All About My Girl"
PERFORMER "Jimmy McGriff"
INDEX 00 02:57:55
FILE "25 - All About My Girl.wav" WAVE
INDEX 01 00:00:00
 
"DISC 3
Треклист:
1. Mockingbird - Inez & Charlie Foxx
2. She's Got Everything - Barbara George (previously unreleased)
3. Daddy Rollin' Stone - Derek Martin
4. I Can't Stand It - The Soul Sisters
5. In My Tenement - Jackie Shane
6. Leave Me Alone - Baby Washington
7. So Far Away - Hank Jacobs
8. Everybody But Me - Ocie Smith
9. Ask Me - Inez Foxx
10. You You're Mine - Jimmy Helms
11. Good Time Tonight - The Soul Sisters
12. I See You My Love - Inez Foxx
13. Don't Put Me Down Like This - Derek Martin
14. I Can't Wait Until I See My Baby - Justine Washington
15. Hurt by Love - Inez Foxx
16. I Can't Tell You - Sylvia Robbins
17. Last Minute: Pt. 1- Jimmy McGriff
18. Dreams - Lovelace Watkins
19. Loop de Loop - The Soul Sisters
20. Limbo Lucy - The Everglades
21. La De da I Love You - Inez & Charlie Foxx
22. Yesterday - Tyree Glenn Jr.& the Fabulous Imperials
23. Ain't That Bad - Winfield/Pancho Villa & The Bandits
24. You Succeeded - Sandra Phillips
25. Monkey Hips and Rice - Hank Jacobs
 
Лог создания рипа
Exact Audio Copy V0.99 prebeta 5 from 4. May 2009
EAC extraction logfile from 5. March 2010, 11:53
Various / Sue Records Story [Disc 3]
Used drive : TSSTcorpCDDVDW SH-S223F Adapter: 0 ID: 0
Read mode : Secure
Utilize accurate stream : Yes
Defeat audio cache : Yes
Make use of C2 pointers : No
Read offset correction : 6
Overread into Lead-In and Lead-Out : No
Fill up missing offset samples with silence : Yes
Delete leading and trailing silent blocks : No
Null samples used in CRC calculations : Yes
Used interface : Installed external ASPI interface
Gap handling : Appended to previous track
Used output format : User Defined Encoder
Selected bitrate : 192 kBit/s
Quality : High
Add ID3 tag : No
Command line compressor : C:\Program Files\Exact Audio Copy\Flac\flac.exe
Additional command line options : -V -8 -T "artist=%a" -T "title=%t" -T "album=%g" -T "date=%y" -T "tracknumber=%n" -T "genre=%m" %s
TOC of the extracted CD
Track | Start | Length | Start sector | End sector
---------------------------------------------------------
1 | 0:00.33 | 2:41.20 | 33 | 12127
2 | 2:41.53 | 2:30.50 | 12128 | 23427
3 | 5:12.28 | 2:28.60 | 23428 | 34587
4 | 7:41.13 | 2:44.52 | 34588 | 46939
5 | 10:25.65 | 2:45.15 | 46940 | 59329
6 | 13:11.05 | 2:22.23 | 59330 | 70002
7 | 15:33.28 | 2:24.27 | 70003 | 80829
8 | 17:57.55 | 2:28.23 | 80830 | 91952
9 | 20:26.03 | 2:40.15 | 91953 | 103967
10 | 23:06.18 | 2:10.30 | 103968 | 113747
11 | 25:16.48 | 2:58.55 | 113748 | 127152
12 | 28:15.28 | 2:55.72 | 127153 | 140349
13 | 31:11.25 | 2:06.35 | 140350 | 149834
14 | 33:17.60 | 2:35.70 | 149835 | 161529
15 | 35:53.55 | 3:09.58 | 161530 | 175762
16 | 39:03.38 | 2:48.35 | 175763 | 188397
17 | 41:51.73 | 2:52.67 | 188398 | 201364
18 | 44:44.65 | 2:20.03 | 201365 | 211867
19 | 47:04.68 | 3:34.45 | 211868 | 227962
20 | 50:39.38 | 2:38.07 | 227963 | 239819
21 | 53:17.45 | 2:28.13 | 239820 | 250932
22 | 55:45.58 | 2:23.47 | 250933 | 261704
23 | 58:09.30 | 2:10.05 | 261705 | 271459
24 | 60:19.35 | 2:24.48 | 271460 | 282307
25 | 62:44.08 | 2:16.42 | 282308 | 292549
Track 1
Filename Z:\EAC\Various - 1994 - Sue Records Story [Disc 3] [FLAC]\01 - Mockingbird.wav
Pre-gap length 0:00:02.44
Peak level 94.3 %
Track quality 100.0 %
Test CRC 51329E3E
Copy CRC 51329E3E
Accurately ripped (confidence 3) [30B988C1]
Copy OK
Track 2
Filename Z:\EAC\Various - 1994 - Sue Records Story [Disc 3] [FLAC]\02 - She's Got Everything.wav
Pre-gap length 0:00:03.10
Peak level 88.6 %
Track quality 100.0 %
Test CRC C183B52C
Copy CRC C183B52C
Accurately ripped (confidence 3) [0B10C42E]
Copy OK
Track 3
Filename Z:\EAC\Various - 1994 - Sue Records Story [Disc 3] [FLAC]\03 - Daddy Rollin' Stone.wav
Pre-gap length 0:00:02.70
Peak level 96.0 %
Track quality 100.0 %
Test CRC 7CF53D53
Copy CRC 7CF53D53
Accurately ripped (confidence 2) [3770482A]
Copy OK
Track 4
Filename Z:\EAC\Various - 1994 - Sue Records Story [Disc 3] [FLAC]\04 - I can't Stand It.wav
Pre-gap length 0:00:02.70
Peak level 96.4 %
Track quality 99.9 %
Test CRC 83C1C4DA
Copy CRC 83C1C4DA
Accurately ripped (confidence 3) [589A7C25]
Copy OK
Track 5
Filename Z:\EAC\Various - 1994 - Sue Records Story [Disc 3] [FLAC]\05 - In My Tenement.wav
Pre-gap length 0:00:02.62
Peak level 71.2 %
Track quality 100.0 %
Test CRC 0259CC6F
Copy CRC 0259CC6F
Accurately ripped (confidence 3) [D8A3E668]
Copy OK
Track 6
Filename Z:\EAC\Various - 1994 - Sue Records Story [Disc 3] [FLAC]\06 - Leave Me Alone.wav
Pre-gap length 0:00:02.73
Peak level 95.9 %
Track quality 100.0 %
Test CRC E8715435
Copy CRC E8715435
Accurately ripped (confidence 2) [E38C75C4]
Copy OK
Track 7
Filename Z:\EAC\Various - 1994 - Sue Records Story [Disc 3] [FLAC]\07 - So Far Away.wav
Pre-gap length 0:00:03.64
Peak level 93.5 %
Track quality 100.0 %
Test CRC A76C044B
Copy CRC A76C044B
Accurately ripped (confidence 3) [5C4EF5A1]
Copy OK
Track 8
Filename Z:\EAC\Various - 1994 - Sue Records Story [Disc 3] [FLAC]\08 - Everybody But Me.wav
Pre-gap length 0:00:02.86
Peak level 91.3 %
Track quality 100.0 %
Test CRC 62F71290
Copy CRC 62F71290
Accurately ripped (confidence 3) [56C209F0]
Copy OK
Track 9
Filename Z:\EAC\Various - 1994 - Sue Records Story [Disc 3] [FLAC]\09 - Ask Me.wav
Pre-gap length 0:00:03.17
Peak level 75.3 %
Track quality 100.0 %
Test CRC 73E2613D
Copy CRC 73E2613D
Accurately ripped (confidence 2) [8CB20EE4]
Copy OK
Track 10
Filename Z:\EAC\Various - 1994 - Sue Records Story [Disc 3] [FLAC]\10 - You're Mine You.wav
Pre-gap length 0:00:03.13
Peak level 100.0 %
Track quality 100.0 %
Test CRC 3D1EA762
Copy CRC 3D1EA762
Accurately ripped (confidence 2) [E919E53E]
Copy OK
Track 11
Filename Z:\EAC\Various - 1994 - Sue Records Story [Disc 3] [FLAC]\11 - Good Time Tonight.wav
Pre-gap length 0:00:02.70
Peak level 87.8 %
Track quality 100.0 %
Test CRC 41ECE4D2
Copy CRC 41ECE4D2
Accurately ripped (confidence 3) [0CD80401]
Copy OK
Track 12
Filename Z:\EAC\Various - 1994 - Sue Records Story [Disc 3] [FLAC]\12 - I See You My Love.wav
Pre-gap length 0:00:02.77
Peak level 88.5 %
Track quality 99.9 %
Test CRC 8EC87E61
Copy CRC 8EC87E61
Accurately ripped (confidence 2) [7368BC56]
Copy OK
Track 13
Filename Z:\EAC\Various - 1994 - Sue Records Story [Disc 3] [FLAC]\13 - Don't Put Me Down Like This.wav
Pre-gap length 0:00:02.29
Peak level 57.5 %
Track quality 100.0 %
Test CRC F6C155F7
Copy CRC F6C155F7
Accurately ripped (confidence 2) [EDBF0B5A]
Copy OK
Track 14
Filename Z:\EAC\Various - 1994 - Sue Records Story [Disc 3] [FLAC]\14 - I Can't Wait Until I See My Baby.wav
Pre-gap length 0:00:02.73
Peak level 95.0 %
Track quality 100.0 %
Test CRC F11B2109
Copy CRC F11B2109
Accurately ripped (confidence 2) [10AB9686]
Copy OK
Track 15
Filename Z:\EAC\Various - 1994 - Sue Records Story [Disc 3] [FLAC]\15 - Hurt By Love.wav
Pre-gap length 0:00:02.69
Peak level 100.0 %
Track quality 100.0 %
Test CRC BAEE9F90
Copy CRC BAEE9F90
Accurately ripped (confidence 2) [76DD3453]
Copy OK
Track 16
Filename Z:\EAC\Various - 1994 - Sue Records Story [Disc 3] [FLAC]\16 - I Can't Tell You.wav
Pre-gap length 0:00:02.97
Peak level 100.0 %
Track quality 100.0 %
Test CRC 4E71301A
Copy CRC 4E71301A
Accurately ripped (confidence 2) [07C00E22]
Copy OK
Track 17
Filename Z:\EAC\Various - 1994 - Sue Records Story [Disc 3] [FLAC]\17 - The Last Minute (Part 1).wav
Pre-gap length 0:00:03.17
Peak level 79.4 %
Track quality 100.0 %
Test CRC 75AFB05F
Copy CRC 75AFB05F
Accurately ripped (confidence 2) [FBBC36B0]
Copy OK
Track 18
Filename Z:\EAC\Various - 1994 - Sue Records Story [Disc 3] [FLAC]\18 - Dreams.wav
Pre-gap length 0:00:03.06
Peak level 87.5 %
Track quality 100.0 %
Test CRC 074A61CD
Copy CRC 074A61CD
Accurately ripped (confidence 2) [59C909DE]
Copy OK
Track 19
Filename Z:\EAC\Various - 1994 - Sue Records Story [Disc 3] [FLAC]\19 - Loop De Loop.wav
Pre-gap length 0:00:03.00
Peak level 100.0 %
Track quality 100.0 %
Test CRC 80778528
Copy CRC 80778528
Accurately ripped (confidence 2) [4F95404F]
Copy OK
Track 20
Filename Z:\EAC\Various - 1994 - Sue Records Story [Disc 3] [FLAC]\20 - Limbo Lucy.wav
Pre-gap length 0:00:03.26
Peak level 89.8 %
Track quality 100.0 %
Test CRC 0D9569C2
Copy CRC 0D9569C2
Accurately ripped (confidence 2) [B18F782B]
Copy OK
Track 21
Filename Z:\EAC\Various - 1994 - Sue Records Story [Disc 3] [FLAC]\21 - La De Da I Love You.wav
Pre-gap length 0:00:02.82
Peak level 98.7 %
Track quality 100.0 %
Test CRC 1F58E231
Copy CRC 1F58E231
Accurately ripped (confidence 2) [01995CCA]
Copy OK
Track 22
Filename Z:\EAC\Various - 1994 - Sue Records Story [Disc 3] [FLAC]\22 - Yesterday.wav
Pre-gap length 0:00:04.04
Peak level 73.8 %
Track quality 100.0 %
Test CRC 8851A090
Copy CRC 8851A090
Accurately ripped (confidence 2) [77FDDA18]
Copy OK
Track 23
Filename Z:\EAC\Various - 1994 - Sue Records Story [Disc 3] [FLAC]\23 - Ain't That Bad.wav
Pre-gap length 0:00:03.80
Peak level 100.0 %
Track quality 100.0 %
Test CRC 3006ADDC
Copy CRC 3006ADDC
Accurately ripped (confidence 3) [39A17811]
Copy OK
Track 24
Filename Z:\EAC\Various - 1994 - Sue Records Story [Disc 3] [FLAC]\24 - You Secceeded.wav
Pre-gap length 0:00:03.62
Peak level 96.4 %
Track quality 100.0 %
Test CRC 5D5A8242
Copy CRC 5D5A8242
Accurately ripped (confidence 2) [B7844B1F]
Copy OK
Track 25
Filename Z:\EAC\Various - 1994 - Sue Records Story [Disc 3] [FLAC]\25 - Monkey Hips and Rice.wav
Pre-gap length 0:00:03.50
Peak level 100.0 %
Track quality 100.0 %
Test CRC CF0EA747
Copy CRC CF0EA747
Accurately ripped (confidence 2) [76F9E12F]
Copy OK
All tracks accurately ripped
No errors occurred
End of status report
 
Содержание индексной карты (.CUE)
REM GENRE Soul
REM DATE 1994
REM DISCID 8C0F3C19
REM COMMENT "ExactAudioCopy v0.99pb5"
PERFORMER "Various"
TITLE "Sue Records Story [Disc 3]"
FILE "01 - Mockingbird.wav" WAVE
TRACK 01 AUDIO
TITLE "Mockingbird"
PERFORMER "Inez Foxx Accompaniment by Charlie Foxx"
PREGAP 00:00:33
INDEX 01 00:00:00
TRACK 02 AUDIO
TITLE "She's Got Everything"
PERFORMER "Barbara George"
INDEX 00 02:38:12
FILE "02 - She's Got Everything.wav" WAVE
INDEX 01 00:00:00
TRACK 03 AUDIO
TITLE "Daddy Rollin' Stone"
PERFORMER "Derek Martin"
INDEX 00 02:27:72
FILE "03 - Daddy Rollin' Stone.wav" WAVE
INDEX 01 00:00:00
TRACK 04 AUDIO
TITLE "I can't Stand It"
PERFORMER "Soul Sisters"
INDEX 00 02:26:07
FILE "04 - I can't Stand It.wav" WAVE
INDEX 01 00:00:00
TRACK 05 AUDIO
TITLE "In My Tenement"
PERFORMER "Jackie Shane"
INDEX 00 02:42:05
FILE "05 - In My Tenement.wav" WAVE
INDEX 01 00:00:00
TRACK 06 AUDIO
TITLE "Leave Me Alone"
PERFORMER "Baby Washington"
INDEX 00 02:42:35
FILE "06 - Leave Me Alone.wav" WAVE
INDEX 01 00:00:00
TRACK 07 AUDIO
TITLE "So Far Away"
PERFORMER "Hank Jacobs"
INDEX 00 02:18:50
FILE "07 - So Far Away.wav" WAVE
INDEX 01 00:00:00
TRACK 08 AUDIO
TITLE "Everybody But Me"
PERFORMER "Ocie Smith"
INDEX 00 02:21:37
FILE "08 - Everybody But Me.wav" WAVE
INDEX 01 00:00:00
TRACK 09 AUDIO
TITLE "Ask Me"
PERFORMER "Inez Foxx"
INDEX 00 02:25:10
FILE "09 - Ask Me.wav" WAVE
INDEX 01 00:00:00
TRACK 10 AUDIO
TITLE "You're Mine You"
PERFORMER "Jimmy Helms"
INDEX 00 02:37:05
FILE "10 - You're Mine You.wav" WAVE
INDEX 01 00:00:00
TRACK 11 AUDIO
TITLE "Good Time Tonight"
PERFORMER "Soul Sisters"
INDEX 00 02:07:52
FILE "11 - Good Time Tonight.wav" WAVE
INDEX 01 00:00:00
TRACK 12 AUDIO
TITLE "I See You My Love"
PERFORMER "Inez Foxx"
INDEX 00 02:55:72
FILE "12 - I See You My Love.wav" WAVE
INDEX 01 00:00:00
TRACK 13 AUDIO
TITLE "Don't Put Me Down Like This"
PERFORMER "Derek Martin"
INDEX 00 02:53:50
FILE "13 - Don't Put Me Down Like This.wav" WAVE
INDEX 01 00:00:00
TRACK 14 AUDIO
TITLE "I Can't Wait Until I See My Baby"
PERFORMER "Justine Washington"
INDEX 00 02:03:55
FILE "14 - I Can't Wait Until I See My Baby.wav" WAVE
INDEX 01 00:00:00
TRACK 15 AUDIO
TITLE "Hurt By Love"
PERFORMER "Inez Foxx"
INDEX 00 02:33:18
FILE "15 - Hurt By Love.wav" WAVE
INDEX 01 00:00:00
TRACK 16 AUDIO
TITLE "I Can't Tell You"
PERFORMER "Sylvia Robbins"
INDEX 00 03:06:60
FILE "16 - I Can't Tell You.wav" WAVE
INDEX 01 00:00:00
TRACK 17 AUDIO
TITLE "The Last Minute (Part 1)"
PERFORMER "Jimmy McGriff"
INDEX 00 02:45:22
FILE "17 - The Last Minute (Part 1).wav" WAVE
INDEX 01 00:00:00
TRACK 18 AUDIO
TITLE "Dreams"
PERFORMER "Lovelace Watkins"
INDEX 00 02:49:62
FILE "18 - Dreams.wav" WAVE
INDEX 01 00:00:00
TRACK 19 AUDIO
TITLE "Loop De Loop"
PERFORMER "Soul Sisters"
INDEX 00 02:17:03
FILE "19 - Loop De Loop.wav" WAVE
INDEX 01 00:00:00
TRACK 20 AUDIO
TITLE "Limbo Lucy"
PERFORMER "Everglades"
INDEX 00 03:31:25
FILE "20 - Limbo Lucy.wav" WAVE
INDEX 01 00:00:00
TRACK 21 AUDIO
TITLE "La De Da I Love You"
PERFORMER "Inez & Charlie Foxx"
INDEX 00 02:35:20
FILE "21 - La De Da I Love You.wav" WAVE
INDEX 01 00:00:00
TRACK 22 AUDIO
TITLE "Yesterday"
PERFORMER "Tyree Glenn Jr. & The Fabulous Imperials"
INDEX 00 02:24:10
FILE "22 - Yesterday.wav" WAVE
INDEX 01 00:00:00
TRACK 23 AUDIO
TITLE "Ain't That Bad"
PERFORMER "Pancho Villa & The Bandits Vocal: Winfield"
INDEX 00 02:19:62
FILE "23 - Ain't That Bad.wav" WAVE
INDEX 01 00:00:00
TRACK 24 AUDIO
TITLE "You Secceeded"
PERFORMER "Sandra Phillips"
INDEX 00 02:06:33
FILE "24 - You Secceeded.wav" WAVE
INDEX 01 00:00:00
TRACK 25 AUDIO
TITLE "Monkey Hips and Rice"
PERFORMER "Hank Jacobs"
INDEX 00 02:21:10
FILE "25 - Monkey Hips and Rice.wav" WAVE
INDEX 01 00:00:00
 
"DISC 4
Треклист:
1. Time Waits for No One - Eddie & Ernie
2. Think About the Good Times - The Soul Sisters
3. Outcast - Eddie & Ernie
4. Only Those in Love - Baby Washington
5. Fat Back - Bill Doggett
6. The - Tina Britt Real Thing
7. Annie Don't Love Me No More - The Hollwood Flames
8. One More Hurt - Marjorie Black
9. Love in My Heart - Entertainers
10. I'm Going for Myself - Eddie & Ernie
11. What Can I Do? - Billy Prophet
12. Two Is a Couple - Ike & Tina Turner
13. The New Breed: Pt. 1 - Ike Turner & His Kings of Rhythm
14. Stagger Lee & Billy - Ike & Tina Turner
15. I Can't Do It - Eddie & Ernie
16. She Blew a Good Thing - The Poets
17. Count to Ten - Derek Martin
18. World Without Sunshine - Sandra Phillips
19. If You Go - Derek Martin
20. I'm Gonna Stand by You - Hollywood Flames
21. I Was Born a Loser - Bobby Lee
22. So Young (And So Innocent) - The Poets
23. If You've Ever Loved Someone - Jean Wells
24. She's Called a Woman - The Magnificent 7
25. Soul at Sunrise - Juggy
 
Лог создания рипа
Exact Audio Copy V0.99 prebeta 5 from 4. May 2009
EAC extraction logfile from 5. March 2010, 12:57
Various / The Sue Records Story [Disc 4]
Used drive : TSSTcorpCDDVDW SH-S223F Adapter: 0 ID: 0
Read mode : Secure
Utilize accurate stream : Yes
Defeat audio cache : Yes
Make use of C2 pointers : No
Read offset correction : 6
Overread into Lead-In and Lead-Out : No
Fill up missing offset samples with silence : Yes
Delete leading and trailing silent blocks : No
Null samples used in CRC calculations : Yes
Used interface : Installed external ASPI interface
Gap handling : Appended to previous track
Used output format : User Defined Encoder
Selected bitrate : 192 kBit/s
Quality : High
Add ID3 tag : No
Command line compressor : C:\Program Files\Exact Audio Copy\Flac\flac.exe
Additional command line options : -V -8 -T "artist=%a" -T "title=%t" -T "album=%g" -T "date=%y" -T "tracknumber=%n" -T "genre=%m" %s
TOC of the extracted CD
Track | Start | Length | Start sector | End sector
---------------------------------------------------------
1 | 0:00.33 | 2:23.12 | 33 | 10769
2 | 2:23.45 | 2:29.70 | 10770 | 22014
3 | 4:53.40 | 3:06.50 | 22015 | 36014
4 | 8:00.15 | 2:50.68 | 36015 | 48832
5 | 10:51.08 | 2:51.27 | 48833 | 61684
6 | 13:42.35 | 2:25.08 | 61685 | 72567
7 | 16:07.43 | 2:04.07 | 72568 | 81874
8 | 18:11.50 | 2:52.33 | 81875 | 94807
9 | 21:04.08 | 2:36.07 | 94808 | 106514
10 | 23:40.15 | 3:40.45 | 106515 | 123059
11 | 27:20.60 | 2:04.30 | 123060 | 132389
12 | 29:25.15 | 2:26.55 | 132390 | 143394
13 | 31:51.70 | 2:16.65 | 143395 | 153659
14 | 34:08.60 | 2:51.55 | 153660 | 166539
15 | 37:00.40 | 2:10.08 | 166540 | 176297
16 | 39:10.48 | 2:49.00 | 176298 | 188972
17 | 41:59.48 | 2:43.07 | 188973 | 201204
18 | 44:42.55 | 2:36.58 | 201205 | 212962
19 | 47:19.38 | 2:41.67 | 212963 | 225104
20 | 50:01.30 | 2:27.13 | 225105 | 236142
21 | 52:28.43 | 2:54.32 | 236143 | 249224
22 | 55:23.00 | 2:04.40 | 249225 | 258564
23 | 57:27.40 | 2:56.03 | 258565 | 271767
24 | 60:23.43 | 2:15.37 | 271768 | 281929
25 | 62:39.05 | 2:49.43 | 281930 | 294647
Track 1
Filename Z:\EAC\Various - 1994 - The Sue Records Story [Disc 4] [FLAC]\01 - Time Waits for No One.wav
Pre-gap length 0:00:02.44
Peak level 94.6 %
Track quality 100.0 %
Test CRC 68A459A0
Copy CRC 68A459A0
Accurately ripped (confidence 2) [FF46A7AB]
Copy OK
Track 2
Filename Z:\EAC\Various - 1994 - The Sue Records Story [Disc 4] [FLAC]\02 - Think About the Good Times.wav
Pre-gap length 0:00:02.82
Peak level 100.0 %
Track quality 100.0 %
Test CRC E416C005
Copy CRC E416C005
Accurately ripped (confidence 2) [1A238C6D]
Copy OK
Track 3
Filename Z:\EAC\Various - 1994 - The Sue Records Story [Disc 4] [FLAC]\03 - Outcast.wav
Pre-gap length 0:00:02.96
Peak level 100.0 %
Track quality 100.0 %
Test CRC 5D428310
Copy CRC 5D428310
Accurately ripped (confidence 2) [399D6348]
Copy OK
Track 4
Filename Z:\EAC\Various - 1994 - The Sue Records Story [Disc 4] [FLAC]\04 - Only Those in Love.wav
Pre-gap length 0:00:03.33
Peak level 77.0 %
Track quality 100.0 %
Test CRC 26982EFE
Copy CRC 26982EFE
Accurately ripped (confidence 2) [36DB5F6F]
Copy OK
Track 5
Filename Z:\EAC\Various - 1994 - The Sue Records Story [Disc 4] [FLAC]\05 - Fat Back.wav
Pre-gap length 0:00:03.24
Peak level 91.6 %
Track quality 99.9 %
Test CRC E445AAEA
Copy CRC E445AAEA
Accurately ripped (confidence 2) [CA905D1B]
Copy OK
Track 6
Filename Z:\EAC\Various - 1994 - The Sue Records Story [Disc 4] [FLAC]\06 - The Real Thing.wav
Pre-gap length 0:00:02.89
Peak level 84.1 %
Track quality 99.9 %
Test CRC 212429EF
Copy CRC 212429EF
Accurately ripped (confidence 2) [CA3C8F96]
Copy OK
Track 7
Filename Z:\EAC\Various - 1994 - The Sue Records Story [Disc 4] [FLAC]\07 - Annie Don't Love Me No More.wav
Pre-gap length 0:00:03.26
Peak level 74.3 %
Track quality 100.0 %
Test CRC E9BD10EE
Copy CRC E9BD10EE
Accurately ripped (confidence 2) [BA0EBAE8]
Copy OK
Track 8
Filename Z:\EAC\Various - 1994 - The Sue Records Story [Disc 4] [FLAC]\08 - One More Hurt.wav
Pre-gap length 0:00:02.62
Peak level 96.3 %
Track quality 100.0 %
Test CRC E3049C02
Copy CRC E3049C02
Accurately ripped (confidence 2) [1C751F37]
Copy OK
Track 9
Filename Z:\EAC\Various - 1994 - The Sue Records Story [Disc 4] [FLAC]\09 - Love in My Heart.wav
Pre-gap length 0:00:02.73
Peak level 82.4 %
Track quality 100.0 %
Test CRC DC29CC15
Copy CRC DC29CC15
Accurately ripped (confidence 2) [DE778866]
Copy OK
Track 10
Filename Z:\EAC\Various - 1994 - The Sue Records Story [Disc 4] [FLAC]\10 - I'm Going for Myself.wav
Pre-gap length 0:00:03.49
Peak level 82.5 %
Track quality 100.0 %
Test CRC A4E3F962
Copy CRC A4E3F962
Accurately ripped (confidence 2) [686D6530]
Copy OK
Track 11
Filename Z:\EAC\Various - 1994 - The Sue Records Story [Disc 4] [FLAC]\11 - What Can I Do.wav
Pre-gap length 0:00:02.13
Peak level 100.0 %
Track quality 100.0 %
Test CRC A57AF1C6
Copy CRC A57AF1C6
Accurately ripped (confidence 2) [B7684B5F]
Copy OK
Track 12
Filename Z:\EAC\Various - 1994 - The Sue Records Story [Disc 4] [FLAC]\12 - Two Is a Couple.wav
Pre-gap length 0:00:02.73
Peak level 94.0 %
Track quality 100.0 %
Test CRC 4137BDFF
Copy CRC 4137BDFF
Accurately ripped (confidence 2) [DA698AC0]
Copy OK
Track 13
Filename Z:\EAC\Various - 1994 - The Sue Records Story [Disc 4] [FLAC]\13 - The New Breed (Part 1).wav
Pre-gap length 0:00:02.96
Peak level 86.7 %
Track quality 100.0 %
Test CRC 0FB82949
Copy CRC 0FB82949
Accurately ripped (confidence 2) [2C334DB3]
Copy OK
Track 14
Filename Z:\EAC\Various - 1994 - The Sue Records Story [Disc 4] [FLAC]\14 - Stagger Lee and Billy.wav
Pre-gap length 0:00:01.20
Peak level 96.9 %
Track quality 100.0 %
Test CRC B7B51315
Copy CRC B7B51315
Accurately ripped (confidence 2) [8FD0414B]
Copy OK
Track 15
Filename Z:\EAC\Various - 1994 - The Sue Records Story [Disc 4] [FLAC]\15 - I Can't Do It.wav
Pre-gap length 0:00:02.49
Peak level 88.3 %
Track quality 100.0 %
Test CRC 4CA2058C
Copy CRC 4CA2058C
Accurately ripped (confidence 2) [1C02330C]
Copy OK
Track 16
Filename Z:\EAC\Various - 1994 - The Sue Records Story [Disc 4] [FLAC]\16 - She Blew a Good Thing.wav
Pre-gap length 0:00:02.46
Peak level 74.2 %
Track quality 99.9 %
Test CRC 19308656
Copy CRC 19308656
Accurately ripped (confidence 2) [11FA9674]
Copy OK
Track 17
Filename Z:\EAC\Various - 1994 - The Sue Records Story [Disc 4] [FLAC]\17 - Count to Ten.wav
Pre-gap length 0:00:03.17
Peak level 100.0 %
Track quality 100.0 %
Test CRC 16EEEED2
Copy CRC 16EEEED2
Accurately ripped (confidence 2) [107983FE]
Copy OK
Track 18
Filename Z:\EAC\Various - 1994 - The Sue Records Story [Disc 4] [FLAC]\18 - World Without Sunshine.wav
Pre-gap length 0:00:02.73
Peak level 100.0 %
Track quality 100.0 %
Test CRC D4982A62
Copy CRC D4982A62
Accurately ripped (confidence 2) [4F05ECAE]
Copy OK
Track 19
Filename Z:\EAC\Various - 1994 - The Sue Records Story [Disc 4] [FLAC]\19 - If You Go.wav
Pre-gap length 0:00:02.80
Peak level 100.0 %
Track quality 100.0 %
Test CRC 2D160D26
Copy CRC 2D160D26
Accurately ripped (confidence 2) [2E085793]
Copy OK
Track 20
Filename Z:\EAC\Various - 1994 - The Sue Records Story [Disc 4] [FLAC]\20 - I'm Gonna Stand By You.wav
Pre-gap length 0:00:02.53
Peak level 91.0 %
Track quality 100.0 %
Test CRC 3FADD483
Copy CRC 3FADD483
Accurately ripped (confidence 2) [F8486E7D]
Copy OK
Track 21
Filename Z:\EAC\Various - 1994 - The Sue Records Story [Disc 4] [FLAC]\21 - I Was Born a Loser.wav
Pre-gap length 0:00:02.97
Peak level 94.8 %
Track quality 100.0 %
Test CRC 7B92CCFD
Copy CRC 7B92CCFD
Accurately ripped (confidence 2) [D3EF99C8]
Copy OK
Track 22
Filename Z:\EAC\Various - 1994 - The Sue Records Story [Disc 4] [FLAC]\22 - So Young and So Innocent.wav
Pre-gap length 0:00:02.69
Peak level 100.0 %
Track quality 99.9 %
Test CRC 910D2EA0
Copy CRC 910D2EA0
Accurately ripped (confidence 2) [CBE98B43]
Copy OK
Track 23
Filename Z:\EAC\Various - 1994 - The Sue Records Story [Disc 4] [FLAC]\23 - If You've Ever Loved Someone.wav
Pre-gap length 0:00:03.02
Peak level 80.0 %
Track quality 100.0 %
Test CRC F69ED057
Copy CRC F69ED057
Accurately ripped (confidence 2) [935CC1A6]
Copy OK
Track 24
Filename Z:\EAC\Various - 1994 - The Sue Records Story [Disc 4] [FLAC]\24 - She's Called a Woman.wav
Pre-gap length 0:00:03.24
Peak level 100.0 %
Track quality 99.9 %
Test CRC 8DDB5CB0
Copy CRC 8DDB5CB0
Accurately ripped (confidence 2) [774EB832]
Copy OK
Track 25
Filename Z:\EAC\Various - 1994 - The Sue Records Story [Disc 4] [FLAC]\25 - Soul At Sunrise.wav
Pre-gap length 0:00:03.20
Peak level 100.0 %
Track quality 100.0 %
Test CRC 034A457A
Copy CRC 034A457A
Accurately ripped (confidence 2) [661EDF77]
Copy OK
All tracks accurately ripped
No errors occurred
End of status report
 
Содержание индексной карты (.CUE)
REM GENRE Soul
REM DATE 1994
REM DISCID 4D0F5819
REM COMMENT "ExactAudioCopy v0.99pb5"
PERFORMER "Various"
TITLE "The Sue Records Story [Disc 4]"
FILE "01 - Time Waits for No One.wav" WAVE
TRACK 01 AUDIO
TITLE "Time Waits for No One"
PERFORMER "Eddie & Ernie"
PREGAP 00:00:33
INDEX 01 00:00:00
TRACK 02 AUDIO
TITLE "Think About the Good Times"
PERFORMER "The Soul Sisters"
INDEX 00 02:20:25
FILE "02 - Think About the Good Times.wav" WAVE
INDEX 01 00:00:00
TRACK 03 AUDIO
TITLE "Outcast"
PERFORMER "Eddie & Ernie"
INDEX 00 02:26:73
FILE "03 - Outcast.wav" WAVE
INDEX 01 00:00:00
TRACK 04 AUDIO
TITLE "Only Those in Love"
PERFORMER "Baby Washington"
INDEX 00 03:03:25
FILE "04 - Only Those in Love.wav" WAVE
INDEX 01 00:00:00
TRACK 05 AUDIO
TITLE "Fat Back"
PERFORMER "Bill Doggett"
INDEX 00 02:47:50
FILE "05 - Fat Back.wav" WAVE
INDEX 01 00:00:00
TRACK 06 AUDIO
TITLE "The Real Thing"
PERFORMER "Tina Britt"
INDEX 00 02:48:35
FILE "06 - The Real Thing.wav" WAVE
INDEX 01 00:00:00
TRACK 07 AUDIO
TITLE "Annie Don't Love Me No More"
PERFORMER "The Hollywood Flames"
INDEX 00 02:21:63
FILE "07 - Annie Don't Love Me No More.wav" WAVE
INDEX 01 00:00:00
TRACK 08 AUDIO
TITLE "One More Hurt"
PERFORMER "Marjorie Black"
INDEX 00 02:01:35
FILE "08 - One More Hurt.wav" WAVE
INDEX 01 00:00:00
TRACK 09 AUDIO
TITLE "Love in My Heart"
PERFORMER "The Entertainers"
INDEX 00 02:49:53
FILE "09 - Love in My Heart.wav" WAVE
INDEX 01 00:00:00
TRACK 10 AUDIO
TITLE "I'm Going for Myself"
PERFORMER "Eddie & Ernie"
INDEX 00 02:32:45
FILE "10 - I'm Going for Myself.wav" WAVE
INDEX 01 00:00:00
TRACK 11 AUDIO
TITLE "What Can I Do"
PERFORMER "Billy Prophet"
INDEX 00 03:38:35
FILE "11 - What Can I Do.wav" WAVE
INDEX 01 00:00:00
TRACK 12 AUDIO
TITLE "Two Is a Couple"
PERFORMER "Ike & Tina Turner"
INDEX 00 02:01:50
FILE "12 - Two Is a Couple.wav" WAVE
INDEX 01 00:00:00
TRACK 13 AUDIO
TITLE "The New Breed (Part 1)"
PERFORMER "Ike Turner & His Kings of Rhythm"
INDEX 00 02:23:58
FILE "13 - The New Breed (Part 1).wav" WAVE
INDEX 01 00:00:00
TRACK 14 AUDIO
TITLE "Stagger Lee and Billy"
PERFORMER "Ike & Tina Turner"
INDEX 00 02:15:50
FILE "14 - Stagger Lee and Billy.wav" WAVE
INDEX 01 00:00:00
TRACK 15 AUDIO
TITLE "I Can't Do It"
PERFORMER "Eddie & Ernie"
INDEX 00 02:49:18
FILE "15 - I Can't Do It.wav" WAVE
INDEX 01 00:00:00
TRACK 16 AUDIO
TITLE "She Blew a Good Thing"
PERFORMER "The Poets"
INDEX 00 02:07:48
FILE "16 - She Blew a Good Thing.wav" WAVE
INDEX 01 00:00:00
TRACK 17 AUDIO
TITLE "Count to Ten"
PERFORMER "Derek Martin"
INDEX 00 02:45:62
FILE "17 - Count to Ten.wav" WAVE
INDEX 01 00:00:00
TRACK 18 AUDIO
TITLE "World Without Sunshine"
PERFORMER "Sandra Phillips"
INDEX 00 02:40:27
FILE "18 - World Without Sunshine.wav" WAVE
INDEX 01 00:00:00
TRACK 19 AUDIO
TITLE "If You Go"
PERFORMER "Derek Martin"
INDEX 00 02:33:73
FILE "19 - If You Go.wav" WAVE
INDEX 01 00:00:00
TRACK 20 AUDIO
TITLE "I'm Gonna Stand By You"
PERFORMER "The Hollywood Flames"
INDEX 00 02:39:27
FILE "20 - I'm Gonna Stand By You.wav" WAVE
INDEX 01 00:00:00
TRACK 21 AUDIO
TITLE "I Was Born a Loser"
PERFORMER "Bobby Lee"
INDEX 00 02:24:15
FILE "21 - I Was Born a Loser.wav" WAVE
INDEX 01 00:00:00
TRACK 22 AUDIO
TITLE "So Young and So Innocent"
PERFORMER "The Poets"
INDEX 00 02:51:55
FILE "22 - So Young and So Innocent.wav" WAVE
INDEX 01 00:00:00
TRACK 23 AUDIO
TITLE "If You've Ever Loved Someone"
PERFORMER "Jean Wells"
INDEX 00 02:01:38
FILE "23 - If You've Ever Loved Someone.wav" WAVE
INDEX 01 00:00:00
TRACK 24 AUDIO
TITLE "She's Called a Woman"
PERFORMER "The Magnificent 7"
INDEX 00 02:52:60
FILE "24 - She's Called a Woman.wav" WAVE
INDEX 01 00:00:00
TRACK 25 AUDIO
TITLE "Soul At Sunrise"
PERFORMER "Juggy"
INDEX 00 02:12:22
FILE "25 - Soul At Sunrise.wav" WAVE
INDEX 01 00:00:00
 
AllMusic Review by Bruce Eder
This four-CD, 100-song set is the best representative body of work ever assembled (or ever likely to be assembled) of the R&B and soul releases from Henry "Juggy Murray" Jones' Sue Records. The range of sounds runs the gamut from ex-Drifter Bobby Hendricks' first hit for the company ("Itchy Twitchy Feeling") in 1959, through the string of hits by Ike & Tina Turner, to the company's last hits some seven years later. Not only is every chart single that the label ever had represented, but so are club hits from the mid-'60s and solo sides by uniquely New York-associated figures. The contents of the box are almost ideal, along with their arrangement -- in contrast some other box sets, this one follows strict release order, which is a great way to follow the history of the label (though not ideal for anyone, apart from owners of multi-disc players, who simply wants to hear the label's best-known tracks in one sitting). Producer Alan Warner admits that some of the tracks included are not the original single takes, but, rather, outtakes that were found in the tape vaults, and which were used in place of missing masters on various singles. Optimum sound was as much a consideration as providing the authentic rendition, and the audio quality here is excellent -- given the rarity of a lot of original singles, the compromise (forced by the presence of missing material) is a wise one. The one drawback will be for jazz fans, who will find Jimmy McGriff and Bill Doggett represented in a limited manner, but not any of the other jazz artists who cut music for Sue. Other than this caveat, the collection is not only an essential look at the history of one of the most vital New York-based R&B and soul labels of the 1960s, but also a close-up look at part of the history and development of New York soul, an area frequently overlooked. Of course, all of that's really just intellectual jackassing around; the real reason to buy this box is that there's not an uncool track among the 100 songs here.
Приватный:
Нет (DHT включён)
Размер:
782.36 Мб (820,366,538 байт) » файлов: 126
Участники:
0 раздают, 0 качают (0 участников всего)
Внешние участники:
5 раздают, 1 качают (6 участников всего) [ Обновить ]
Есть вопросы - пишите личное сообщение пользователю M0p94ok.
12:49
62
Нет комментариев. Ваш будет первым!