Поиск

(soul, R&B, funk, jazz) [CD] David T. Walker - ...From My Heart - 1993[2007], FLAC (tracks+.cue), lossless

(soul, R&B, funk, jazz) [CD] David T. Walker - ...From My Heart - 1993[2007], FLAC (tracks+.cue), lossless
Треклист:
David T. Walker / ...From My Heart
Жанр: soul, R&B, funk, jazz
Носитель: CD
Страна-производитель диска (релиза): Japan
Год издания: 1993[2007]
Издатель (лейбл): BMG
Номер по каталогу: BVCM-35165(88697-20164-2)
Страна исполнителя (группы): USA
Аудиокодек: FLAC (*.flac)
Тип рипа: tracks+.cue
Битрейт аудио: lossless
Продолжительность: 00:54:17
Источник (релизер): свой диск
Наличие сканов в содержимом раздачи: да
Треклист:
01. - Thanks To You - 05:35
02. - Memory And The Reality - 05:49
03. - A Place For Us - 05:08
04. - The Sidewalk Today - 06:47
05. - Empathy System - 05:59
06. - Sharing Walls - 07:30
07. - In Love And Life - 06:26
08. - Speak Of Balance - 05:04
09. - From My Heart - 06:03
 
Лог создания рипа
Exact Audio Copy V1.0 beta 3 from 29. August 2011
Отчёт EAC об извлечении, выполненном 29. июля 2015, 14:57
David T. Walker / ...From My Heart
Дисковод: ATAPI iHAS124 W Adapter: 2 ID: 0
Режим чтения : Достоверность
Использование точного потока : Да
Отключение кэша аудио : Да
Использование указателей C2 : Нет
Коррекция смещения при чтении : 48
Способность читать области Lead-in и Lead-out : Нет
Заполнение пропущенных сэмплов тишиной : Да
Удаление блоков с тишиной в начале и конце : Нет
При вычислениях CRC использовались нулевые сэмплы : Да
Интерфейс : Встроенный Win32-интерфейс для Win NT/2000
Обработка зазоров : Добавлено к предыдущему треку
Выходной формат : Пользовательский кодировщик
Выбранный битрейт : 128 kBit/s
Качество : Высокий
Добавление ID3-тега : Нет
Утилита сжатия : C:\Program Files\Exact Audio Copy\Flac\flac.exe
Дополнительные параметры : -V -8 -T "Genre=%genre%" -T "Artist=%artist%" -T "Title=%title%" -T "Album=%albumtitle%" -T "Date=%year%" -T "Tracknumber=%tracknr%" -T "Comment=%comment%" %source%
TOC извлечённого CD
Трек | Старт | Длительность | Начальный сектор | Конечный сектор
---------------------------------------------------------------------
1 | 0:00.00 | 5:34.40 | 0 | 25089
2 | 5:34.40 | 5:49.28 | 25090 | 51292
3 | 11:23.68 | 5:07.23 | 51293 | 74340
4 | 16:31.16 | 6:46.32 | 74341 | 104822
5 | 23:17.48 | 6:00.20 | 104823 | 131842
6 | 29:17.68 | 7:29.49 | 131843 | 165566
7 | 36:47.42 | 6:25.04 | 165567 | 194445
8 | 43:12.46 | 5:03.70 | 194446 | 217240
9 | 48:16.41 | 6:02.45 | 217241 | 244435
Трек 1
Имя файла C:\EAC\01. Thanks To You.wav
Длина предзазора 0:00:02.00
Пиковый уровень 100.0 %
Скорость извлечения 2.5 X
Качество трека 100.0 %
CRC теста 09EACD6D
CRC копии 09EACD6D
Трек не обнаружен в базе AccurateRip
Копирование... OK
Трек 2
Имя файла C:\EAC\02. Memory And The Reality.wav
Пиковый уровень 100.0 %
Скорость извлечения 2.9 X
Качество трека 100.0 %
CRC теста C0181DFA
CRC копии C0181DFA
Трек не обнаружен в базе AccurateRip
Копирование... OK
Трек 3
Имя файла C:\EAC\03. A Place For Us.wav
Длина предзазора 0:00:01.14
Пиковый уровень 100.0 %
Скорость извлечения 3.1 X
Качество трека 100.0 %
CRC теста A2FC61CB
CRC копии A2FC61CB
Трек не обнаружен в базе AccurateRip
Копирование... OK
Трек 4
Имя файла C:\EAC\04. The Sidewalk Today.wav
Пиковый уровень 100.0 %
Скорость извлечения 3.5 X
Качество трека 100.0 %
CRC теста B2B39E62
CRC копии B2B39E62
Трек не обнаружен в базе AccurateRip
Копирование... OK
Трек 5
Имя файла C:\EAC\05. Empathy System.wav
Пиковый уровень 100.0 %
Скорость извлечения 3.8 X
Качество трека 100.0 %
CRC теста 2B8310FD
CRC копии 2B8310FD
Трек не обнаружен в базе AccurateRip
Копирование... OK
Трек 6
Имя файла C:\EAC\06. Sharing Walls.wav
Длина предзазора 0:00:01.27
Пиковый уровень 100.0 %
Скорость извлечения 4.2 X
Качество трека 100.0 %
CRC теста 215DE6A9
CRC копии 215DE6A9
Трек не обнаружен в базе AccurateRip
Копирование... OK
Трек 7
Имя файла C:\EAC\07. In Love And Life.wav
Пиковый уровень 100.0 %
Скорость извлечения 4.4 X
Качество трека 100.0 %
CRC теста 2E14B0D8
CRC копии 2E14B0D8
Трек не обнаружен в базе AccurateRip
Копирование... OK
Трек 8
Имя файла C:\EAC\08. Speak Of Balance.wav
Пиковый уровень 100.0 %
Скорость извлечения 4.5 X
Качество трека 100.0 %
CRC теста C252365C
CRC копии C252365C
Трек не обнаружен в базе AccurateRip
Копирование... OK
Трек 9
Имя файла C:\EAC\09. From My Heart.wav
Пиковый уровень 100.0 %
Скорость извлечения 4.8 X
Качество трека 100.0 %
CRC теста 82DFA88C
CRC копии 82DFA88C
Трек не обнаружен в базе AccurateRip
Копирование... OK
Ни одного трека нет в базе AccurateRip
Ошибок не произошло
Конец отчёта
==== Контрольная сумма отчёта 19FE766CFF1C3EE03041C130734BF0223AFF80B34D0BEC4532BDE39A3ADE76F2 ====
 
Содержание индексной карты (.CUE)
REM GENRE Fusion
REM DATE 1993
REM DISCID 9E0CBB09
REM COMMENT "ExactAudioCopy v1.0b3"
PERFORMER "David T. Walker"
TITLE "...From My Heart"
FILE "01. Thanks To You.wav" WAVE
TRACK 01 AUDIO
TITLE "Thanks To You"
PERFORMER "David T. Walker"
INDEX 01 00:00:00
FILE "02. Memory And The Reality.wav" WAVE
TRACK 02 AUDIO
TITLE "Memory And The Reality"
PERFORMER "David T. Walker"
INDEX 01 00:00:00
TRACK 03 AUDIO
TITLE "A Place For Us"
PERFORMER "David T. Walker"
INDEX 00 05:48:14
FILE "03. A Place For Us.wav" WAVE
INDEX 01 00:00:00
FILE "04. The Sidewalk Today.wav" WAVE
TRACK 04 AUDIO
TITLE "The Sidewalk Today"
PERFORMER "David T. Walker"
INDEX 01 00:00:00
FILE "05. Empathy System.wav" WAVE
TRACK 05 AUDIO
TITLE "Empathy System"
PERFORMER "David T. Walker"
INDEX 01 00:00:00
TRACK 06 AUDIO
TITLE "Sharing Walls"
PERFORMER "David T. Walker"
INDEX 00 05:58:68
FILE "06. Sharing Walls.wav" WAVE
INDEX 01 00:00:00
FILE "07. In Love And Life.wav" WAVE
TRACK 07 AUDIO
TITLE "In Love And Life"
PERFORMER "David T. Walker"
INDEX 01 00:00:00
FILE "08. Speak Of Balance.wav" WAVE
TRACK 08 AUDIO
TITLE "Speak Of Balance"
PERFORMER "David T. Walker"
INDEX 01 00:00:00
FILE "09. From My Heart.wav" WAVE
TRACK 09 AUDIO
TITLE "From My Heart"
PERFORMER "David T. Walker"
INDEX 01 00:00:00
Доп. информация: http://rateyourmusic.com/artist/david_t__walker
http://www.discogs.com/artist/211633-David-T-Walker
Приватный:
Нет (DHT включён)
Размер:
483.18 Мб (506,651,234 байт) » файлов: 26
Участники:
0 раздают, 0 качают (0 участников всего)
Внешние участники:
2 раздают, 1 качают (3 участников всего) [ Обновить ]
Есть вопросы - пишите личное сообщение пользователю M0p94ok.
07:20
87
Нет комментариев. Ваш будет первым!