Поиск

(Rhythm & Blues, Funk) The National Trust - Kings & Queens - 2006, FLAC (tracks+.cue), lossless

(Rhythm & Blues, Funk) The National Trust - Kings & Queens - 2006, FLAC (tracks+.cue), lossless
Треклист:
The National Trust / Kings & Queens
Жанр: Rhythm & Blues, Funk
Страна-производитель диска (релиза): USA
Год издания: 2006
Издатель (лейбл): Thrill Jockey
Номер по каталогу: THRILL 143
Страна исполнителя (группы): USA
Аудиокодек: FLAC (*.flac)
Тип рипа: tracks+.cue
Битрейт аудио: lossless
Продолжительность: 0:53:53.
Источник (релизер): clustert
Наличие сканов в содержимом раздачи: да
Треклист:
01. Elevators [0:04:14.72]
02. Secrets [0:05:38.68]
03. It's Just Cruel [0:05:35.30]
04. Canday's Away [0:05:14.42]
05. Stages [0:05:17.70]
06. We Can't Do Wrong [0:06:10.03]
07. Jacuzzis [0:03:49.60]
08. Show And Tell [0:06:05.12]
09. New Sexy Touch [0:06:33.35]
10. Shapes And Sizes [0:05:13.10]
 
Лог создания рипа
Exact Audio Copy V1.0 beta 3 from 29. August 2011
Отчёт EAC об извлечении, выполненном 9. июля 2015, 16:57
The National Trust / Kings & Queens
Дисковод: ASUS DRW-1814BLT Adapter: 4 ID: 0
Режим чтения : Достоверность
Использование точного потока : Да
Отключение кэша аудио : Да
Использование указателей C2 : Нет
Коррекция смещения при чтении : 6
Способность читать области Lead-in и Lead-out : Нет
Заполнение пропущенных сэмплов тишиной : Да
Удаление блоков с тишиной в начале и конце : Нет
При вычислениях CRC использовались нулевые сэмплы : Да
Интерфейс : Встроенный Win32-интерфейс для Win NT/2000
Обработка зазоров : Добавлено к предыдущему треку
Выходной формат : Пользовательский кодировщик
Выбранный битрейт : 128 kBit/s
Качество : Высокий
Добавление ID3-тега : Нет
Утилита сжатия : C:\Program Files\Exact Audio Copy\Flac\flac.exe
Дополнительные параметры : -V -8 -T "Genre=%genre%" -T "Artist=%artist%" -T "Title=%title%" -T "Album=%albumtitle%" -T "Date=%year%" -T "Tracknumber=%tracknr%" -T "Comment=EAC1.0b2 FLAC -8" %source%
TOC извлечённого CD
Трек | Старт | Длительность | Начальный сектор | Конечный сектор
---------------------------------------------------------------------
1 | 0:00.00 | 4:14.72 | 0 | 19121
2 | 4:14.72 | 5:38.68 | 19122 | 44539
3 | 9:53.65 | 5:35.30 | 44540 | 69694
4 | 15:29.20 | 5:14.42 | 69695 | 93286
5 | 20:43.62 | 5:17.70 | 93287 | 117131
6 | 26:01.57 | 6:10.03 | 117132 | 144884
7 | 32:11.60 | 3:49.60 | 144885 | 162119
8 | 36:01.45 | 6:05.12 | 162120 | 189506
9 | 42:06.57 | 6:33.35 | 189507 | 219016
10 | 48:40.17 | 5:13.10 | 219017 | 242501
Трек 1
Имя файла R:\Раздача 49\National Trust - 2006 - Kings & Queens\01 Elevators.wav
Длина предзазора 0:00:02.00
Пиковый уровень 100.0 %
Скорость извлечения 3.8 X
Качество трека 99.9 %
CRC теста 564A9F28
CRC копии 564A9F28
Точное извлечение (достоверность 4) [F1DE48B6] (AR v1)
Копирование... OK
Трек 2
Имя файла R:\Раздача 49\National Trust - 2006 - Kings & Queens\02 Secrets.wav
Пиковый уровень 100.0 %
Скорость извлечения 5.9 X
Качество трека 100.0 %
CRC теста F731AA47
CRC копии F731AA47
Точное извлечение (достоверность 4) [286729F2] (AR v1)
Копирование... OK
Трек 3
Имя файла R:\Раздача 49\National Trust - 2006 - Kings & Queens\03 It's Just Cruel.wav
Пиковый уровень 100.0 %
Скорость извлечения 6.6 X
Качество трека 100.0 %
CRC теста 3E49FAAA
CRC копии 3E49FAAA
Точное извлечение (достоверность 4) [7A30370B] (AR v1)
Копирование... OK
Трек 4
Имя файла R:\Раздача 49\National Trust - 2006 - Kings & Queens\04 Canday's Away.wav
Пиковый уровень 100.0 %
Скорость извлечения 7.0 X
Качество трека 100.0 %
CRC теста 6F730E45
CRC копии 6F730E45
Точное извлечение (достоверность 4) [B0026D14] (AR v1)
Копирование... OK
Трек 5
Имя файла R:\Раздача 49\National Trust - 2006 - Kings & Queens\05 Stages.wav
Пиковый уровень 100.0 %
Скорость извлечения 7.6 X
Качество трека 100.0 %
CRC теста 39AFDB48
CRC копии 39AFDB48
Точное извлечение (достоверность 4) [E0C60129] (AR v1)
Копирование... OK
Трек 6
Имя файла R:\Раздача 49\National Trust - 2006 - Kings & Queens\06 We Can't Do Wrong.wav
Пиковый уровень 100.0 %
Скорость извлечения 8.2 X
Качество трека 100.0 %
CRC теста 51920F99
CRC копии 51920F99
Точное извлечение (достоверность 4) [FA0FEB63] (AR v1)
Копирование... OK
Трек 7
Имя файла R:\Раздача 49\National Trust - 2006 - Kings & Queens\07 Jacuzzis.wav
Пиковый уровень 100.0 %
Скорость извлечения 8.1 X
Качество трека 100.0 %
CRC теста 3259A11D
CRC копии 3259A11D
Точное извлечение (достоверность 4) [7E4A0416] (AR v1)
Копирование... OK
Трек 8
Имя файла R:\Раздача 49\National Trust - 2006 - Kings & Queens\08 Show And Tell.wav
Пиковый уровень 100.0 %
Скорость извлечения 9.0 X
Качество трека 100.0 %
CRC теста C8C443EC
CRC копии C8C443EC
Точное извлечение (достоверность 4) [8FDC93EA] (AR v1)
Копирование... OK
Трек 9
Имя файла R:\Раздача 49\National Trust - 2006 - Kings & Queens\09 New Sexy Touch.wav
Пиковый уровень 100.0 %
Скорость извлечения 9.1 X
Качество трека 100.0 %
CRC теста 8AC4C5F8
CRC копии 8AC4C5F8
Точное извлечение (достоверность 4) [90DFCB5C] (AR v1)
Копирование... OK
Трек 10
Имя файла R:\Раздача 49\National Trust - 2006 - Kings & Queens\10 Shapes And Sizes.wav
Пиковый уровень 100.0 %
Скорость извлечения 9.0 X
Качество трека 100.0 %
CRC теста E7884D60
CRC копии E7884D60
Точное извлечение (достоверность 4) [E46741C8] (AR v1)
Копирование... OK
Все треки извлечены точно
Ошибок не произошло
Конец отчёта
==== Контрольная сумма отчёта 681A18709044EED66F1F75A7AECB61EA049A35994B5BD89286ED9B1340A1DF4B ====
 
Содержание индексной карты (.CUE)
REM GENRE Electronic
REM DATE 2006
REM DISCID 860CA10A
REM COMMENT "ExactAudioCopy v1.0b3"
PERFORMER "The National Trust"
TITLE "Kings & Queens"
FILE "01 Elevators.wav" WAVE
TRACK 01 AUDIO
TITLE "Elevators"
PERFORMER "The National Trust"
ISRC H2LJ20514301
INDEX 01 00:00:00
FILE "02 Secrets.wav" WAVE
TRACK 02 AUDIO
TITLE "Secrets"
PERFORMER "The National Trust"
ISRC H2LJ20514302
INDEX 01 00:00:00
FILE "03 It's Just Cruel.wav" WAVE
TRACK 03 AUDIO
TITLE "It's Just Cruel"
PERFORMER "The National Trust"
ISRC H2LJ20514303
INDEX 01 00:00:00
FILE "04 Canday's Away.wav" WAVE
TRACK 04 AUDIO
TITLE "Canday's Away"
PERFORMER "The National Trust"
ISRC H2LJ20514304
INDEX 01 00:00:00
FILE "05 Stages.wav" WAVE
TRACK 05 AUDIO
TITLE "Stages"
PERFORMER "The National Trust"
ISRC H2LJ20514305
INDEX 01 00:00:00
FILE "06 We Can't Do Wrong.wav" WAVE
TRACK 06 AUDIO
TITLE "We Can't Do Wrong"
PERFORMER "The National Trust"
ISRC H2LJ20514306
INDEX 01 00:00:00
FILE "07 Jacuzzis.wav" WAVE
TRACK 07 AUDIO
TITLE "Jacuzzis"
PERFORMER "The National Trust"
ISRC H2LJ20514307
INDEX 01 00:00:00
FILE "08 Show And Tell.wav" WAVE
TRACK 08 AUDIO
TITLE "Show And Tell"
PERFORMER "The National Trust"
ISRC H2LJ20514308
INDEX 01 00:00:00
FILE "09 New Sexy Touch.wav" WAVE
TRACK 09 AUDIO
TITLE "New Sexy Touch"
PERFORMER "The National Trust"
ISRC H2LJ20514309
INDEX 01 00:00:00
FILE "10 Shapes And Sizes.wav" WAVE
TRACK 10 AUDIO
TITLE "Shapes And Sizes"
PERFORMER "The National Trust"
ISRC H2LJ20514310
INDEX 01 00:00:00
Приватный:
Нет (DHT включён)
Размер:
359.64 Мб (377,109,407 байт) » файлов: 20
Участники:
0 раздают, 0 качают (0 участников всего)
Внешние участники:
1 раздают, 0 качают (1 участников всего) [ Обновить ]
Есть вопросы - пишите личное сообщение пользователю M0p94ok.
07:21
74
Нет комментариев. Ваш будет первым!