Поиск

(Soul) [CD] Barry White - Greatest Hits (2CD) - 2008, FLAC (tracks+.cue), lossless

(Soul) [CD] Barry White - Greatest Hits (2CD) - 2008, FLAC (tracks+.cue), lossless
Треклист:
Barry White / Greatest Hits (2CD)
Жанр: Soul
Носитель: CD
Страна-производитель диска (релиза): Russia
Год издания: 2008
Издатель (лейбл): Star Mark Compilations/Mercury Records Ltd.
Номер по каталогу: 16479-1/2
Страна исполнителя (группы): USA
Аудиокодек: FLAC (*.flac)
Тип рипа: tracks+.cue
Битрейт аудио: lossless
Продолжительность: 1:19:55. + 1:16:06.
Источник (релизер): clustert
Наличие сканов в содержимом раздачи: да
 
CD1
01. You're The First, The Last, My Everything [0:03:27.60]
02. Can't Get Enough Of Your Love Babe [0:04:05.30]
03. Never, Never Gonna Give You Up [0:04:10.16]
04. I've Got So Much To Give [0:05:18.00]
05. I'll Do For You Anything You Want Me To [0:04:14.13]
06. What Am I Gonna Do With You [0:03:37.60]
07. I'm Gonna Love You Just A Little More Babe [0:04:01.52]
08. Babe We Better Try And Get It Together [0:04:26.32]
09. Let The Music Play [0:03:33.47]
10. Don't Make Me Wait Too Long [0:03:21.30]
11. You See The Trouble With Me [0:03:31.55]
12. It'S Ecstacy When You Lay Down Next To Me [0:07:01.02]
13. Just The Way You Are [0:04:50.67]
14. Your Sweetness Is My Weakness [0:04:43.65]
15. Satin Soul (Love Unlimited Orchestra) [0:04:17.12]
16. Playing Your Game, Baby [0:03:40.33]
17. It Ain't Love, Babe (Until You Give It) [0:04:21.48]
18. I'm Qualified To Satisfy You [0:03:07.50]
19. Loves Theme [0:04:05.00]
 
Лог создания рипа
Exact Audio Copy V1.0 beta 3 from 29. August 2011
Отчёт EAC об извлечении, выполненном 23. июля 2015, 0:43
Barry White / Star Mark Greatest Hits CD1
Дисковод: ASUS DRW-1814BLT Adapter: 4 ID: 0
Режим чтения : Достоверность
Использование точного потока : Да
Отключение кэша аудио : Да
Использование указателей C2 : Нет
Коррекция смещения при чтении : 6
Способность читать области Lead-in и Lead-out : Нет
Заполнение пропущенных сэмплов тишиной : Да
Удаление блоков с тишиной в начале и конце : Нет
При вычислениях CRC использовались нулевые сэмплы : Да
Интерфейс : Встроенный Win32-интерфейс для Win NT/2000
Обработка зазоров : Добавлено к предыдущему треку
Выходной формат : Пользовательский кодировщик
Выбранный битрейт : 128 kBit/s
Качество : Высокий
Добавление ID3-тега : Нет
Утилита сжатия : C:\Program Files\Exact Audio Copy\Flac\flac.exe
Дополнительные параметры : -V -8 -T "Genre=%genre%" -T "Artist=%artist%" -T "Title=%title%" -T "Album=%albumtitle%" -T "Date=%year%" -T "Tracknumber=%tracknr%" -T "Comment=EAC1.0b2 FLAC -8" %source%
TOC извлечённого CD
Трек | Старт | Длительность | Начальный сектор | Конечный сектор
---------------------------------------------------------------------
1 | 0:00.00 | 3:27.60 | 0 | 15584
2 | 3:27.60 | 4:05.30 | 15585 | 33989
3 | 7:33.15 | 4:10.16 | 33990 | 52755
4 | 11:43.31 | 5:18.00 | 52756 | 76605
5 | 17:01.31 | 4:14.13 | 76606 | 95668
6 | 21:15.44 | 3:37.60 | 95669 | 112003
7 | 24:53.29 | 4:01.52 | 112004 | 130130
8 | 28:55.06 | 4:26.32 | 130131 | 150112
9 | 33:21.38 | 3:33.47 | 150113 | 166134
10 | 36:55.10 | 3:21.30 | 166135 | 181239
11 | 40:16.40 | 3:31.55 | 181240 | 197119
12 | 43:48.20 | 7:01.02 | 197120 | 228696
13 | 50:49.22 | 4:50.67 | 228697 | 250513
14 | 55:40.14 | 4:43.65 | 250514 | 271803
15 | 60:24.04 | 4:17.12 | 271804 | 291090
16 | 64:41.16 | 3:40.33 | 291091 | 307623
17 | 68:21.49 | 4:21.48 | 307624 | 327246
18 | 72:43.22 | 3:07.50 | 327247 | 341321
19 | 75:50.72 | 4:05.00 | 341322 | 359696
Трек 1
Имя файла R:\Раздача 50\Barry White - 2008 - Greatest Hits (2CD)\CD1\01 You're The First, The Last, My Everything.wav
Длина предзазора 0:00:02.00
Пиковый уровень 100.0 %
Скорость извлечения 1.6 X
Качество трека 99.9 %
CRC теста C8B76C22
CRC копии C8B76C22
Трек не обнаружен в базе AccurateRip
Копирование... OK
Трек 2
Имя файла R:\Раздача 50\Barry White - 2008 - Greatest Hits (2CD)\CD1\02 Can't Get Enough Of Your Love Babe.wav
Длина предзазора 0:00:02.00
Пиковый уровень 100.0 %
Скорость извлечения 3.2 X
Качество трека 100.0 %
CRC теста 71573ED5
CRC копии 71573ED5
Трек не обнаружен в базе AccurateRip
Копирование... OK
Трек 3
Имя файла R:\Раздача 50\Barry White - 2008 - Greatest Hits (2CD)\CD1\03 Never, Never Gonna Give You Up.wav
Длина предзазора 0:00:02.00
Пиковый уровень 96.3 %
Скорость извлечения 3.4 X
Качество трека 100.0 %
CRC теста 9216189B
CRC копии 9216189B
Трек не обнаружен в базе AccurateRip
Копирование... OK
Трек 4
Имя файла R:\Раздача 50\Barry White - 2008 - Greatest Hits (2CD)\CD1\04 I've Got So Much To Give.wav
Длина предзазора 0:00:02.00
Пиковый уровень 100.0 %
Скорость извлечения 3.8 X
Качество трека 100.0 %
CRC теста 32CA7317
CRC копии 32CA7317
Трек не обнаружен в базе AccurateRip
Копирование... OK
Трек 5
Имя файла R:\Раздача 50\Barry White - 2008 - Greatest Hits (2CD)\CD1\05 I'll Do For You Anything You Want Me To.wav
Длина предзазора 0:00:02.00
Пиковый уровень 100.0 %
Скорость извлечения 4.0 X
Качество трека 100.0 %
CRC теста 1ABDF2E9
CRC копии 1ABDF2E9
Трек не обнаружен в базе AccurateRip
Копирование... OK
Трек 6
Имя файла R:\Раздача 50\Barry White - 2008 - Greatest Hits (2CD)\CD1\06 What Am I Gonna Do With You.wav
Длина предзазора 0:00:02.00
Пиковый уровень 100.0 %
Скорость извлечения 2.4 X
Качество трека 99.9 %
CRC теста 8E491351
CRC копии 8E491351
Трек не обнаружен в базе AccurateRip
Копирование... OK
Трек 7
Имя файла R:\Раздача 50\Barry White - 2008 - Greatest Hits (2CD)\CD1\07 I'm Gonna Love You Just A Little More Babe.wav
Длина предзазора 0:00:02.00
Пиковый уровень 100.0 %
Скорость извлечения 2.6 X
Качество трека 99.9 %
CRC теста 61471AB2
CRC копии 61471AB2
Трек не обнаружен в базе AccurateRip
Копирование... OK
Трек 8
Имя файла R:\Раздача 50\Barry White - 2008 - Greatest Hits (2CD)\CD1\08 Babe We Better Try And Get It Together.wav
Длина предзазора 0:00:02.00
Пиковый уровень 100.0 %
Скорость извлечения 4.5 X
Качество трека 100.0 %
CRC теста 02759D5C
CRC копии 02759D5C
Трек не обнаружен в базе AccurateRip
Копирование... OK
Трек 9
Имя файла R:\Раздача 50\Barry White - 2008 - Greatest Hits (2CD)\CD1\09 Let The Music Play.wav
Длина предзазора 0:00:02.00
Пиковый уровень 100.0 %
Скорость извлечения 4.6 X
Качество трека 100.0 %
CRC теста 16102C0A
CRC копии 16102C0A
Трек не обнаружен в базе AccurateRip
Копирование... OK
Трек 10
Имя файла R:\Раздача 50\Barry White - 2008 - Greatest Hits (2CD)\CD1\10 Don't Make Me Wait Too Long.wav
Длина предзазора 0:00:02.00
Пиковый уровень 100.0 %
Скорость извлечения 4.7 X
Качество трека 100.0 %
CRC теста 0124F3E4
CRC копии 0124F3E4
Трек не обнаружен в базе AccurateRip
Копирование... OK
Трек 11
Имя файла R:\Раздача 50\Barry White - 2008 - Greatest Hits (2CD)\CD1\11 You See The Trouble With Me.wav
Длина предзазора 0:00:02.00
Пиковый уровень 100.0 %
Скорость извлечения 4.9 X
Качество трека 100.0 %
CRC теста 7A67C36E
CRC копии 7A67C36E
Трек не обнаружен в базе AccurateRip
Копирование... OK
Трек 12
Имя файла R:\Раздача 50\Barry White - 2008 - Greatest Hits (2CD)\CD1\12 It'S Ecstacy When You Lay Down Next To Me.wav
Длина предзазора 0:00:02.00
Пиковый уровень 100.0 %
Скорость извлечения 5.5 X
Качество трека 100.0 %
CRC теста 9729991E
CRC копии 9729991E
Трек не обнаружен в базе AccurateRip
Копирование... OK
Трек 13
Имя файла R:\Раздача 50\Barry White - 2008 - Greatest Hits (2CD)\CD1\13 Just The Way You Are.wav
Длина предзазора 0:00:02.00
Пиковый уровень 100.0 %
Скорость извлечения 5.5 X
Качество трека 100.0 %
CRC теста E107BAA4
CRC копии E107BAA4
Трек не обнаружен в базе AccurateRip
Копирование... OK
Трек 14
Имя файла R:\Раздача 50\Barry White - 2008 - Greatest Hits (2CD)\CD1\14 Your Sweetness Is My Weakness.wav
Длина предзазора 0:00:02.00
Пиковый уровень 100.0 %
Скорость извлечения 3.4 X
Качество трека 99.9 %
CRC теста 4B0DA7C9
CRC копии 4B0DA7C9
Трек не обнаружен в базе AccurateRip
Копирование... OK
Трек 15
Имя файла R:\Раздача 50\Barry White - 2008 - Greatest Hits (2CD)\CD1\15 Satin Soul (Love Unlimited Orchestra).wav
Длина предзазора 0:00:02.00
Пиковый уровень 98.1 %
Скорость извлечения 5.7 X
Качество трека 100.0 %
CRC теста B16410AA
CRC копии B16410AA
Трек не обнаружен в базе AccurateRip
Копирование... OK
Трек 16
Имя файла R:\Раздача 50\Barry White - 2008 - Greatest Hits (2CD)\CD1\16 Playing Your Game, Baby.wav
Длина предзазора 0:00:02.00
Пиковый уровень 100.0 %
Скорость извлечения 3.3 X
Качество трека 99.9 %
CRC теста 23A06087
CRC копии 23A06087
Трек не обнаружен в базе AccurateRip
Копирование... OK
Трек 17
Имя файла R:\Раздача 50\Barry White - 2008 - Greatest Hits (2CD)\CD1\17 It Ain't Love, Babe (Until You Give It).wav
Длина предзазора 0:00:02.00
Пиковый уровень 97.3 %
Скорость извлечения 6.0 X
Качество трека 100.0 %
CRC теста 360D8773
CRC копии 360D8773
Трек не обнаружен в базе AccurateRip
Копирование... OK
Трек 18
Имя файла R:\Раздача 50\Barry White - 2008 - Greatest Hits (2CD)\CD1\18 I'm Qualified To Satisfy You.wav
Длина предзазора 0:00:02.00
Пиковый уровень 100.0 %
Скорость извлечения 5.8 X
Качество трека 100.0 %
CRC теста 0B35449B
CRC копии 0B35449B
Трек не обнаружен в базе AccurateRip
Копирование... OK
Трек 19
Имя файла R:\Раздача 50\Barry White - 2008 - Greatest Hits (2CD)\CD1\19 Loves Theme.wav
Длина предзазора 0:00:02.00
Пиковый уровень 100.0 %
Скорость извлечения 3.7 X
Качество трека 99.9 %
CRC теста 3E5BDAF2
CRC копии 3E5BDAF2
Трек не обнаружен в базе AccurateRip
Копирование... OK
Ни одного трека нет в базе AccurateRip
Ошибок не произошло
Конец отчёта
==== Контрольная сумма отчёта A863E28EFBFBE85932756DED080BBC3F08C7DD24ACE9E5C9739901ABC3001432 ====
 
Содержание индексной карты (.CUE)
REM GENRE Soul
REM DATE 2008
REM DISCID F412BB13
REM COMMENT "ExactAudioCopy v1.0b3"
PERFORMER "Barry White"
TITLE "Star Mark Greatest Hits CD1"
FILE "01 You're The First, The Last, My Everything.wav" WAVE
TRACK 01 AUDIO
TITLE "You're The First, The Last, My Everything"
PERFORMER "Barry White"
FLAGS DCP
INDEX 01 00:00:00
TRACK 02 AUDIO
TITLE "Can't Get Enough Of Your Love Babe"
PERFORMER "Barry White"
FLAGS DCP
INDEX 00 03:25:60
FILE "02 Can't Get Enough Of Your Love Babe.wav" WAVE
INDEX 01 00:00:00
TRACK 03 AUDIO
TITLE "Never, Never Gonna Give You Up"
PERFORMER "Barry White"
FLAGS DCP
INDEX 00 04:03:30
FILE "03 Never, Never Gonna Give You Up.wav" WAVE
INDEX 01 00:00:00
TRACK 04 AUDIO
TITLE "I've Got So Much To Give"
PERFORMER "Barry White"
FLAGS DCP
INDEX 00 04:08:16
FILE "04 I've Got So Much To Give.wav" WAVE
INDEX 01 00:00:00
TRACK 05 AUDIO
TITLE "I'll Do For You Anything You Want Me To"
PERFORMER "Barry White"
FLAGS DCP
INDEX 00 05:16:00
FILE "05 I'll Do For You Anything You Want Me To.wav" WAVE
INDEX 01 00:00:00
TRACK 06 AUDIO
TITLE "What Am I Gonna Do With You"
PERFORMER "Barry White"
FLAGS DCP
INDEX 00 04:12:13
FILE "06 What Am I Gonna Do With You.wav" WAVE
INDEX 01 00:00:00
TRACK 07 AUDIO
TITLE "I'm Gonna Love You Just A Little More Babe"
PERFORMER "Barry White"
FLAGS DCP
INDEX 00 03:35:60
FILE "07 I'm Gonna Love You Just A Little More Babe.wav" WAVE
INDEX 01 00:00:00
TRACK 08 AUDIO
TITLE "Babe We Better Try And Get It Together"
PERFORMER "Barry White"
FLAGS DCP
INDEX 00 03:59:52
FILE "08 Babe We Better Try And Get It Together.wav" WAVE
INDEX 01 00:00:00
TRACK 09 AUDIO
TITLE "Let The Music Play"
PERFORMER "Barry White"
FLAGS DCP
INDEX 00 04:24:32
FILE "09 Let The Music Play.wav" WAVE
INDEX 01 00:00:00
TRACK 10 AUDIO
TITLE "Don't Make Me Wait Too Long"
PERFORMER "Barry White"
FLAGS DCP
INDEX 00 03:31:47
FILE "10 Don't Make Me Wait Too Long.wav" WAVE
INDEX 01 00:00:00
TRACK 11 AUDIO
TITLE "You See The Trouble With Me"
PERFORMER "Barry White"
FLAGS DCP
INDEX 00 03:19:30
FILE "11 You See The Trouble With Me.wav" WAVE
INDEX 01 00:00:00
TRACK 12 AUDIO
TITLE "It'S Ecstacy When You Lay Down Next To Me"
PERFORMER "Barry White"
FLAGS DCP
INDEX 00 03:29:55
FILE "12 It'S Ecstacy When You Lay Down Next To Me.wav" WAVE
INDEX 01 00:00:00
TRACK 13 AUDIO
TITLE "Just The Way You Are"
PERFORMER "Barry White"
FLAGS DCP
INDEX 00 06:59:02
FILE "13 Just The Way You Are.wav" WAVE
INDEX 01 00:00:00
TRACK 14 AUDIO
TITLE "Your Sweetness Is My Weakness"
PERFORMER "Barry White"
FLAGS DCP
INDEX 00 04:48:67
FILE "14 Your Sweetness Is My Weakness.wav" WAVE
INDEX 01 00:00:00
TRACK 15 AUDIO
TITLE "Satin Soul (Love Unlimited Orchestra)"
PERFORMER "Barry White"
FLAGS DCP
INDEX 00 04:41:65
FILE "15 Satin Soul (Love Unlimited Orchestra).wav" WAVE
INDEX 01 00:00:00
TRACK 16 AUDIO
TITLE "Playing Your Game, Baby"
PERFORMER "Barry White"
FLAGS DCP
INDEX 00 04:15:12
FILE "16 Playing Your Game, Baby.wav" WAVE
INDEX 01 00:00:00
TRACK 17 AUDIO
TITLE "It Ain't Love, Babe (Until You Give It)"
PERFORMER "Barry White"
FLAGS DCP
INDEX 00 03:38:33
FILE "17 It Ain't Love, Babe (Until You Give It).wav" WAVE
INDEX 01 00:00:00
TRACK 18 AUDIO
TITLE "I'm Qualified To Satisfy You"
PERFORMER "Barry White"
FLAGS DCP
INDEX 00 04:19:48
FILE "18 I'm Qualified To Satisfy You.wav" WAVE
INDEX 01 00:00:00
TRACK 19 AUDIO
TITLE "Loves Theme"
PERFORMER "Barry White"
FLAGS DCP
INDEX 00 03:05:50
FILE "19 Loves Theme.wav" WAVE
INDEX 01 00:00:00
 
CD2
01. Honey Please, Can't Ya See [0:03:17.50]
02. Oh What A Night For Dancing [0:03:58.12]
03. My Sweet Summer Suite [0:05:01.63]
04. Love Makin' Music [0:04:59.07]
05. Love Serenade [0:04:47.28]
06. It's Only Love Doing It's Thing [0:03:53.66]
07. Baby Blues [0:05:40.50]
08. Beware [0:04:56.24]
09. Change [0:06:17.01]
10. Sho' You Right [0:04:34.52]
11. Put me in your mix [0:04:34.38]
12. Dark And Lovely (You Over There) (Radio Edit) [0:04:57.08]
13. I Only Want to Be with You [0:05:06.12]
14. Practice What You Preach [0:04:01.23]
15. Come On [0:03:50.55]
16. Staying Power [0:06:10.25]
 
Лог создания рипа
Exact Audio Copy V1.0 beta 3 from 29. August 2011
Отчёт EAC об извлечении, выполненном 23. июля 2015, 6:41
Barry White / Star Mark Greatest Hits CD2
Дисковод: ASUS DRW-1814BLT Adapter: 4 ID: 0
Режим чтения : Достоверность
Использование точного потока : Да
Отключение кэша аудио : Да
Использование указателей C2 : Нет
Коррекция смещения при чтении : 6
Способность читать области Lead-in и Lead-out : Нет
Заполнение пропущенных сэмплов тишиной : Да
Удаление блоков с тишиной в начале и конце : Нет
При вычислениях CRC использовались нулевые сэмплы : Да
Интерфейс : Встроенный Win32-интерфейс для Win NT/2000
Обработка зазоров : Добавлено к предыдущему треку
Выходной формат : Пользовательский кодировщик
Выбранный битрейт : 128 kBit/s
Качество : Высокий
Добавление ID3-тега : Нет
Утилита сжатия : C:\Program Files\Exact Audio Copy\Flac\flac.exe
Дополнительные параметры : -V -8 -T "Genre=%genre%" -T "Artist=%artist%" -T "Title=%title%" -T "Album=%albumtitle%" -T "Date=%year%" -T "Tracknumber=%tracknr%" -T "Comment=EAC1.0b2 FLAC -8" %source%
TOC извлечённого CD
Трек | Старт | Длительность | Начальный сектор | Конечный сектор
---------------------------------------------------------------------
1 | 0:00.00 | 3:17.50 | 0 | 14824
2 | 3:17.50 | 3:58.12 | 14825 | 32686
3 | 7:15.62 | 5:01.63 | 32687 | 55324
4 | 12:17.50 | 4:59.07 | 55325 | 77756
5 | 17:16.57 | 4:47.28 | 77757 | 99309
6 | 22:04.10 | 3:53.66 | 99310 | 116850
7 | 25:58.01 | 5:40.50 | 116851 | 142400
8 | 31:38.51 | 4:56.24 | 142401 | 164624
9 | 36:35.00 | 6:17.01 | 164625 | 192900
10 | 42:52.01 | 4:34.52 | 192901 | 213502
11 | 47:26.53 | 4:34.38 | 213503 | 234090
12 | 52:01.16 | 4:57.08 | 234091 | 256373
13 | 56:58.24 | 5:06.12 | 256374 | 279335
14 | 62:04.36 | 4:01.23 | 279336 | 297433
15 | 66:05.59 | 3:50.55 | 297434 | 314738
16 | 69:56.39 | 6:10.25 | 314739 | 342513
Трек 1
Имя файла R:\Раздача 50\Barry White - 2008 - Greatest Hits (2CD)\CD2\01 Honey Please, Can't Ya See.wav
Длина предзазора 0:00:02.00
Пиковый уровень 100.0 %
Скорость извлечения 2.8 X
Качество трека 100.0 %
CRC теста 1F185791
CRC копии 1F185791
Трек не обнаружен в базе AccurateRip
Копирование... OK
Трек 2
Имя файла R:\Раздача 50\Barry White - 2008 - Greatest Hits (2CD)\CD2\02 Oh What A Night For Dancing.wav
Длина предзазора 0:00:02.00
Пиковый уровень 100.0 %
Скорость извлечения 3.2 X
Качество трека 100.0 %
CRC теста 1D803AD6
CRC копии 1D803AD6
Трек не обнаружен в базе AccurateRip
Копирование... OK
Трек 3
Имя файла R:\Раздача 50\Barry White - 2008 - Greatest Hits (2CD)\CD2\03 My Sweet Summer Suite.wav
Длина предзазора 0:00:02.00
Пиковый уровень 100.0 %
Скорость извлечения 3.5 X
Качество трека 100.0 %
CRC теста EC11E0B7
CRC копии EC11E0B7
Трек не обнаружен в базе AccurateRip
Копирование... OK
Трек 4
Имя файла R:\Раздача 50\Barry White - 2008 - Greatest Hits (2CD)\CD2\04 Love Makin' Music.wav
Длина предзазора 0:00:02.00
Пиковый уровень 100.0 %
Скорость извлечения 3.8 X
Качество трека 100.0 %
CRC теста 883DA1BA
CRC копии 883DA1BA
Трек не обнаружен в базе AccurateRip
Копирование... OK
Трек 5
Имя файла R:\Раздача 50\Barry White - 2008 - Greatest Hits (2CD)\CD2\05 Love Serenade.wav
Длина предзазора 0:00:02.00
Пиковый уровень 100.0 %
Скорость извлечения 4.1 X
Качество трека 100.0 %
CRC теста 4F966834
CRC копии 4F966834
Трек не обнаружен в базе AccurateRip
Копирование... OK
Трек 6
Имя файла R:\Раздача 50\Barry White - 2008 - Greatest Hits (2CD)\CD2\06 It's Only Love Doing It's Thing.wav
Длина предзазора 0:00:02.00
Пиковый уровень 100.0 %
Скорость извлечения 4.1 X
Качество трека 100.0 %
CRC теста BCA5021E
CRC копии BCA5021E
Трек не обнаружен в базе AccurateRip
Копирование... OK
Трек 7
Имя файла R:\Раздача 50\Barry White - 2008 - Greatest Hits (2CD)\CD2\07 Baby Blues.wav
Длина предзазора 0:00:02.00
Пиковый уровень 100.0 %
Скорость извлечения 4.6 X
Качество трека 100.0 %
CRC теста A9D3B548
CRC копии A9D3B548
Трек не обнаружен в базе AccurateRip
Копирование... OK
Трек 8
Имя файла R:\Раздача 50\Barry White - 2008 - Greatest Hits (2CD)\CD2\08 Beware.wav
Длина предзазора 0:00:02.00
Пиковый уровень 100.0 %
Скорость извлечения 4.8 X
Качество трека 100.0 %
CRC теста 4F5C5AE9
CRC копии 4F5C5AE9
Трек не обнаружен в базе AccurateRip
Копирование... OK
Трек 9
Имя файла R:\Раздача 50\Barry White - 2008 - Greatest Hits (2CD)\CD2\09 Change.wav
Длина предзазора 0:00:02.00
Пиковый уровень 100.0 %
Скорость извлечения 5.1 X
Качество трека 100.0 %
CRC теста 301F97E8
CRC копии 301F97E8
Трек не обнаружен в базе AccurateRip
Копирование... OK
Трек 10
Имя файла R:\Раздача 50\Barry White - 2008 - Greatest Hits (2CD)\CD2\10 Sho' You Right.wav
Длина предзазора 0:00:02.00
Пиковый уровень 100.0 %
Скорость извлечения 5.2 X
Качество трека 100.0 %
CRC теста D5BB596B
CRC копии D5BB596B
Трек не обнаружен в базе AccurateRip
Копирование... OK
Трек 11
Имя файла R:\Раздача 50\Barry White - 2008 - Greatest Hits (2CD)\CD2\11 Put me in your mix.wav
Длина предзазора 0:00:02.00
Пиковый уровень 100.0 %
Скорость извлечения 5.3 X
Качество трека 100.0 %
CRC теста 31ECDE7F
CRC копии 31ECDE7F
Трек не обнаружен в базе AccurateRip
Копирование... OK
Трек 12
Имя файла R:\Раздача 50\Barry White - 2008 - Greatest Hits (2CD)\CD2\12 Dark And Lovely (You Over There) (Radio Edit).wav
Длина предзазора 0:00:02.00
Пиковый уровень 100.0 %
Скорость извлечения 3.4 X
Качество трека 99.9 %
CRC теста 1A410C22
CRC копии 1A410C22
Трек не обнаружен в базе AccurateRip
Копирование... OK
Трек 13
Имя файла R:\Раздача 50\Barry White - 2008 - Greatest Hits (2CD)\CD2\13 I Only Want to Be with You.wav
Длина предзазора 0:00:02.00
Пиковый уровень 97.5 %
Скорость извлечения 5.7 X
Качество трека 100.0 %
CRC теста B8B40CAF
CRC копии B8B40CAF
Трек не обнаружен в базе AccurateRip
Копирование... OK
Трек 14
Имя файла R:\Раздача 50\Barry White - 2008 - Greatest Hits (2CD)\CD2\14 Practice What You Preach.wav
Длина предзазора 0:00:02.00
Пиковый уровень 100.0 %
Скорость извлечения 5.7 X
Качество трека 100.0 %
CRC теста 35216B23
CRC копии 35216B23
Трек не обнаружен в базе AccurateRip
Копирование... OK
Трек 15
Имя файла R:\Раздача 50\Barry White - 2008 - Greatest Hits (2CD)\CD2\15 Come On.wav
Длина предзазора 0:00:02.00
Пиковый уровень 100.0 %
Скорость извлечения 3.4 X
Качество трека 99.9 %
CRC теста 26BB308B
CRC копии 26BB308B
Трек не обнаружен в базе AccurateRip
Копирование... OK
Трек 16
Имя файла R:\Раздача 50\Barry White - 2008 - Greatest Hits (2CD)\CD2\16 Staying Power.wav
Длина предзазора 0:00:02.00
Пиковый уровень 100.0 %
Скорость извлечения 6.3 X
Качество трека 100.0 %
CRC теста 6AEB89D4
CRC копии 6AEB89D4
Трек не обнаружен в базе AccurateRip
Копирование... OK
Ни одного трека нет в базе AccurateRip
Ошибок не произошло
Конец отчёта
==== Контрольная сумма отчёта 3A3126C49DF487C89069D7E0879CEC030FCB8583AA9DFE8A0A07481AD0477048 ====
 
Содержание индексной карты (.CUE)
REM GENRE Soul
REM DATE 2008
REM DISCID F211D610
REM COMMENT "ExactAudioCopy v1.0b3"
PERFORMER "Barry White"
TITLE "Star Mark Greatest Hits CD2"
FILE "01 Honey Please, Can't Ya See.wav" WAVE
TRACK 01 AUDIO
TITLE "Honey Please, Can't Ya See"
PERFORMER "Barry White"
FLAGS DCP
INDEX 01 00:00:00
TRACK 02 AUDIO
TITLE " Oh What A Night For Dancing"
PERFORMER "Barry White"
FLAGS DCP
INDEX 00 03:15:50
FILE "02 Oh What A Night For Dancing.wav" WAVE
INDEX 01 00:00:00
TRACK 03 AUDIO
TITLE " My Sweet Summer Suite "
PERFORMER "Barry White"
FLAGS DCP
INDEX 00 03:56:12
FILE "03 My Sweet Summer Suite.wav" WAVE
INDEX 01 00:00:00
TRACK 04 AUDIO
TITLE "Love Makin' Music"
PERFORMER "Barry White"
FLAGS DCP
INDEX 00 04:59:63
FILE "04 Love Makin' Music.wav" WAVE
INDEX 01 00:00:00
TRACK 05 AUDIO
TITLE "Love Serenade"
PERFORMER "Barry White"
FLAGS DCP
INDEX 00 04:57:07
FILE "05 Love Serenade.wav" WAVE
INDEX 01 00:00:00
TRACK 06 AUDIO
TITLE "It's Only Love Doing It's Thing"
PERFORMER "Barry White"
FLAGS DCP
INDEX 00 04:45:28
FILE "06 It's Only Love Doing It's Thing.wav" WAVE
INDEX 01 00:00:00
TRACK 07 AUDIO
TITLE "Baby Blues "
PERFORMER "Barry White"
FLAGS DCP
INDEX 00 03:51:66
FILE "07 Baby Blues.wav" WAVE
INDEX 01 00:00:00
TRACK 08 AUDIO
TITLE "Beware"
PERFORMER "Barry White"
FLAGS DCP
INDEX 00 05:38:50
FILE "08 Beware.wav" WAVE
INDEX 01 00:00:00
TRACK 09 AUDIO
TITLE "Change"
PERFORMER "Barry White"
FLAGS DCP
INDEX 00 04:54:24
FILE "09 Change.wav" WAVE
INDEX 01 00:00:00
TRACK 10 AUDIO
TITLE "Sho' You Right"
PERFORMER "Barry White"
FLAGS DCP
INDEX 00 06:15:01
FILE "10 Sho' You Right.wav" WAVE
INDEX 01 00:00:00
TRACK 11 AUDIO
TITLE "Put me in your mix"
PERFORMER "Barry White"
FLAGS DCP
INDEX 00 04:32:52
FILE "11 Put me in your mix.wav" WAVE
INDEX 01 00:00:00
TRACK 12 AUDIO
TITLE "Dark And Lovely (You Over There) (Radio Edit)"
PERFORMER "Barry White"
FLAGS DCP
INDEX 00 04:32:38
FILE "12 Dark And Lovely (You Over There) (Radio Edit).wav" WAVE
INDEX 01 00:00:00
TRACK 13 AUDIO
TITLE "I Only Want to Be with You"
PERFORMER "Barry White"
FLAGS DCP
INDEX 00 04:55:08
FILE "13 I Only Want to Be with You.wav" WAVE
INDEX 01 00:00:00
TRACK 14 AUDIO
TITLE "Practice What You Preach"
PERFORMER "Barry White"
FLAGS DCP
INDEX 00 05:04:12
FILE "14 Practice What You Preach.wav" WAVE
INDEX 01 00:00:00
TRACK 15 AUDIO
TITLE "Come On"
PERFORMER "Barry White"
FLAGS DCP
INDEX 00 03:59:23
FILE "15 Come On.wav" WAVE
INDEX 01 00:00:00
TRACK 16 AUDIO
TITLE "Staying Power"
PERFORMER "Barry White"
FLAGS DCP
INDEX 00 03:48:55
FILE "16 Staying Power.wav" WAVE
INDEX 01 00:00:00
Приватный:
Нет (DHT включён)
Размер:
1.03 Гб (1,106,309,525 байт) » файлов: 48
Участники:
0 раздают, 0 качают (0 участников всего)
Внешние участники:
16 раздают, 5 качают (21 участников всего) [ Обновить ]
Есть вопросы - пишите личное сообщение пользователю M0p94ok.
07:22
86
Нет комментариев. Ваш будет первым!