Поиск

(Funk, Soul, R&B) [CD] James Brown - Live In Atlanta - 1998, FLAC (tracks+.cue), lossless

(Funk, Soul, R&B) [CD] James Brown - Live In Atlanta - 1998, FLAC (tracks+.cue), lossless
Треклист:
James Brown - Live In Atlanta Жанр: Funk, Soul, R&B
Носитель: CD
Страна-производитель диска (релиза): USA
Год издания: 1998
Издатель (лейбл): KRB Music
Номер по каталогу: KRB8011-2
Страна исполнителя (группы): USA
Аудиокодек: FLAC (*.flac)
Тип рипа: tracks .cue
Битрейт аудио: lossless
Продолжительность: 57:50
Rip by Musicgate
Наличие сканов в содержимом раздачи: да
Треклист:
01. Cold Sweat / I Can't Stand Myself / Papa's Got A Brand New Bag / I Got You (8:46)
02. Sex Machine (4:21)
03. Hot Pants (1:15)
04. Georgia On My Mind (6:00)
05. Please, Please, Please (Medley) (9:00)
06. It's Man's Man's Man's World (Medley) (24:50)
07. I Got The Feeling (3:38)
 
 
Лог создания рипа
Exact Audio Copy V1.0 beta 3 from 29. August 2011
EAC extraction logfile from 14. July 2015, 20:25
James Brown / Live in Atlanta
Used drive : HL-DT-STDVDRAM GSA-T50N Adapter: 1 ID: 0
Read mode : Secure
Utilize accurate stream : Yes
Defeat audio cache : Yes
Make use of C2 pointers : No
Read offset correction : 667
Overread into Lead-In and Lead-Out : No
Fill up missing offset samples with silence : Yes
Delete leading and trailing silent blocks : No
Null samples used in CRC calculations : Yes
Used interface : Native Win32 interface for Win NT & 2000
Gap handling : Appended to previous track
Used output format : User Defined Encoder
Selected bitrate : 1024 kBit/s
Quality : High
Add ID3 tag : No
Command line compressor : C:\Program Files\Exact Audio Copy\Flac\flac.exe
Additional command line options : -V -8 -T "Comment=ripped by Musicgate special for СПАМ -T "Genre=%genre%" -T "Artist=%artist%" -T "Title=%title%" -T "Album=%albumtitle%" -T "Date=%year%" -T "Tracknumber=%tracknr%" %source% -o Юst%
TOC of the extracted CD
Track | Start | Length | Start sector | End sector
---------------------------------------------------------
1 | 0:01.00 | 8:45.45 | 75 | 39494
2 | 8:46.45 | 4:21.30 | 39495 | 59099
3 | 13:08.00 | 1:14.70 | 59100 | 64719
4 | 14:22.70 | 6:00.05 | 64720 | 91724
5 | 20:23.00 | 9:00.02 | 91725 | 132226
6 | 29:23.02 | 24:50.10 | 132227 | 243986
7 | 54:13.12 | 3:37.40 | 243987 | 260301
Track 1
Filename C:\Musicgate for СПАМ Brown - Live in Atlanta - 1998 (KRB8011-2)\01 - Cold Sweat,I Can't Stand Myself,Papa's Got a Brand New Bag,I Got You.wav
Pre-gap length 0:00:03.00
Peak level 98.9 %
Extraction speed 2.8 X
Track quality 100.0 %
Test CRC F7A31A3E
Copy CRC F7A31A3E
Cannot be verified as accurate (confidence 1) [4F342C26], AccurateRip returned [4DF775C2] (AR v2)
Copy OK
Track 2
Filename C:\Musicgate for СПАМ Brown - Live in Atlanta - 1998 (KRB8011-2)\02 - Sex Machine.wav
Peak level 89.3 %
Extraction speed 3.1 X
Track quality 100.0 %
Test CRC 05D09C84
Copy CRC 05D09C84
Cannot be verified as accurate (confidence 1) [74C5D012], AccurateRip returned [AC6D6298] (AR v2)
Copy OK
Track 3
Filename C:\Musicgate for СПАМ Brown - Live in Atlanta - 1998 (KRB8011-2)\03 - Hot Pants.wav
Peak level 78.5 %
Extraction speed 2.3 X
Track quality 100.0 %
Test CRC 619B8C03
Copy CRC 619B8C03
Cannot be verified as accurate (confidence 1) [CDCD6B5A], AccurateRip returned [F9784386] (AR v2)
Copy OK
Track 4
Filename C:\Musicgate for СПАМ Brown - Live in Atlanta - 1998 (KRB8011-2)\04 - Goergia On My Mind.wav
Peak level 100.0 %
Extraction speed 3.5 X
Track quality 100.0 %
Test CRC 2D8EF6F4
Copy CRC 2D8EF6F4
Cannot be verified as accurate (confidence 1) [18027735], AccurateRip returned [037FB818] (AR v2)
Copy OK
Track 5
Filename C:\Musicgate for СПАМ Brown - Live in Atlanta - 1998 (KRB8011-2)\05 - Please, Please, Please (Medly).wav
Peak level 90.1 %
Extraction speed 4.0 X
Track quality 100.0 %
Test CRC 68FF6592
Copy CRC 68FF6592
Cannot be verified as accurate (confidence 1) [210EB65D], AccurateRip returned [58292AAB] (AR v2)
Copy OK
Track 6
Filename C:\Musicgate for СПАМ Brown - Live in Atlanta - 1998 (KRB8011-2)\06 - It's a Man's Man's Man's World (Medly).wav
Peak level 92.8 %
Extraction speed 5.0 X
Track quality 100.0 %
Test CRC AAD794B3
Copy CRC AAD794B3
Cannot be verified as accurate (confidence 1) [837B3BA4], AccurateRip returned [A3DD1376] (AR v2)
Copy OK
Track 7
Filename C:\Musicgate for СПАМ Brown - Live in Atlanta - 1998 (KRB8011-2)\07 - I Got The Feeling.wav
Peak level 86.5 %
Extraction speed 4.9 X
Track quality 100.0 %
Test CRC E92BC1AB
Copy CRC E92BC1AB
Cannot be verified as accurate (confidence 1) [C9FFFC1C], AccurateRip returned [64DFEBB9] (AR v2)
Copy OK
No tracks could be verified as accurate
You may have a different pressing from the one(s) in the database
No errors occurred
End of status report
==== Log checksum 9E4969CFF051D9EE1AF57C1F337B85D84DE7A478137732C2D7A414DB6F4BB1C6 ====
 
Содержание индексной карты (.CUE)
REM GENRE Funk
REM DATE 1998
REM DISCID 600D8D07
REM COMMENT "ExactAudioCopy v1.0b3"
PERFORMER "James Brown"
TITLE "Live in Atlanta"
FILE "01 - Cold Sweat,I Can't Stand Myself,Papa's Got a Brand New Bag,I Got You.wav" WAVE
TRACK 01 AUDIO
TITLE "Cold Sweat/I Can't Stand Myself/Papa's Got a Brand New Bag/I Got You"
PERFORMER "James Brown"
PREGAP 00:01:00
INDEX 01 00:00:00
FILE "02 - Sex Machine.wav" WAVE
TRACK 02 AUDIO
TITLE "Sex Machine"
PERFORMER "James Brown"
INDEX 01 00:00:00
FILE "03 - Hot Pants.wav" WAVE
TRACK 03 AUDIO
TITLE "Hot Pants"
PERFORMER "James Brown"
INDEX 01 00:00:00
FILE "04 - Goergia On My Mind.wav" WAVE
TRACK 04 AUDIO
TITLE "Goergia On My Mind"
PERFORMER "James Brown"
INDEX 01 00:00:00
FILE "05 - Please, Please, Please (Medly).wav" WAVE
TRACK 05 AUDIO
TITLE "Please, Please, Please (Medly)"
PERFORMER "James Brown"
INDEX 01 00:00:00
FILE "06 - It's a Man's Man's Man's World (Medly).wav" WAVE
TRACK 06 AUDIO
TITLE "It's a Man's Man's Man's World (Medly)"
PERFORMER "James Brown"
INDEX 01 00:00:00
FILE "07 - I Got The Feeling.wav" WAVE
TRACK 07 AUDIO
TITLE "I Got The Feeling"
PERFORMER "James Brown"
INDEX 01 00:00:00
Приватный:
Нет (DHT включён)
Размер:
310.41 Мб (325,490,828 байт) » файлов: 18
Участники:
0 раздают, 0 качают (0 участников всего)
Внешние участники:
1 раздают, 0 качают (1 участников всего) [ Обновить ]
No seeders - write a personal message to user M0p94ok. Нет сидеров - пишите личное сообщение пользователю M0p94ok.
07:20
76
Нет комментариев. Ваш будет первым!