Поиск

(Rhythm & Blues, Soul, Jazz, Soul Jazz, Country Sou) [CD] Ray Charles - What'd I say [Compilation] - 2010[1958-59], FLAC (tracks+.cue), lossless

(Rhythm & Blues, Soul, Jazz, Soul Jazz, Country Sou) [CD] Ray Charles - What'd I say [Compilation] - 2010[1958-59], FLAC (tracks+.cue), lossless
Треклист:
Ray Charles / What'd I say [Compilation]
Жанр: Rhythm & Blues, Soul, Jazz, Soul Jazz, Country Sou
Носитель: CD
Страна-производитель диска (релиза): France
Год издания: 2010[1958-59]
Издатель (лейбл): Membran music
Номер по каталогу: 232976
Страна исполнителя (группы): USA
Аудиокодек: FLAC (*.flac)
Тип рипа: tracks+.cue
Битрейт аудио: lossless
Продолжительность: 00:56:50
Источник (релизер): Свой диск
Наличие сканов в содержимом раздачи: да
Треклист:
01. - What'd I say - 05:08
02. - I got a Woman - 02:55
03. - Hallelujah I love her so - 02:38
04. - My Bonnie (with the Raylettes) - 02:50
05. - Roll with my Baby (with the Raylettes) - 02:40
06. - Tell me how do you feel (with the Raylettes) - 02:43
07. - That's enough (with the Raylettes) - 02:46
08. - What Kind of Man are you for you (with the Raylettes) - 02:52
09. - You be my Baby (with the Raylettes) - 02:32
10. - Rockouse Part 1 & 2 - 03:56
11. - Alexander's Ragtime Band - 02:55
12. - Am I Blue - 03:40
13. - Come Rain or Come Shine - 03:40
14. - Don't let the Sun catch you cryin' - 03:48
15. - It had to be you - 02:45
16. - Jumpin'in the Morning - 02:49
17. - Just for a Thrill - 03:27
18. - Let the good Times roll - 02:54
 
Лог создания рипа
Exact Audio Copy V1.0 beta 3 from 29. August 2011
Отчёт EAC об извлечении, выполненном 24. июля 2015, 19:44
Ray Charles / What'd I say
Дисковод: ATAPI iHAS124 W Adapter: 2 ID: 0
Режим чтения : Достоверность
Использование точного потока : Да
Отключение кэша аудио : Да
Использование указателей C2 : Нет
Коррекция смещения при чтении : 48
Способность читать области Lead-in и Lead-out : Нет
Заполнение пропущенных сэмплов тишиной : Да
Удаление блоков с тишиной в начале и конце : Нет
При вычислениях CRC использовались нулевые сэмплы : Да
Интерфейс : Встроенный Win32-интерфейс для Win NT/2000
Обработка зазоров : Добавлено к предыдущему треку
Выходной формат : Пользовательский кодировщик
Выбранный битрейт : 128 kBit/s
Качество : Высокий
Добавление ID3-тега : Нет
Утилита сжатия : C:\Program Files\Exact Audio Copy\Flac\flac.exe
Дополнительные параметры : -V -8 -T "Genre=%genre%" -T "Artist=%artist%" -T "Title=%title%" -T "Album=%albumtitle%" -T "Date=%year%" -T "Tracknumber=%tracknr%" -T "Comment=%comment%" %source%
TOC извлечённого CD
Трек | Старт | Длительность | Начальный сектор | Конечный сектор
---------------------------------------------------------------------
1 | 0:00.00 | 5:07.36 | 0 | 23060
2 | 5:07.36 | 2:54.60 | 23061 | 36170
3 | 8:02.21 | 2:37.12 | 36171 | 47957
4 | 10:39.33 | 2:49.69 | 47958 | 60701
5 | 13:29.27 | 2:39.09 | 60702 | 72635
6 | 16:08.36 | 2:42.54 | 72636 | 84839
7 | 18:51.15 | 2:45.18 | 84840 | 97232
8 | 21:36.33 | 2:51.27 | 97233 | 110084
9 | 24:27.60 | 2:31.42 | 110085 | 121451
10 | 26:59.27 | 3:55.60 | 121452 | 139136
11 | 30:55.12 | 2:54.45 | 139137 | 152231
12 | 33:49.57 | 3:39.72 | 152232 | 168728
13 | 37:29.54 | 3:39.45 | 168729 | 185198
14 | 41:09.24 | 3:47.39 | 185199 | 202262
15 | 44:56.63 | 2:44.66 | 202263 | 214628
16 | 47:41.54 | 2:48.09 | 214629 | 227237
17 | 50:29.63 | 3:26.21 | 227238 | 242708
18 | 53:56.09 | 2:53.57 | 242709 | 255740
Трек 1
Имя файла C:\EAC\01. What'd I say.wav
Длина предзазора 0:00:02.00
Пиковый уровень 97.4 %
Скорость извлечения 5.0 X
Качество трека 100.0 %
CRC теста E9802676
CRC копии E9802676
Точное извлечение (достоверность 1) [7CA7A975] (AR v2)
Копирование... OK
Трек 2
Имя файла C:\EAC\02. I got a Woman.wav
Пиковый уровень 97.5 %
Скорость извлечения 5.1 X
Качество трека 100.0 %
CRC теста 309440A3
CRC копии 309440A3
Точное извлечение (достоверность 1) [A1F8ED85] (AR v2)
Копирование... OK
Трек 3
Имя файла C:\EAC\03. Hallelujah I love her so.wav
Пиковый уровень 98.4 %
Скорость извлечения 5.3 X
Качество трека 100.0 %
CRC теста 79D5A720
CRC копии 79D5A720
Точное извлечение (достоверность 1) [033EC19E] (AR v2)
Копирование... OK
Трек 4
Имя файла C:\EAC\04. My Bonnie (with the Raylettes).wav
Пиковый уровень 97.3 %
Скорость извлечения 5.6 X
Качество трека 100.0 %
CRC теста B3D7BB18
CRC копии B3D7BB18
Точное извлечение (достоверность 1) [A48C0AB7] (AR v2)
Копирование... OK
Трек 5
Имя файла C:\EAC\05. Roll with my Baby (with the Raylettes).wav
Пиковый уровень 97.7 %
Скорость извлечения 5.9 X
Качество трека 100.0 %
CRC теста 12448F43
CRC копии 12448F43
Точное извлечение (достоверность 1) [791B7822] (AR v2)
Копирование... OK
Трек 6
Имя файла C:\EAC\06. Tell me how do you feel (with the Raylettes).wav
Пиковый уровень 97.3 %
Скорость извлечения 6.1 X
Качество трека 100.0 %
CRC теста 6C0472F2
CRC копии 6C0472F2
Точное извлечение (достоверность 1) [58D3358F] (AR v2)
Копирование... OK
Трек 7
Имя файла C:\EAC\07. That's enough (with the Raylettes).wav
Пиковый уровень 96.0 %
Скорость извлечения 6.4 X
Качество трека 100.0 %
CRC теста 35491A63
CRC копии 35491A63
Точное извлечение (достоверность 1) [9F1B1E7B] (AR v2)
Копирование... OK
Трек 8
Имя файла C:\EAC\08. What Kind of Man are you for you (with the Raylettes).wav
Пиковый уровень 96.7 %
Скорость извлечения 6.6 X
Качество трека 100.0 %
CRC теста A42C2FE6
CRC копии A42C2FE6
Точное извлечение (достоверность 1) [C99B4F1A] (AR v2)
Копирование... OK
Трек 9
Имя файла C:\EAC\09. You be my Baby (with the Raylettes).wav
Пиковый уровень 97.2 %
Скорость извлечения 6.7 X
Качество трека 100.0 %
CRC теста EE1A47AF
CRC копии EE1A47AF
Точное извлечение (достоверность 1) [441B0360] (AR v2)
Копирование... OK
Трек 10
Имя файла C:\EAC\10. Rockouse Part 1 & 2.wav
Пиковый уровень 97.6 %
Скорость извлечения 7.4 X
Качество трека 100.0 %
CRC теста 44900429
CRC копии 44900429
Точное извлечение (достоверность 1) [B2EC0F84] (AR v2)
Копирование... OK
Трек 11
Имя файла C:\EAC\11. Alexander's Ragtime Band.wav
Пиковый уровень 96.9 %
Скорость извлечения 4.5 X
Качество трека 99.9 %
CRC теста FC69CE7E
CRC копии FC69CE7E
Точное извлечение (достоверность 1) [8CC63488] (AR v2)
Копирование... OK
Трек 12
Имя файла C:\EAC\12. Am I Blue.wav
Пиковый уровень 98.5 %
Скорость извлечения 7.8 X
Качество трека 100.0 %
CRC теста F34670E1
CRC копии F34670E1
Точное извлечение (достоверность 1) [A5A0DD5E] (AR v2)
Копирование... OK
Трек 13
Имя файла C:\EAC\13. Come Rain or Come Shine.wav
Пиковый уровень 98.3 %
Скорость извлечения 8.1 X
Качество трека 100.0 %
CRC теста 1291B151
CRC копии 1291B151
Точное извлечение (достоверность 1) [978C2FF3] (AR v2)
Копирование... OK
Трек 14
Имя файла C:\EAC\14. Don't let the Sun catch you cryin'.wav
Пиковый уровень 97.4 %
Скорость извлечения 8.3 X
Качество трека 100.0 %
CRC теста 999A1F33
CRC копии 999A1F33
Точное извлечение (достоверность 1) [8639312A] (AR v2)
Копирование... OK
Трек 15
Имя файла C:\EAC\15. It had to be you.wav
Пиковый уровень 96.8 %
Скорость извлечения 8.1 X
Качество трека 100.0 %
CRC теста 5FC06965
CRC копии 5FC06965
Точное извлечение (достоверность 1) [708F1CA5] (AR v2)
Копирование... OK
Трек 16
Имя файла C:\EAC\16. Jumpin'in the Morning.wav
Пиковый уровень 97.3 %
Скорость извлечения 8.3 X
Качество трека 100.0 %
CRC теста F0080502
CRC копии F0080502
Точное извлечение (достоверность 1) [4E26B216] (AR v2)
Копирование... OK
Трек 17
Имя файла C:\EAC\17. Just for a Thrill.wav
Пиковый уровень 97.0 %
Скорость извлечения 8.8 X
Качество трека 100.0 %
CRC теста 7BF433C7
CRC копии 7BF433C7
Точное извлечение (достоверность 1) [C058D4DE] (AR v2)
Копирование... OK
Трек 18
Имя файла C:\EAC\18. Let the good Times roll.wav
Пиковый уровень 97.1 %
Скорость извлечения 8.7 X
Качество трека 100.0 %
CRC теста 24091001
CRC копии 24091001
Точное извлечение (достоверность 1) [BC1259B9] (AR v2)
Копирование... OK
Все треки извлечены точно
Ошибок не произошло
Конец отчёта
==== Контрольная сумма отчёта E4877C41572622FA4B97E7D1357A414DFF163C08BA886C8DFC5E4FD83A27524E ====
 
Содержание индексной карты (.CUE)
REM GENRE Jazz
REM DATE 2010
REM DISCID F30D5112
REM COMMENT "ExactAudioCopy v1.0b3"
PERFORMER "Ray Charles"
TITLE "What'd I say"
FILE "01. What'd I say.wav" WAVE
TRACK 01 AUDIO
TITLE "What'd I say"
PERFORMER "Ray Charles"
FLAGS DCP
INDEX 01 00:00:00
FILE "02. I got a Woman.wav" WAVE
TRACK 02 AUDIO
TITLE "I got a Woman"
PERFORMER "Ray Charles"
FLAGS DCP
INDEX 01 00:00:00
FILE "03. Hallelujah I love her so.wav" WAVE
TRACK 03 AUDIO
TITLE "Hallelujah I love her so"
PERFORMER "Ray Charles"
FLAGS DCP
INDEX 01 00:00:00
FILE "04. My Bonnie (with the Raylettes).wav" WAVE
TRACK 04 AUDIO
TITLE "My Bonnie (with the Raylettes)"
PERFORMER "Ray Charles"
FLAGS DCP
INDEX 01 00:00:00
FILE "05. Roll with my Baby (with the Raylettes).wav" WAVE
TRACK 05 AUDIO
TITLE "Roll with my Baby (with the Raylettes)"
PERFORMER "Ray Charles"
FLAGS DCP
INDEX 01 00:00:00
FILE "06. Tell me how do you feel (with the Raylettes).wav" WAVE
TRACK 06 AUDIO
TITLE "Tell me how do you feel (with the Raylettes)"
PERFORMER "Ray Charles"
FLAGS DCP
INDEX 01 00:00:00
FILE "07. That's enough (with the Raylettes).wav" WAVE
TRACK 07 AUDIO
TITLE "That's enough (with the Raylettes)"
PERFORMER "Ray Charles"
FLAGS DCP
INDEX 01 00:00:00
FILE "08. What Kind of Man are you for you (with the Raylettes).wav" WAVE
TRACK 08 AUDIO
TITLE "What Kind of Man are you for you (with the Raylettes)"
PERFORMER "Ray Charles"
FLAGS DCP
INDEX 01 00:00:00
FILE "09. You be my Baby (with the Raylettes).wav" WAVE
TRACK 09 AUDIO
TITLE "You be my Baby (with the Raylettes)"
PERFORMER "Ray Charles"
FLAGS DCP
INDEX 01 00:00:00
FILE "10. Rockouse Part 1 & 2.wav" WAVE
TRACK 10 AUDIO
TITLE "Rockouse Part 1 & 2"
PERFORMER "Ray Charles"
FLAGS DCP
INDEX 01 00:00:00
FILE "11. Alexander's Ragtime Band.wav" WAVE
TRACK 11 AUDIO
TITLE "Alexander's Ragtime Band"
PERFORMER "Ray Charles"
FLAGS DCP
INDEX 01 00:00:00
FILE "12. Am I Blue.wav" WAVE
TRACK 12 AUDIO
TITLE "Am I Blue"
PERFORMER "Ray Charles"
FLAGS DCP
INDEX 01 00:00:00
FILE "13. Come Rain or Come Shine.wav" WAVE
TRACK 13 AUDIO
TITLE "Come Rain or Come Shine"
PERFORMER "Ray Charles"
FLAGS DCP
INDEX 01 00:00:00
FILE "14. Don't let the Sun catch you cryin'.wav" WAVE
TRACK 14 AUDIO
TITLE "Don't let the Sun catch you cryin'"
PERFORMER "Ray Charles"
FLAGS DCP
INDEX 01 00:00:00
FILE "15. It had to be you.wav" WAVE
TRACK 15 AUDIO
TITLE "It had to be you"
PERFORMER "Ray Charles"
FLAGS DCP
INDEX 01 00:00:00
FILE "16. Jumpin'in the Morning.wav" WAVE
TRACK 16 AUDIO
TITLE "Jumpin'in the Morning"
PERFORMER "Ray Charles"
FLAGS DCP
INDEX 01 00:00:00
FILE "17. Just for a Thrill.wav" WAVE
TRACK 17 AUDIO
TITLE "Just for a Thrill"
PERFORMER "Ray Charles"
FLAGS DCP
INDEX 01 00:00:00
FILE "18. Let the good Times roll.wav" WAVE
TRACK 18 AUDIO
TITLE "Let the good Times roll"
PERFORMER "Ray Charles"
FLAGS DCP
INDEX 01 00:00:00
Доп. информация: http://rateyourmusic.com/artist/ray_charles
Приватный:
Нет (DHT включён)
Размер:
305.75 Мб (320,597,412 байт) » файлов: 28
Участники:
0 раздают, 0 качают (0 участников всего)
Внешние участники:
1 раздают, 0 качают (1 участников всего) [ Обновить ]
Есть вопросы - пишите личное сообщение пользователю M0p94ok.
07:19
86
Нет комментариев. Ваш будет первым!