Поиск

(Soul) [CD] Chris Clark - The Motown Collection (2CD) - 2005, FLAC (image+.cue), lossless

(Soul) [CD] Chris Clark - The Motown Collection (2CD) - 2005, FLAC (image+.cue), lossless
Треклист:
Chris Clark - The Motown Collection (2CD)

Жанр: Soul
Носитель: CD
Год издания: 2005
Издатель (лейбл): Universal/Motown
Номер по каталогу: 981 956-4
Аудиокодек: FLAC (*.flac)
Тип рипа: image+.cue
Битрейт аудио: lossless
Продолжительность: 77:33 / 78:25
Rip by firepower
Наличие сканов в содержимом раздачи: да 
 
 
CD 1
Треклист:
01. I Want To Go Back There Again (2:39)
02. Love's Gone Bad (2:20)
03. Born To Love You Baby (2:24)
04. If You Should Walk Away (3:14)
05. Whisper You Love Me Boy (2:33)
06. Got To Get You Into My Life (2:25)
07. Day By Day Or Never (2:32)
08. From Head To Toe (2:42)
09. Do Right Baby Do Right (2:45)
10. Until You Love Someone (2:55)
11. Put Yourself In My Place (2:50)
12. Sweeter As The Days Go By (2:54)
13. C.C. Rider (3:44)
14. Spinning Wheel (3:56)
15. How About You (2:49)
16. Good Morning Starshine (3:46)
17. With A Little Help From My Friends (5:14)
18. One (4:14)
19. In The Ghetto (2:53)
20. Can I See You In The Morning (3:09)
21. You've Made Me So Very Happy (3:45)
22. Get Back (4:09)
23. Don't Be Too Long (2:31)
24. I Love You (2:28)
25. The Beginning Of The End (2:42)
 
 
Лог создания рипа
Exact Audio Copy V1.0 beta 2 from 29. April 2011
EAC extraction logfile from 13. May 2015, 11:35
Chris Clark / The Motown Collection, CD1
Used drive : LITE-ON LTR-52327S Adapter: 0 ID: 1
Read mode : Secure
Utilize accurate stream : Yes
Defeat audio cache : Yes
Make use of C2 pointers : No
Read offset correction : 6
Overread into Lead-In and Lead-Out : No
Fill up missing offset samples with silence : Yes
Delete leading and trailing silent blocks : No
Null samples used in CRC calculations : Yes
Used interface : Native Win32 interface for Win NT & 2000
Used output format : Internal WAV Routines
Sample format : 44.100 Hz; 16 Bit; Stereo
TOC of the extracted CD
Track | Start | Length | Start sector | End sector
---------------------------------------------------------
1 | 0:00.00 | 2:38.68 | 0 | 11917
2 | 2:38.68 | 2:20.04 | 11918 | 22421
3 | 4:58.72 | 2:23.71 | 22422 | 33217
4 | 7:22.68 | 3:14.28 | 33218 | 47795
5 | 10:37.21 | 2:33.34 | 47796 | 59304
6 | 13:10.55 | 2:25.32 | 59305 | 70211
7 | 15:36.12 | 2:31.65 | 70212 | 81601
8 | 18:08.02 | 2:42.03 | 81602 | 93754
9 | 20:50.05 | 2:45.19 | 93755 | 106148
10 | 23:35.24 | 2:54.40 | 106149 | 119238
11 | 26:29.64 | 2:49.62 | 119239 | 131975
12 | 29:19.51 | 2:53.61 | 131976 | 145011
13 | 32:13.37 | 3:43.45 | 145012 | 161781
14 | 35:57.07 | 3:55.41 | 161782 | 179447
15 | 39:52.48 | 2:49.36 | 179448 | 192158
16 | 42:42.09 | 3:45.40 | 192159 | 209073
17 | 46:27.49 | 5:14.01 | 209074 | 232624
18 | 51:41.50 | 4:14.22 | 232625 | 251696
19 | 55:55.72 | 2:53.12 | 251697 | 264683
20 | 58:49.09 | 3:09.25 | 264684 | 278883
21 | 61:58.34 | 3:45.16 | 278884 | 295774
22 | 65:43.50 | 4:08.63 | 295775 | 314437
23 | 69:52.38 | 2:30.50 | 314438 | 325737
24 | 72:23.13 | 2:28.03 | 325738 | 336840
25 | 74:51.16 | 2:42.17 | 336841 | 349007
Range status and errors
Selected range
Filename J:\My Rips\Chris Clark - The Motown Collection, CD1.wav
Peak level 100.0 %
Extraction speed 10.6 X
Range quality 100.0 %
Test CRC 34F74CA6
Copy CRC 34F74CA6
Copy OK
No errors occurred
AccurateRip summary
Track 1 accurately ripped (confidence 7) [683C51DB] (AR v2)
Track 2 accurately ripped (confidence 7) [4613E771] (AR v2)
Track 3 accurately ripped (confidence 7) [383D0DC1] (AR v2)
Track 4 accurately ripped (confidence 7) [1A79FCC0] (AR v2)
Track 5 accurately ripped (confidence 7) [9A4D8427] (AR v2)
Track 6 accurately ripped (confidence 7) [227789E0] (AR v2)
Track 7 accurately ripped (confidence 7) [A1FAC4FE] (AR v2)
Track 8 accurately ripped (confidence 7) [8CC7D3F7] (AR v2)
Track 9 accurately ripped (confidence 7) [60A553F4] (AR v2)
Track 10 accurately ripped (confidence 7) [AA5EF3C7] (AR v2)
Track 11 accurately ripped (confidence 7) [690615B1] (AR v2)
Track 12 accurately ripped (confidence 7) [8597D680] (AR v2)
Track 13 accurately ripped (confidence 7) [D9144797] (AR v2)
Track 14 accurately ripped (confidence 7) [3C11F307] (AR v2)
Track 15 accurately ripped (confidence 7) [B498EAB4] (AR v2)
Track 16 accurately ripped (confidence 7) [B1A6C3FB] (AR v2)
Track 17 accurately ripped (confidence 7) [40D5CBB0] (AR v2)
Track 18 accurately ripped (confidence 7) [92010F9E] (AR v2)
Track 19 accurately ripped (confidence 7) [CC23B401] (AR v2)
Track 20 accurately ripped (confidence 7) [8009E758] (AR v2)
Track 21 accurately ripped (confidence 7) [4CD8A7CE] (AR v2)
Track 22 accurately ripped (confidence 7) [CA5C5480] (AR v2)
Track 23 accurately ripped (confidence 7) [873195F0] (AR v2)
Track 24 accurately ripped (confidence 7) [D9F8A290] (AR v2)
Track 25 accurately ripped (confidence 6) [97E255ED] (AR v2)
All tracks accurately ripped
End of status report
==== Log checksum 693DC002CAA804192222A549BE96F2C52000C65D8F8827B9409BC7A21154A6A4 ====
 
Содержание индексной карты (.CUE)
REM GENRE Soul
REM DATE 2005
REM DISCID 6D122D19
REM COMMENT "ExactAudioCopy v1.0b2"
PERFORMER "Chris Clark"
TITLE "The Motown Collection, CD1"
FILE "Chris Clark - The Motown Collection, CD1.flac" WAVE
TRACK 01 AUDIO
TITLE "I Want To Go Back There Again"
PERFORMER "Chris Clark"
INDEX 01 00:00:00
TRACK 02 AUDIO
TITLE "Love's Gone Bad"
PERFORMER "Chris Clark"
INDEX 00 02:37:10
INDEX 01 02:38:68
TRACK 03 AUDIO
TITLE "Born To Love You Baby"
PERFORMER "Chris Clark"
INDEX 00 04:57:14
INDEX 01 04:58:72
TRACK 04 AUDIO
TITLE "If You Should Walk Away"
PERFORMER "Chris Clark"
INDEX 00 07:21:10
INDEX 01 07:22:68
TRACK 05 AUDIO
TITLE "Whisper You Love Me Boy"
PERFORMER "Chris Clark"
INDEX 00 10:35:38
INDEX 01 10:37:21
TRACK 06 AUDIO
TITLE "Got To Get You Into My Life"
PERFORMER "Chris Clark"
INDEX 00 13:08:72
INDEX 01 13:10:55
TRACK 07 AUDIO
TITLE "Day By Day Or Never"
PERFORMER "Chris Clark"
INDEX 00 15:34:29
INDEX 01 15:36:12
TRACK 08 AUDIO
TITLE "From Head To Toe"
PERFORMER "Chris Clark"
INDEX 00 18:06:19
INDEX 01 18:08:02
TRACK 09 AUDIO
TITLE "Do Right Baby Do Right"
PERFORMER "Chris Clark"
INDEX 00 20:48:22
INDEX 01 20:50:05
TRACK 10 AUDIO
TITLE "Until You Love Someone"
PERFORMER "Chris Clark"
INDEX 00 23:33:42
INDEX 01 23:35:24
TRACK 11 AUDIO
TITLE "Put Yourself In My Place"
PERFORMER "Chris Clark"
INDEX 00 26:28:06
INDEX 01 26:29:64
TRACK 12 AUDIO
TITLE "Sweeter As The Days Go By"
PERFORMER "Chris Clark"
INDEX 00 29:17:68
INDEX 01 29:19:51
TRACK 13 AUDIO
TITLE "C.C. Rider"
PERFORMER "Chris Clark"
INDEX 00 32:11:54
INDEX 01 32:13:37
TRACK 14 AUDIO
TITLE "Spinning Wheel"
PERFORMER "Chris Clark"
INDEX 00 35:55:24
INDEX 01 35:57:07
TRACK 15 AUDIO
TITLE "How About You"
PERFORMER "Chris Clark"
INDEX 00 39:50:65
INDEX 01 39:52:48
TRACK 16 AUDIO
TITLE "Good Morning Starshine"
PERFORMER "Chris Clark"
INDEX 00 42:40:26
INDEX 01 42:42:09
TRACK 17 AUDIO
TITLE "With A Little Help From My Friends"
PERFORMER "Chris Clark"
INDEX 00 46:25:66
INDEX 01 46:27:49
TRACK 18 AUDIO
TITLE "One"
PERFORMER "Chris Clark"
INDEX 00 51:39:67
INDEX 01 51:41:50
TRACK 19 AUDIO
TITLE "In The Ghetto"
PERFORMER "Chris Clark"
INDEX 00 55:54:14
INDEX 01 55:55:72
TRACK 20 AUDIO
TITLE "Can I See You In The Morning"
PERFORMER "Chris Clark"
INDEX 00 58:47:26
INDEX 01 58:49:09
TRACK 21 AUDIO
TITLE "You've Made Me So Very Happy"
PERFORMER "Chris Clark"
INDEX 00 61:56:51
INDEX 01 61:58:34
TRACK 22 AUDIO
TITLE "Get Back"
PERFORMER "Chris Clark"
INDEX 00 65:41:67
INDEX 01 65:43:50
TRACK 23 AUDIO
TITLE "Don't Be Too Long"
PERFORMER "Chris Clark"
INDEX 00 69:50:55
INDEX 01 69:52:38
TRACK 24 AUDIO
TITLE "I Love You"
PERFORMER "Chris Clark"
INDEX 00 72:21:30
INDEX 01 72:23:13
TRACK 25 AUDIO
TITLE "The Beginning Of The End"
PERFORMER "Chris Clark"
INDEX 00 74:49:33
INDEX 01 74:51:16
 
CD 2
Треклист:
01. Ask Any Girl (2:45)
02. Everything Is Good About You (3:07)
03. Try It Baby (2:52)
04. I Like Everything About You (2:59)
05. Take Me In Your Arms (Rock Me A Little While) (3:04)
06. In The Neighbourhood (2:43)
07. Yester-Me Yester-You Yesterday (2:54)
08. I Just Can't Forget Him (2:42)
09. If You Let Me Baby (3:19)
10. Your Wonderful Love (3:15)
11. Do Like I Do (3:02)
12. Let Me Go (2:30)
13. Mr. Maestro Play A Blue Sonata (3:13)
14. Soft Touch (2:30)
15. Crying In The Chapel (3:21)
16. He's Got The Whole World In His Hands (3:11)
17. It Must Be Love Baby (3:08)
18. Stay Away From Temptation (2:28)
19. He's Good For Me (2:45)
20. I Just Wanna Be Lovin' You (3:01)
21. Bad Seed (2:59)
22. Something's Wrong (2:48)
23. Mighty Good Lovin' (2:32)
24. Everything's Right Everything's Wrong (2:36)
25. What You Doing (8:43)
 
 
Лог создания рипа
Exact Audio Copy V1.0 beta 2 from 29. April 2011
EAC extraction logfile from 13. May 2015, 12:02
Chris Clark / The Motown Collection, CD2
Used drive : LITE-ON LTR-52327S Adapter: 0 ID: 1
Read mode : Secure
Utilize accurate stream : Yes
Defeat audio cache : Yes
Make use of C2 pointers : No
Read offset correction : 6
Overread into Lead-In and Lead-Out : No
Fill up missing offset samples with silence : Yes
Delete leading and trailing silent blocks : No
Null samples used in CRC calculations : Yes
Used interface : Native Win32 interface for Win NT & 2000
Used output format : Internal WAV Routines
Sample format : 44.100 Hz; 16 Bit; Stereo
TOC of the extracted CD
Track | Start | Length | Start sector | End sector
---------------------------------------------------------
1 | 0:00.00 | 2:45.29 | 0 | 12403
2 | 2:45.29 | 3:07.04 | 12404 | 26432
3 | 5:52.33 | 2:52.29 | 26433 | 39361
4 | 8:44.62 | 2:58.62 | 39362 | 52773
5 | 11:43.49 | 3:04.13 | 52774 | 66586
6 | 14:47.62 | 2:43.29 | 66587 | 78840
7 | 17:31.16 | 2:53.72 | 78841 | 91887
8 | 20:25.13 | 2:41.57 | 91888 | 104019
9 | 23:06.70 | 3:18.38 | 104020 | 118907
10 | 26:25.33 | 3:14.39 | 118908 | 133496
11 | 29:39.72 | 3:02.07 | 133497 | 147153
12 | 32:42.04 | 2:29.39 | 147154 | 158367
13 | 35:11.43 | 3:12.40 | 158368 | 172807
14 | 38:24.08 | 2:29.64 | 172808 | 184046
15 | 40:53.72 | 3:21.16 | 184047 | 199137
16 | 44:15.13 | 3:10.70 | 199138 | 213457
17 | 47:26.08 | 3:08.08 | 213458 | 227565
18 | 50:34.16 | 2:27.38 | 227566 | 238628
19 | 53:01.54 | 2:45.29 | 238629 | 251032
20 | 55:47.08 | 3:00.46 | 251033 | 264578
21 | 58:47.54 | 2:58.42 | 264579 | 277970
22 | 61:46.21 | 2:47.70 | 277971 | 290565
23 | 64:34.16 | 2:31.39 | 290566 | 301929
24 | 67:05.55 | 2:35.63 | 301930 | 313617
25 | 69:41.43 | 8:43.32 | 313618 | 352874
Range status and errors
Selected range
Filename J:\My Rips\Chris Clark - The Motown Collection, CD2.wav
Peak level 100.0 %
Extraction speed 7.1 X
Range quality 100.0 %
Test CRC 564148C4
Copy CRC 564148C4
Copy OK
No errors occurred
AccurateRip summary
Track 1 accurately ripped (confidence 7) [37B7C425] (AR v2)
Track 2 accurately ripped (confidence 7) [7112D5AF] (AR v2)
Track 3 accurately ripped (confidence 7) [531B2056] (AR v2)
Track 4 accurately ripped (confidence 7) [091ED162] (AR v2)
Track 5 accurately ripped (confidence 7) [83552936] (AR v2)
Track 6 accurately ripped (confidence 7) [09E8B203] (AR v2)
Track 7 accurately ripped (confidence 7) [3262A351] (AR v2)
Track 8 accurately ripped (confidence 7) [9D97B13A] (AR v2)
Track 9 accurately ripped (confidence 7) [A6E7ED56] (AR v2)
Track 10 accurately ripped (confidence 7) [4B56EBEF] (AR v2)
Track 11 accurately ripped (confidence 7) [0FC3908F] (AR v2)
Track 12 accurately ripped (confidence 7) [1A37F392] (AR v2)
Track 13 accurately ripped (confidence 7) [42D105CD] (AR v2)
Track 14 accurately ripped (confidence 7) [C077FBC2] (AR v2)
Track 15 accurately ripped (confidence 7) [B493F355] (AR v2)
Track 16 accurately ripped (confidence 7) [0A1E5954] (AR v2)
Track 17 accurately ripped (confidence 7) [4ED528B0] (AR v2)
Track 18 accurately ripped (confidence 7) [1F5B2A1B] (AR v2)
Track 19 accurately ripped (confidence 7) [8243F327] (AR v2)
Track 20 accurately ripped (confidence 7) [9062A067] (AR v2)
Track 21 accurately ripped (confidence 7) [AC4FAADE] (AR v2)
Track 22 accurately ripped (confidence 7) [2F28CD4D] (AR v2)
Track 23 accurately ripped (confidence 7) [60CAAD68] (AR v2)
Track 24 accurately ripped (confidence 7) [581030AD] (AR v2)
Track 25 accurately ripped (confidence 7) [D629BE58] (AR v2)
All tracks accurately ripped
End of status report
==== Log checksum C1DD14DDFE797708C6F3697220BFEE15160D3E6A2195487EF57F819627B8725D ====
 
Содержание индексной карты (.CUE)
REM GENRE Soul
REM DATE 2005
REM DISCID 86126119
REM COMMENT "ExactAudioCopy v1.0b2"
PERFORMER "Chris Clark"
TITLE "The Motown Collection, CD2"
FILE "Chris Clark - The Motown Collection, CD2.flac" WAVE
TRACK 01 AUDIO
TITLE "Ask Any Girl"
PERFORMER "Chris Clark"
INDEX 01 00:00:00
TRACK 02 AUDIO
TITLE "Everything Is Good About You"
PERFORMER "Chris Clark"
INDEX 00 02:43:46
INDEX 01 02:45:29
TRACK 03 AUDIO
TITLE "Try It Baby"
PERFORMER "Chris Clark"
INDEX 00 05:50:50
INDEX 01 05:52:33
TRACK 04 AUDIO
TITLE "I Like Everything About You"
PERFORMER "Chris Clark"
INDEX 00 08:43:04
INDEX 01 08:44:62
TRACK 05 AUDIO
TITLE "Take Me In Your Arms (Rock Me A Little While)"
PERFORMER "Chris Clark"
INDEX 00 11:41:66
INDEX 01 11:43:49
TRACK 06 AUDIO
TITLE "In The Neighbourhood"
PERFORMER "Chris Clark"
INDEX 00 14:46:04
INDEX 01 14:47:62
TRACK 07 AUDIO
TITLE "Yester-Me Yester-You Yesterday"
PERFORMER "Chris Clark"
INDEX 00 17:29:33
INDEX 01 17:31:16
TRACK 08 AUDIO
TITLE "I Just Can't Forget Him"
PERFORMER "Chris Clark"
INDEX 00 20:23:30
INDEX 01 20:25:13
TRACK 09 AUDIO
TITLE "If You Let Me Baby"
PERFORMER "Chris Clark"
INDEX 00 23:05:12
INDEX 01 23:06:70
TRACK 10 AUDIO
TITLE "Your Wonderful Love"
PERFORMER "Chris Clark"
INDEX 00 26:23:50
INDEX 01 26:25:33
TRACK 11 AUDIO
TITLE "Do Like I Do"
PERFORMER "Chris Clark"
INDEX 00 29:38:14
INDEX 01 29:39:72
TRACK 12 AUDIO
TITLE "Let Me Go"
PERFORMER "Chris Clark"
INDEX 00 32:40:21
INDEX 01 32:42:04
TRACK 13 AUDIO
TITLE "Mr. Maestro Play A Blue Sonata"
PERFORMER "Chris Clark"
INDEX 00 35:09:60
INDEX 01 35:11:43
TRACK 14 AUDIO
TITLE "Soft Touch"
PERFORMER "Chris Clark"
INDEX 00 38:22:25
INDEX 01 38:24:08
TRACK 15 AUDIO
TITLE "Crying In The Chapel"
PERFORMER "Chris Clark"
INDEX 00 40:52:14
INDEX 01 40:53:72
TRACK 16 AUDIO
TITLE "He's Got The Whole World In His Hands"
PERFORMER "Chris Clark"
INDEX 00 44:13:30
INDEX 01 44:15:13
TRACK 17 AUDIO
TITLE "It Must Be Love Baby"
PERFORMER "Chris Clark"
INDEX 00 47:24:25
INDEX 01 47:26:08
TRACK 18 AUDIO
TITLE "Stay Away From Temptation"
PERFORMER "Chris Clark"
INDEX 00 50:32:33
INDEX 01 50:34:16
TRACK 19 AUDIO
TITLE "He's Good For Me"
PERFORMER "Chris Clark"
INDEX 00 52:59:71
INDEX 01 53:01:54
TRACK 20 AUDIO
TITLE "I Just Wanna Be Lovin' You"
PERFORMER "Chris Clark"
INDEX 00 55:45:25
INDEX 01 55:47:08
TRACK 21 AUDIO
TITLE "Bad Seed"
PERFORMER "Chris Clark"
INDEX 00 58:45:71
INDEX 01 58:47:54
TRACK 22 AUDIO
TITLE "Something's Wrong"
PERFORMER "Chris Clark"
INDEX 00 61:44:38
INDEX 01 61:46:21
TRACK 23 AUDIO
TITLE "Mighty Good Lovin'"
PERFORMER "Chris Clark"
INDEX 00 64:32:33
INDEX 01 64:34:16
TRACK 24 AUDIO
TITLE "Everything's Right Everything's Wrong"
PERFORMER "Chris Clark"
INDEX 00 67:03:72
INDEX 01 67:05:55
TRACK 25 AUDIO
TITLE "What You Doing"
PERFORMER "Chris Clark"
INDEX 00 69:39:60
INDEX 01 69:41:43
Приватный:
Нет (DHT включён)
Размер:
1.01 Гб (1,088,785,689 байт) » файлов: 20
Участники:
0 раздают, 0 качают (0 участников всего)
Внешние участники:
2 раздают, 1 качают (3 участников всего) [ Обновить ]
No seeders - write a personal message to user M0p94ok. Нет сидеров - пишите личное сообщение пользователю M0p94ok.
07:18
106
Нет комментариев. Ваш будет первым!