Поиск

(Soul, R&B, Funk) [CD] Ben E. King - Save The Last Dance For Me (USA EMI-MANHATTAN RECORDS) - 1987, FLAC (image+.cue), lossless

(Soul, R&B, Funk) [CD] Ben E. King - Save The Last Dance For Me (USA EMI-MANHATTAN RECORDS) - 1987, FLAC (image+.cue), lossless
Треклист:
Ben E. King / Save The Last Dance For Me (USA EMI-MANHATTAN RECORDS)
Жанр: Soul, R&B, Funk
Носитель: CD
Страна-производитель диска (релиза): USA
Год издания: 1987
Издатель (лейбл): EMI-MANHATTAN RECORDS
Номер по каталогу: CDP 46904 2
Страна исполнителя (группы): USA
Аудиокодек: FLAC (*.flac)
Тип рипа: image+.cue
Битрейт аудио: lossless
Продолжительность: 00:37:12
Источник (релизер): Личный диск
Наличие сканов в содержимом раздачи: да
Треклист:
[01] Save The Last Dance For Me [04:15]
[02] Because Of Last Night [05:09]
[03] Lover's Question [03:48]
[04] Whatever This Is (It Ain't True Love) [04:26]
[05] Halfway To Paradise [03:03]
[06] Let A Man Do It For Ya [04:43]
[07] I Cry For You [04:04]
[08] Test Of Time [04:14]
[09] Two Lovers [03:35]
 
Лог создания рипа
Exact Audio Copy V1.0 beta 6 from 9. April 2015
EAC extraction logfile from 30. April 2015, 15:08
Ben E. King / Save The Last Dance For Me
Used drive : ASUS SDRW-08D1S-U Adapter: 1 ID: 1
Read mode : Secure
Utilize accurate stream : Yes
Defeat audio cache : Yes
Make use of C2 pointers : No
Read offset correction : 667
Overread into Lead-In and Lead-Out : No
Fill up missing offset samples with silence : Yes
Delete leading and trailing silent blocks : No
Null samples used in CRC calculations : Yes
Used interface : Native Win32 interface for Win NT & 2000
Used output format : User Defined Encoder
Selected bitrate : 128 kBit/s
Quality : High
Add ID3 tag : No
Command line compressor : C:\Program Files (x86)\Exact Audio Copy\Flac\flac.exe
Additional command line options : -V -8 -T "Date=%year%" -T "Genre=%genre%" %source%
TOC of the extracted CD
Track | Start | Length | Start sector | End sector
---------------------------------------------------------
1 | 0:00.32 | 4:14.28 | 32 | 19109
2 | 4:14.60 | 5:08.47 | 19110 | 42256
3 | 9:23.32 | 3:47.35 | 42257 | 59316
4 | 13:10.67 | 4:25.05 | 59317 | 79196
5 | 17:35.72 | 3:02.38 | 79197 | 92884
6 | 20:38.35 | 4:42.15 | 92885 | 114049
7 | 25:20.50 | 4:03.42 | 114050 | 132316
8 | 29:24.17 | 4:13.30 | 132317 | 151321
9 | 33:37.47 | 3:34.45 | 151322 | 167416
Range status and errors
Selected range
Filename C:\Users\Олег\Desktop\Ben E. King\Ben E. King - Save The Last Dance For Me.wav
Peak level 100.0 %
Extraction speed 3.6 X
Range quality 100.0 %
Test CRC B6189DBB
Copy CRC B6189DBB
Copy OK
No errors occurred
AccurateRip summary
Track 1 accurately ripped (confidence 1) [8C4556CC] (AR v2)
Track 2 accurately ripped (confidence 1) [D9D8BCFF] (AR v1)
Track 3 accurately ripped (confidence 1) [74D72FE6] (AR v1)
Track 4 accurately ripped (confidence 1) [5F7255A6] (AR v1)
Track 5 accurately ripped (confidence 1) [E6A9FB5D] (AR v2)
Track 6 accurately ripped (confidence 1) [26A17083] (AR v1)
Track 7 accurately ripped (confidence 1) [D1998A65] (AR v1)
Track 8 accurately ripped (confidence 1) [F347316F] (AR v1)
Track 9 accurately ripped (confidence 1) [4702DCB6] (AR v1)
All tracks accurately ripped
End of status report
---- CUETools DB Plugin V2.1.6
[CTDB TOCID: oupIXzO7FczeGWmFFIbaeVBZm0k-] disk not present in database
Submit result: oupIXzO7FczeGWmFFIbaeVBZm0k- has been uploaded
==== Log checksum 21FF7D7ECEAD738D5399B0487FA4F371E6ECE3B690ED60AE60B6552013E571E0 ====
 
Содержание индексной карты (.CUE)
REM GENRE Soul
REM DATE 1987
REM DISCID 6F08B809
REM COMMENT "ExactAudioCopy v1.0b6"
PERFORMER "Ben E. King"
TITLE "Save The Last Dance For Me"
FILE "Ben E. King - Save The Last Dance For Me.flac" WAVE
TRACK 01 AUDIO
TITLE "Save The Last Dance For Me"
PERFORMER "Ben E. King"
INDEX 00 00:00:00
INDEX 01 00:00:32
TRACK 02 AUDIO
TITLE "Because Of Last Night"
PERFORMER "Ben E. King"
INDEX 00 04:13:40
INDEX 01 04:14:60
TRACK 03 AUDIO
TITLE "Lover's Question"
PERFORMER "Ben E. King"
INDEX 00 09:21:65
INDEX 01 09:23:32
TRACK 04 AUDIO
TITLE "Whatever This Is (It Ain't True Love)"
PERFORMER "Ben E. King"
INDEX 00 13:09:37
INDEX 01 13:10:67
TRACK 05 AUDIO
TITLE "Halfway To Paradise"
PERFORMER "Ben E. King"
INDEX 00 17:35:10
INDEX 01 17:35:72
TRACK 06 AUDIO
TITLE "Let A Man Do It For Ya"
PERFORMER "Ben E. King"
INDEX 00 20:37:30
INDEX 01 20:38:35
TRACK 07 AUDIO
TITLE "I Cry For You"
PERFORMER "Ben E. King"
INDEX 00 25:19:27
INDEX 01 25:20:50
TRACK 08 AUDIO
TITLE "Test Of Time"
PERFORMER "Ben E. King"
INDEX 00 29:23:15
INDEX 01 29:24:17
TRACK 09 AUDIO
TITLE "Two Lovers"
PERFORMER "Ben E. King"
INDEX 00 33:36:05
INDEX 01 33:37:47
Другие мои раздачи с гостевым участием Mark Knopfler
См. "Мои раздачи"
Приватный:
Нет (DHT включён)
Размер:
229.18 Мб (240,307,930 байт) » файлов: 12
Участники:
0 раздают, 0 качают (0 участников всего)
Внешние участники:
1 раздают, 0 качают (1 участников всего) [ Обновить ]
Есть вопросы - пишите личное сообщение пользователю M0p94ok.
05:53
75
Нет комментариев. Ваш будет первым!