Поиск

(Jazz-Funk) [CD] Uncle Funkenstein - Together Again - 1983 (2008), FLAC (tracks), lossless

(Jazz-Funk) [CD] Uncle Funkenstein - Together Again - 1983 (2008), FLAC (tracks), lossless
Треклист:
Uncle Funkenstein - Together Again
Жанр: Jazz-Funk
Носитель: CD
Страна-производитель диска (релиза): Великобритания
Год издания: 1983 (2008)
Издатель (лейбл): Jazzman
Номер по каталогу: JMANCD 023
Страна исполнителя (группы): США
Аудиокодек: FLAC (*.flac)
Тип рипа: tracks
Битрейт аудио: lossless
Продолжительность: 61:25
Источник (релизер): spleener (what)
Наличие сканов в содержимом раздачи: нет
Треклист:
01. Uncle Funkenstein (8:36)
02. Uncle Funkenstein (pt. II) (5:45)
03. Uncle Funkenstein (cont.) (14:35)
04. Together Again (9:02)
05. Blue Robe (8:11)
06. Where Does Life Come From? (3:11)
07. Rock My Cradle (3:56)
08. Third Bosinova (4:52)
09. 500 Finished (3:17)
 
Лог создания рипа
X Lossless Decoder version 20091230 (115.2)
XLD extraction logfile from 2010-01-13 08:24:05 +0000
Uncle Funkenstein / Together Again
Used drive : OPTIARC DVD RW AD-7170A (revision 1.NC)
Use cdparanoia mode : YES (CDParanoia III 10.2 engine)
Disable audio cache : OK for the drive with cache less than 2750KB
Make use of C2 pointers : NO
Read offset correction : 48
Max retry count : 100
TOC of the extracted CD
Track | Start | Length | Start sector | End sector
---------------------------------------------------------
1 | 00:00:00 | 08:36:31 | 0 | 38730
2 | 08:36:31 | 05:45:07 | 38731 | 64612
3 | 14:21:38 | 14:35:07 | 64613 | 130244
4 | 28:56:45 | 09:02:36 | 130245 | 170930
5 | 37:59:06 | 08:11:33 | 170931 | 207788
6 | 46:10:39 | 03:10:58 | 207789 | 222096
7 | 49:21:22 | 03:55:70 | 222097 | 239791
8 | 53:17:17 | 04:51:56 | 239792 | 261672
9 | 58:08:73 | 03:17:20 | 261673 | 276467
All Tracks
Album gain : -0.52 dB
Peak : 0.965698
Track 01
Filename : /Users/andretomlin/Music/CD rips/Uncle Funkenstein - Together Again/01 Uncle Funkenstein - Uncle Funkenstein.flac
Pre-gap length : 00:02:00
Track gain : 0.84 dB
Peak : 0.709900
CRC32 hash (test run) : 7BB66C85
CRC32 hash : 7BB66C85
CRC32 hash (skip zero) : 7BBBC632
AccurateRip signature : 79AB6A01
->Track not present in AccurateRip database.
Statistics
Read error : 0
Skipped (treated as error) : 0
Edge jitter error (maybe fixed) : 0
Atom jitter error (maybe fixed) : 0
Drift error (maybe fixed) : 0
Dropped bytes error (maybe fixed) : 0
Duplicated bytes error (maybe fixed) : 0
Inconsistency in error sectors : 0
Track 02
Filename : /Users/andretomlin/Music/CD rips/Uncle Funkenstein - Together Again/02 Uncle Funkenstein - Uncle Funkenstein (pt. II).flac
Track gain : 0.99 dB
Peak : 0.743225
CRC32 hash (test run) : 7851A825
CRC32 hash : 7851A825
CRC32 hash (skip zero) : 02B4E6EF
AccurateRip signature : 1D4037A0
->Track not present in AccurateRip database.
Statistics
Read error : 0
Skipped (treated as error) : 0
Edge jitter error (maybe fixed) : 0
Atom jitter error (maybe fixed) : 0
Drift error (maybe fixed) : 0
Dropped bytes error (maybe fixed) : 0
Duplicated bytes error (maybe fixed) : 0
Inconsistency in error sectors : 0
Track 03
Filename : /Users/andretomlin/Music/CD rips/Uncle Funkenstein - Together Again/03 Uncle Funkenstein - Uncle Funkenstein (cont.).flac
Track gain : -0.75 dB
Peak : 0.960083
CRC32 hash (test run) : 62A924B1
CRC32 hash : 62A924B1
CRC32 hash (skip zero) : 40403AAE
AccurateRip signature : 2CE46484
->Track not present in AccurateRip database.
Statistics
Read error : 0
Skipped (treated as error) : 0
Edge jitter error (maybe fixed) : 0
Atom jitter error (maybe fixed) : 70
Drift error (maybe fixed) : 0
Dropped bytes error (maybe fixed) : 0
Duplicated bytes error (maybe fixed) : 0
Inconsistency in error sectors : 0
Track 04
Filename : /Users/andretomlin/Music/CD rips/Uncle Funkenstein - Together Again/04 Uncle Funkenstein - Together Again.flac
Track gain : -0.95 dB
Peak : 0.814209
CRC32 hash (test run) : 8A40BBDC
CRC32 hash : 8A40BBDC
CRC32 hash (skip zero) : 3552760C
AccurateRip signature : 5BEF0EBB
->Track not present in AccurateRip database.
Statistics
Read error : 0
Skipped (treated as error) : 0
Edge jitter error (maybe fixed) : 0
Atom jitter error (maybe fixed) : 0
Drift error (maybe fixed) : 0
Dropped bytes error (maybe fixed) : 0
Duplicated bytes error (maybe fixed) : 0
Inconsistency in error sectors : 0
Track 05
Filename : /Users/andretomlin/Music/CD rips/Uncle Funkenstein - Together Again/05 Uncle Funkenstein - Blue Robe.flac
Track gain : -0.56 dB
Peak : 0.965546
CRC32 hash (test run) : AB08A6E7
CRC32 hash : AB08A6E7
CRC32 hash (skip zero) : ACDED5E3
AccurateRip signature : 12C6810E
->Track not present in AccurateRip database.
Statistics
Read error : 0
Skipped (treated as error) : 0
Edge jitter error (maybe fixed) : 0
Atom jitter error (maybe fixed) : 0
Drift error (maybe fixed) : 0
Dropped bytes error (maybe fixed) : 0
Duplicated bytes error (maybe fixed) : 0
Inconsistency in error sectors : 0
Track 06
Filename : /Users/andretomlin/Music/CD rips/Uncle Funkenstein - Together Again/06 Uncle Funkenstein - Where Does Life Come From?.flac
Track gain : 0.38 dB
Peak : 0.964874
CRC32 hash (test run) : 45C45C67
CRC32 hash : 45C45C67
CRC32 hash (skip zero) : 6FA8FEEA
AccurateRip signature : 12DA633F
->Track not present in AccurateRip database.
Statistics
Read error : 0
Skipped (treated as error) : 0
Edge jitter error (maybe fixed) : 0
Atom jitter error (maybe fixed) : 0
Drift error (maybe fixed) : 0
Dropped bytes error (maybe fixed) : 0
Duplicated bytes error (maybe fixed) : 0
Inconsistency in error sectors : 0
Track 07
Filename : /Users/andretomlin/Music/CD rips/Uncle Funkenstein - Together Again/07 Uncle Funkenstein - Rock My Cradle.flac
Track gain : -1.47 dB
Peak : 0.959961
CRC32 hash (test run) : 4A5D9E38
CRC32 hash : 4A5D9E38
CRC32 hash (skip zero) : 3CFA54BA
AccurateRip signature : 76E6DB6B
->Track not present in AccurateRip database.
Statistics
Read error : 0
Skipped (treated as error) : 0
Edge jitter error (maybe fixed) : 0
Atom jitter error (maybe fixed) : 0
Drift error (maybe fixed) : 0
Dropped bytes error (maybe fixed) : 0
Duplicated bytes error (maybe fixed) : 0
Inconsistency in error sectors : 0
Track 08
Filename : /Users/andretomlin/Music/CD rips/Uncle Funkenstein - Together Again/08 Uncle Funkenstein - Third Bosinova.flac
Track gain : -1.77 dB
Peak : 0.965698
CRC32 hash (test run) : 6489B189
CRC32 hash : 6489B189
CRC32 hash (skip zero) : 6E91E027
AccurateRip signature : 615B3737
->Track not present in AccurateRip database.
Statistics
Read error : 0
Skipped (treated as error) : 0
Edge jitter error (maybe fixed) : 0
Atom jitter error (maybe fixed) : 0
Drift error (maybe fixed) : 0
Dropped bytes error (maybe fixed) : 0
Duplicated bytes error (maybe fixed) : 0
Inconsistency in error sectors : 0
Track 09
Filename : /Users/andretomlin/Music/CD rips/Uncle Funkenstein - Together Again/09 Uncle Funkenstein - 500 Finished.flac
Track gain : 0.52 dB
Peak : 0.745056
CRC32 hash (test run) : 5198CC12
CRC32 hash : 5198CC12
CRC32 hash (skip zero) : 72A9FA5F
AccurateRip signature : 5FC92D89
->Track not present in AccurateRip database.
Statistics
Read error : 0
Skipped (treated as error) : 0
Edge jitter error (maybe fixed) : 0
Atom jitter error (maybe fixed) : 0
Drift error (maybe fixed) : 0
Dropped bytes error (maybe fixed) : 0
Duplicated bytes error (maybe fixed) : 0
Inconsistency in error sectors : 0
No errors occurred
End of status report
 
Лог проверки качества
-----------------------
DON'T MODIFY THIS FILE
-----------------------
PERFORMER: auCDtect Task Manager, ver. 1.6.0 RC1 build 1.6.0.1
Copyright (c) 2008-2010 y-soft. All rights reserved
http://y-soft.org
ANALYZER: auCDtect: CD records authenticity detector, version 0.8.2
Copyright (c) 2004 Oleg Berngardt. All rights reserved.
Copyright (c) 2004 Alexander Djourik. All rights reserved.
FILE: 09 - 500 Finished.flac
Size: 17465904 Hash: AC71A0B7806EAAD50AACAC19786F0A5D Accuracy: -m0
Conclusion: CDDA 100%
Signature: ED2C3AD8C7308A93E5029B32121BD63433865219
FILE: 08 - Third Bosinova.flac
Size: 27937509 Hash: EF4DAFAFF9F14F866381659BB96D0634 Accuracy: -m0
Conclusion: CDDA 100%
Signature: 44E47E77EAC768020979A181C898288F2DE20ED7
FILE: 07 - Rock My Cradle.flac
Size: 21701738 Hash: 23E55DCC369D242497CD33A9FC6860FE Accuracy: -m0
Conclusion: CDDA 100%
Signature: A89038032EA2C03CD499CCF81A216C3D0B9315BF
FILE: 06 - Where Does Life Come From.flac
Size: 16637885 Hash: 1BC26179D3491A4A2B9F446D4B584018 Accuracy: -m0
Conclusion: CDDA 100%
Signature: EC072634CA30FD907FC94AD6B41FABA371BC5D94
FILE: 05 - Blue Robe.flac
Size: 51520862 Hash: D1BBE96E32F655EA19B59E349F3E6F07 Accuracy: -m0
Conclusion: CDDA 100%
Signature: DEC2717DC5B0A1F3AE6B76AE64D9F09E2F8B31B8
FILE: 04 - Together Again.flac
Size: 58621768 Hash: C1D3079385260750060CE95C7449DCC1 Accuracy: -m0
Conclusion: CDDA 100%
Signature: A9F57467BB9C367F2F2C4574671D5036554FDB95
FILE: 03 - Uncle Funkenstein (cont.).flac
Size: 100665277 Hash: 86CD824446C21F6CA069B65A1A9028E4 Accuracy: -m0
Conclusion: CDDA 100%
Signature: 445B3FFC27526E9251395C00458F0B493F3C6838
FILE: 02 - Uncle Funkenstein (pt. II).flac
Size: 37318468 Hash: 9ECCECFA06067868897706795BDA4E1B Accuracy: -m0
Conclusion: CDDA 100%
Signature: 6B284508F190768FA3D7933281380BDA79E7E79F
FILE: 01 - Uncle Funkenstein.flac
Size: 56294099 Hash: BE997297FC08A3EE8A79C9FEC34B620A Accuracy: -m0
Conclusion: CDDA 100%
Signature: 6A0ED51AE500369CFE4A2A6859B4938E25E53095
 
Об альбоме (сборнике)
This is the first volume in Jazzman's Holy Grail series, including the rarest and most coveted soul, funk and jazz LPs ever released. And that's what Uncle Funkenstein is all about. Never before on eBay and impossible to find, this is an ultra-rare LP from1983 that funk collectors talk about but never see. One of the ultimate private-press funk/jazz LPs, with just a handful of known copies. The original album bears all the hallmarks of a local, private press album -- black and white budget cover, home-made "conceived on a kitchen table" sleeve design, self-produced and on a shoe-string budget. Some of these kinds of records are over-hyped and have all kinds of amazing things said about them -- only for the MUSIC itself to disappoint. Not so with Uncle Funkenstein -- you'll know that from the moment you hit track 1 and the awesome bass blows you away. Horn-driven, piano-smattered classic jazz with shakers full of big-hipped funk. All songs fully licensed, never before reissued, and restored from the original sources.
 
Состав
Russell Webster - flute, vocals
Clifford Ratliff - trumpet
Claude Sifferlen - piano
Melvin Rhyne - organ
Alonzo "Pookie" Johnson - tenor saxophone
Larry Ridley - bass
James Spaulding - alto saxophone, flute
Al Kiger - trumpet
Larry Philpott - French horn
Al Smith - flute
Art Reiner - drums
Приватный:
Нет (DHT включён)
Размер:
370.55 Мб (388,548,002 байт) » файлов: 15
Участники:
0 раздают, 0 качают (0 участников всего)
Внешние участники:
2 раздают, 1 качают (3 участников всего) [ Обновить ]
Есть вопросы - пишите личное сообщение пользователю M0p94ok.
05:52
154
Нет комментариев. Ваш будет первым!