Поиск

(Funk, Soul) [CD] Sounds of the City Experience - Sounds of the City Experience - 1976 (2013), FLAC (tracks+.cue), lossless

(Funk, Soul) [CD] Sounds of the City Experience - Sounds of the City Experience - 1976 (2013), FLAC (tracks+.cue), lossless
Треклист:
Sounds of the City Experience - Sounds of the City Experience
Жанр: Funk, Soul
Носитель: CD
Страна-производитель диска (релиза): Великобритания
Год издания: 1976 (2013)
Издатель (лейбл): Jazzman
Номер по каталогу: JMANCD 061
Страна исполнителя (группы): США
Аудиокодек: FLAC (*.flac)
Тип рипа: tracks+.cue
Битрейт аудио: lossless
Продолжительность: 42:12
Источник (релизер): KidCanary (what)
Наличие сканов в содержимом раздачи: нет
Треклист:
01. Getting Down (Marks) - 4:10
02. Through No Fault of Our Own (Sprouse) - 3:34
03. It's Wonderful Baby (Sprouse)/Gina (Vance-Karr) - 6:03
04. Come On and Stay with Me (Sprouse) - 3:34
05. Stuff N' Thing (Sprouse) - 2:49
06. Keep On Keepin' On (Sprouse) - 3:03
07. Babylon (Sprouse) - 2:38
08. Reality (Sprouse) - 2:22
09. Judgement Day (Sprouse) - 2:56
10. My People (Sprouse) - 2:36
11. Baby It's the End (Sprouse) - 2:22
12. Jam Session (Sprouse) - 3:09
13. Look at Billy Go for Her (Sprouse) - 2:56
 
Лог создания рипа
Exact Audio Copy V1.0 beta 3 from 29. August 2011
EAC extraction logfile from 26. July 2014, 17:54
Sounds Of The City Experience / Sounds Of The City Experience
Used drive : ASUS DRW-24B1ST Adapter: 3 ID: 0
Read mode : Secure
Utilize accurate stream : Yes
Defeat audio cache : Yes
Make use of C2 pointers : No
Read offset correction : 6
Overread into Lead-In and Lead-Out : No
Fill up missing offset samples with silence : Yes
Delete leading and trailing silent blocks : No
Null samples used in CRC calculations : Yes
Used interface : Native Win32 interface for Win NT & 2000
Gap handling : Appended to previous track
Used output format : User Defined Encoder
Selected bitrate : 1024 kBit/s
Quality : High
Add ID3 tag : No
Command line compressor : C:\Program Files (x86)\FLAC\flac.exe
Additional command line options : -8 -V -T "ARTIST=%artist%" -T "TITLE=%title%" -T "ALBUM=%albumtitle%" -T "DATE=%year%" -T "TRACKNUMBER=%tracknr%" -T "GENRE=%genre%" -T "PERFORMER=%albuminterpret%" -T "COMPOSER=%composer%" %haslyrics%--tag-from-file=LYRICS="%lyricsfile%"%haslyrics% -T "ALBUMARTIST=%albumartist%" -T "DISCNUMBER=%cdnumber%" -T "TOTALDISCS=%totalcds%" -T "TOTALTRACKS=%numtracks%" -T "COMMENT=%comment%" %source% -o %dest%
TOC of the extracted CD
Track | Start | Length | Start sector | End sector
---------------------------------------------------------
1 | 0:00.00 | 4:09.40 | 0 | 18714
2 | 4:09.40 | 3:33.51 | 18715 | 34740
3 | 7:43.16 | 6:03.13 | 34741 | 61978
4 | 13:46.29 | 3:34.32 | 61979 | 78060
5 | 17:20.61 | 2:49.02 | 78061 | 90737
6 | 20:09.63 | 3:03.37 | 90738 | 104499
7 | 23:13.25 | 2:38.13 | 104500 | 116362
8 | 25:51.38 | 2:21.54 | 116363 | 126991
9 | 28:13.17 | 2:56.04 | 126992 | 140195
10 | 31:09.21 | 2:35.70 | 140196 | 151890
11 | 33:45.16 | 2:21.61 | 151891 | 162526
12 | 36:07.02 | 3:09.27 | 162527 | 176728
13 | 39:16.29 | 2:56.08 | 176729 | 189936
Track 1
Filename C:\EACrips\01 - Getting Down.wav
Pre-gap length 0:00:02.00
Peak level 100.0 %
Extraction speed 3.5 X
Track quality 100.0 %
Test CRC 106B8E9F
Copy CRC 106B8E9F
Accurately ripped (confidence 1) [46D5705C] (AR v2)
Copy OK
Track 2
Filename C:\EACrips\02 - Through No Fault Of Our Own.wav
Peak level 98.3 %
Extraction speed 3.8 X
Track quality 100.0 %
Test CRC 838036A4
Copy CRC 838036A4
Accurately ripped (confidence 1) [7328A464] (AR v2)
Copy OK
Track 3
Filename C:\EACrips\03 - It's Wonderful Baby , Gina.wav
Peak level 100.0 %
Extraction speed 3.9 X
Track quality 99.9 %
Test CRC 8063E215
Copy CRC 8063E215
Accurately ripped (confidence 1) [7451CDA6] (AR v2)
Copy OK
Track 4
Filename C:\EACrips\04 - Come On And Stay With Me.wav
Peak level 87.2 %
Extraction speed 3.6 X
Track quality 99.9 %
Test CRC 4093373E
Copy CRC 4093373E
Accurately ripped (confidence 1) [839BDFDA] (AR v2)
Copy OK
Track 5
Filename C:\EACrips\05 - Stuff N' Thing.wav
Peak level 100.0 %
Extraction speed 4.6 X
Track quality 100.0 %
Test CRC 00C7875A
Copy CRC 00C7875A
Accurately ripped (confidence 1) [90EB5F9D] (AR v2)
Copy OK
Track 6
Filename C:\EACrips\06 - Keep On Keepin' On.wav
Peak level 100.0 %
Extraction speed 4.8 X
Track quality 100.0 %
Test CRC E0177C22
Copy CRC E0177C22
Accurately ripped (confidence 1) [179D4266] (AR v2)
Copy OK
Track 7
Filename C:\EACrips\07 - Babylon.wav
Peak level 100.0 %
Extraction speed 4.9 X
Track quality 100.0 %
Test CRC E6E2D0EB
Copy CRC E6E2D0EB
Accurately ripped (confidence 1) [AA2FA7D2] (AR v2)
Copy OK
Track 8
Filename C:\EACrips\08 - Reality.wav
Peak level 100.0 %
Extraction speed 3.6 X
Track quality 99.9 %
Test CRC 291E1147
Copy CRC 291E1147
Accurately ripped (confidence 1) [DB0CBA11] (AR v2)
Copy OK
Track 9
Filename C:\EACrips\09 - Judgement Day.wav
Peak level 98.3 %
Extraction speed 5.3 X
Track quality 100.0 %
Test CRC 0B353BD4
Copy CRC 0B353BD4
Accurately ripped (confidence 1) [D299536A] (AR v2)
Copy OK
Track 10
Filename C:\EACrips\10 - My People.wav
Peak level 100.0 %
Extraction speed 5.3 X
Track quality 100.0 %
Test CRC 9D454F3D
Copy CRC 9D454F3D
Accurately ripped (confidence 1) [324B4ABB] (AR v2)
Copy OK
Track 11
Filename C:\EACrips\11 - Baby It's The End.wav
Peak level 100.0 %
Extraction speed 5.3 X
Track quality 100.0 %
Test CRC B17BF90F
Copy CRC B17BF90F
Accurately ripped (confidence 1) [C4436D5E] (AR v2)
Copy OK
Track 12
Filename C:\EACrips\12 - Jam Session.wav
Peak level 100.0 %
Extraction speed 5.8 X
Track quality 100.0 %
Test CRC ADF225E2
Copy CRC ADF225E2
Accurately ripped (confidence 1) [6B935F5A] (AR v2)
Copy OK
Track 13
Filename C:\EACrips\13 - Look At Billy Go For Her.wav
Peak level 100.0 %
Extraction speed 5.8 X
Track quality 100.0 %
Test CRC 0D7834A6
Copy CRC 0D7834A6
Accurately ripped (confidence 1) [175B9AF0] (AR v2)
Copy OK
All tracks accurately ripped
No errors occurred
End of status report
---- CUETools DB Plugin V2.1.3
[CTDB TOCID: 9OvMin163sh86QomuA2irzlJcSc-] disk not present in database, Submit result: 9OvMin163sh86QomuA2irzlJcSc- has been uploaded
==== Log checksum 0EE9B72EECCCEF6790BEFE908E2CDBA6221A6BF832BD93E7D8628D041103E91E ====
 
Содержание индексной карты (.CUE)
REM GENRE Jazz
REM DATE 1976
REM DISCID AC09E40D
REM COMMENT "ExactAudioCopy v1.0b3"
PERFORMER "Sounds of the City Experience"
TITLE "Sounds of the City Experience"
FILE "01 - Getting Down.wav" WAVE
TRACK 01 AUDIO
TITLE "Getting Down"
PERFORMER "Sounds of the City Experience"
INDEX 01 00:00:00
FILE "02 - Through No Fault of Our Own.wav" WAVE
TRACK 02 AUDIO
TITLE "Through No Fault of Our Own"
PERFORMER "Sounds of the City Experience"
INDEX 01 00:00:00
FILE "03 - It's Wonderful Baby,Gina.wav" WAVE
TRACK 03 AUDIO
TITLE "It's Wonderful Baby/Gina"
PERFORMER "Sounds of the City Experience"
INDEX 01 00:00:00
FILE "04 - Come On and Stay with Me.wav" WAVE
TRACK 04 AUDIO
TITLE "Come On and Stay with Me"
PERFORMER "Sounds of the City Experience"
INDEX 01 00:00:00
FILE "05 - Stuff N' Thing.wav" WAVE
TRACK 05 AUDIO
TITLE "Stuff N' Thing"
PERFORMER "Sounds of the City Experience"
INDEX 01 00:00:00
FILE "06 - Keep On Keepin' On.wav" WAVE
TRACK 06 AUDIO
TITLE "Keep On Keepin' On"
PERFORMER "Sounds of the City Experience"
INDEX 01 00:00:00
FILE "07 - Babylon.wav" WAVE
TRACK 07 AUDIO
TITLE "Babylon"
PERFORMER "Sounds of the City Experience"
INDEX 01 00:00:00
FILE "08 - Reality.wav" WAVE
TRACK 08 AUDIO
TITLE "Reality"
PERFORMER "Sounds of the City Experience"
INDEX 01 00:00:00
FILE "09 - Judgement Day.wav" WAVE
TRACK 09 AUDIO
TITLE "Judgement Day"
PERFORMER "Sounds of the City Experience"
INDEX 01 00:00:00
FILE "10 - My People.wav" WAVE
TRACK 10 AUDIO
TITLE "My People"
PERFORMER "Sounds of the City Experience"
INDEX 01 00:00:00
FILE "11 - Baby It's the End.wav" WAVE
TRACK 11 AUDIO
TITLE "Baby It's the End"
PERFORMER "Sounds of the City Experience"
INDEX 01 00:00:00
FILE "12 - Jam Session.wav" WAVE
TRACK 12 AUDIO
TITLE "Jam Session"
PERFORMER "Sounds of the City Experience"
INDEX 01 00:00:00
FILE "13 - Look at Billy Go for Her.wav" WAVE
TRACK 13 AUDIO
TITLE "Look at Billy Go for Her"
PERFORMER "Sounds of the City Experience"
INDEX 01 00:00:00
 
Отчет CUETools
[CUETools log; Date: 30.04.2015 17:16:36; Version: 2.1.5]
[CTDB TOCID: 9OvMin163sh86QomuA2irzlJcSc-] found.
Track | CTDB Status
1 | (1/1) Accurately ripped
2 | (1/1) Accurately ripped
3 | (1/1) Accurately ripped
4 | (1/1) Accurately ripped
5 | (1/1) Accurately ripped
6 | (1/1) Accurately ripped
7 | (1/1) Accurately ripped
8 | (1/1) Accurately ripped
9 | (1/1) Accurately ripped
10 | (1/1) Accurately ripped
11 | (1/1) Accurately ripped
12 | (1/1) Accurately ripped
13 | (1/1) Accurately ripped
[AccurateRip ID: 00162d39-00d74a83-ac09e40d] disk not present in database.
Track Peak [ CRC32 ] [W/O NULL] [ LOG ]
-- 100,0 [B68A3185] [E8849D06]
01 100,0 [106B8E9F] [69C8FC06] CRC32
02 98,3 [838036A4] [33808BD3] CRC32
03 100,0 [8063E215] [D91BA89B] CRC32
04 87,2 [4093373E] [C7F2AF5E] CRC32
05 100,0 [00C7875A] [73DB6530] CRC32
06 100,0 [E0177C22] [C6B9E499] CRC32
07 100,0 [E6E2D0EB] [42BB545C] CRC32
08 100,0 [291E1147] [05F8AF33] CRC32
09 98,3 [0B353BD4] [1E8B9581] CRC32
10 100,0 [9D454F3D] [6D2AB21D] CRC32
11 100,0 [B17BF90F] [3CC0975D] CRC32
12 100,0 [ADF225E2] [391E1B76] CRC32
13 100,0 [0D7834A6] [F7E70479] CRC32
 
Об альбоме (сборнике)
One of the eternal issues of record collecting is the question of how good records actually become rare.
Perhaps the record company goes bust. Perhaps the label is busy pushing some lame pop act on the roster, leaving the good stuff to rot. Maybe the band splits up just before the release. Less frequent than any of these is this: perhaps the record wasn’t supposed to sell in the first place. As strange as it seems, that was exactly the case with this album, the Sounds of the City Experience.
In our Holy Grail reissue of the highly-sought after Sounds of the City Experience LP on notorious tax-scam label Tiger Lilly, we interview the producer Mario Sprouse and find out exactly why this album is so rare. We discover and disclose the story behind the band and why they made these high-quality recordings which were never intended for release. Discover all this in our detailed liner notes, along with previously unseen pictures of the band in action.
Soul and funk from the early ‘70s from this multi-racial band out of the Bronx. These guys played for fun, understanding and mutual respect – no pressure from the record company to make a hit record = positive vibes and freedom. And it shows!
Приватный:
Нет (DHT включён)
Размер:
243.79 Мб (255,634,376 байт) » файлов: 22
Участники:
0 раздают, 0 качают (0 участников всего)
Внешние участники:
3 раздают, 1 качают (4 участников всего) [ Обновить ]
Есть вопросы - пишите личное сообщение пользователю M0p94ok.
05:54
46
Нет комментариев. Ваш будет первым!