Поиск

(Funk, Soul) [CD] The Brief Encounter - The Brief Encounter - 1977 (2010), FLAC (tracks+.cue), lossless

(Funk, Soul) [CD] The Brief Encounter - The Brief Encounter - 1977 (2010), FLAC (tracks+.cue), lossless
Треклист:
The Brief Encounter - The Brief Encounter
Жанр: Funk, Soul
Носитель: CD
Страна-производитель диска (релиза): Великобритания
Год издания: 1977 (2010)
Издатель (лейбл): Jazzman
Номер по каталогу: JMANCD 038
Страна исполнителя (группы): США
Аудиокодек: FLAC (*.flac)
Тип рипа: tracks+.cue
Битрейт аудио: lossless
Продолжительность: 42:11
Источник (релизер): 7oo8 (what)
Наличие сканов в содержимом раздачи: нет
Треклист:
01. The Brief Encounter (Introduction) (4:28)
02. Visions (4:50)
03. Smile (3:29)
04. Just One Moment (3:42)
05. Loving and Caring (4:12)
06. In a Special Kind of Way (3:56)
07. Good Thing, Bad Thing (4:13)
08. Time Is Moving (4:46)
09. Get a Good Feeling (4:53)
10. We're Gonna Have a Good Time (3:42)
Recorded in Muscle Shoals, AL.
 
Лог создания рипа
Exact Audio Copy V0.99 prebeta 5 from 4. May 2009
EAC extraction logfile from 24. January 2011, 15:36
Brief Encounter / The Brief Encounter
Used drive : Optiarc DVD RW AD-7241S Adapter: 0 ID: 1
Read mode : Secure
Utilize accurate stream : Yes
Defeat audio cache : Yes
Make use of C2 pointers : No
Read offset correction : 48
Overread into Lead-In and Lead-Out : No
Fill up missing offset samples with silence : Yes
Delete leading and trailing silent blocks : No
Null samples used in CRC calculations : Yes
Used interface : Native Win32 interface for Win NT & 2000
Gap handling : Appended to previous track
Used output format : Internal WAV Routines
Sample format : 44.100 Hz; 16 Bit; Stereo
TOC of the extracted CD
Track | Start | Length | Start sector | End sector
---------------------------------------------------------
1 | 0:00.00 | 4:27.55 | 0 | 20079
2 | 4:27.55 | 4:50.15 | 20080 | 41844
3 | 9:17.70 | 3:28.43 | 41845 | 57487
4 | 12:46.38 | 3:42.10 | 57488 | 74147
5 | 16:28.48 | 4:11.57 | 74148 | 93029
6 | 20:40.30 | 3:55.58 | 93030 | 110712
7 | 24:36.13 | 4:13.17 | 110713 | 129704
8 | 28:49.30 | 4:45.40 | 129705 | 151119
9 | 33:34.70 | 4:52.73 | 151120 | 173092
10 | 38:27.68 | 3:42.37 | 173093 | 189779
Track 1
Filename C:\Brief Encounter - The Brief Encounter (2010)\01 Brief Encounter - The Brief Encounter (Introduction).wav
Pre-gap length 0:00:02.00
Peak level 92.6 %
Track quality 100.0 %
Test CRC D77E2488
Copy CRC D77E2488
Cannot be verified as accurate (confidence 1) [6A0D58E9], AccurateRip returned [5E44D396]
Copy OK
Track 2
Filename C:\Brief Encounter - The Brief Encounter (2010)\02 Brief Encounter - Visions.wav
Pre-gap length 0:00:02.24
Peak level 83.0 %
Track quality 99.9 %
Test CRC 1F3DACBE
Copy CRC 1F3DACBE
Cannot be verified as accurate (confidence 1) [ACBCBA15], AccurateRip returned [3DE28FE9]
Copy OK
Track 3
Filename C:\Brief Encounter - The Brief Encounter (2010)\03 Brief Encounter - Smile.wav
Pre-gap length 0:00:03.10
Peak level 100.0 %
Track quality 100.0 %
Test CRC 9EAA3BDA
Copy CRC 9EAA3BDA
Cannot be verified as accurate (confidence 1) [DCDA5515], AccurateRip returned [4C40D9A0]
Copy OK
Track 4
Filename C:\Brief Encounter - The Brief Encounter (2010)\04 Brief Encounter - Just One Moment.wav
Pre-gap length 0:00:01.90
Peak level 92.1 %
Track quality 99.9 %
Test CRC 87E04E49
Copy CRC 87E04E49
Cannot be verified as accurate (confidence 1) [8FA1A60C], AccurateRip returned [FE610107]
Copy OK
Track 5
Filename C:\Brief Encounter - The Brief Encounter (2010)\05 Brief Encounter - Loving And Caring.wav
Pre-gap length 0:00:03.10
Peak level 91.2 %
Track quality 100.0 %
Test CRC BE8886C1
Copy CRC BE8886C1
Cannot be verified as accurate (confidence 1) [B8225ADD], AccurateRip returned [506A233B]
Copy OK
Track 6
Filename C:\Brief Encounter - The Brief Encounter (2010)\06 Brief Encounter - In A Special Kind Of Way.wav
Pre-gap length 0:00:03.17
Peak level 98.8 %
Track quality 99.9 %
Test CRC 258EF74F
Copy CRC 258EF74F
Cannot be verified as accurate (confidence 1) [2942A7AB], AccurateRip returned [DEB90D8C]
Copy OK
Track 7
Filename C:\Brief Encounter - The Brief Encounter (2010)\07 Brief Encounter - Good Thing, Bad Thing.wav
Pre-gap length 0:00:02.34
Peak level 98.0 %
Track quality 100.0 %
Test CRC 42DF24DD
Copy CRC 42DF24DD
Cannot be verified as accurate (confidence 1) [F08DF7A6], AccurateRip returned [EED35DD5]
Copy OK
Track 8
Filename C:\Brief Encounter - The Brief Encounter (2010)\08 Brief Encounter - Time Is Moving.wav
Pre-gap length 0:00:02.57
Peak level 98.8 %
Track quality 100.0 %
Test CRC 8F3CF7FC
Copy CRC 8F3CF7FC
Cannot be verified as accurate (confidence 1) [976C0623], AccurateRip returned [12C6F367]
Copy OK
Track 9
Filename C:\Brief Encounter - The Brief Encounter (2010)\09 Brief Encounter - Get A Good Feeling.wav
Pre-gap length 0:00:03.53
Peak level 98.5 %
Track quality 100.0 %
Test CRC 17278D85
Copy CRC 17278D85
Cannot be verified as accurate (confidence 1) [7EA77CBA], AccurateRip returned [15C11393]
Copy OK
Track 10
Filename C:\Brief Encounter - The Brief Encounter (2010)\10 Brief Encounter - We're Gonna Have A Good Time.wav
Pre-gap length 0:00:01.90
Peak level 98.5 %
Track quality 99.9 %
Test CRC 430B55C6
Copy CRC 430B55C6
Cannot be verified as accurate (confidence 1) [EBF7A57D], AccurateRip returned [80C540AE]
Copy OK
No tracks could be verified as accurate
You may have a different pressing from the one(s) in the database
No errors occurred
End of status report
 
Содержание индексной карты (.CUE)
REM GENRE Jazz
REM DATE 1977
REM DISCID 8D09E20A
REM COMMENT "ExactAudioCopy v0.99pb5"
PERFORMER "The Brief Encounter"
TITLE "The Brief Encounter"
FILE "01 - The Brief Encounter (Introduction).wav" WAVE
TRACK 01 AUDIO
TITLE "The Brief Encounter (Introduction)"
PERFORMER "The Brief Encounter"
INDEX 01 00:00:00
TRACK 02 AUDIO
TITLE "Visions"
PERFORMER "The Brief Encounter"
INDEX 00 04:25:37
FILE "02 - Visions.wav" WAVE
INDEX 01 00:00:00
TRACK 03 AUDIO
TITLE "Smile"
PERFORMER "The Brief Encounter"
INDEX 00 04:47:07
FILE "03 - Smile.wav" WAVE
INDEX 01 00:00:00
TRACK 04 AUDIO
TITLE "Just One Moment"
PERFORMER "The Brief Encounter"
INDEX 00 03:26:50
FILE "04 - Just One Moment.wav" WAVE
INDEX 01 00:00:00
TRACK 05 AUDIO
TITLE "Loving and Caring"
PERFORMER "The Brief Encounter"
INDEX 00 03:39:02
FILE "05 - Loving and Caring.wav" WAVE
INDEX 01 00:00:00
TRACK 06 AUDIO
TITLE "In a Special Kind of Way"
PERFORMER "The Brief Encounter"
INDEX 00 04:08:44
FILE "06 - In a Special Kind of Way.wav" WAVE
INDEX 01 00:00:00
TRACK 07 AUDIO
TITLE "Good Thing, Bad Thing"
PERFORMER "The Brief Encounter"
INDEX 00 03:53:32
FILE "07 - Good Thing, Bad Thing.wav" WAVE
INDEX 01 00:00:00
TRACK 08 AUDIO
TITLE "Time Is Moving"
PERFORMER "The Brief Encounter"
INDEX 00 04:10:49
FILE "08 - Time Is Moving.wav" WAVE
INDEX 01 00:00:00
TRACK 09 AUDIO
TITLE "Get a Good Feeling"
PERFORMER "The Brief Encounter"
INDEX 00 04:42:00
FILE "09 - Get a Good Feeling.wav" WAVE
INDEX 01 00:00:00
TRACK 10 AUDIO
TITLE "We're Gonna Have a Good Time"
PERFORMER "The Brief Encounter"
INDEX 00 04:51:05
FILE "10 - We're Gonna Have a Good Time.wav" WAVE
INDEX 01 00:00:00
 
Отчет CUETools
[CUETools log; Date: 30.04.2015 18:49:26; Version: 2.1.5]
[CTDB TOCID: Mm8iAToF_WofyU44Ug4rjecG3bM-] found.
Track | CTDB Status
1 | (3/3) Accurately ripped
2 | (3/3) Accurately ripped
3 | (3/3) Accurately ripped
4 | (3/3) Accurately ripped
5 | (3/3) Accurately ripped
6 | (3/3) Accurately ripped
7 | (3/3) Accurately ripped
8 | (3/3) Accurately ripped
9 | (3/3) Accurately ripped
10 | (3/3) Accurately ripped
[AccurateRip ID: 000fe26a-007ee38d-8d09e20a] found.
Track [ CRC | V2 ] Status
01 [6a0d58e9|235a95b8] (00+05/13) Accurately ripped
02 [acbcba15|b82ee3e9] (00+05/13) Accurately ripped
03 [dcda5515|bee072ca] (00+05/13) Accurately ripped
04 [8fa1a60c|0b96a4fb] (00+05/13) Accurately ripped
05 [b8225add|d74fa4ff] (00+05/13) Accurately ripped
06 [2942a7ab|37f77357] (00+05/13) Accurately ripped
07 [f08df7a6|3e0a7045] (00+05/13) Accurately ripped
08 [976c0623|1442d98c] (00+05/13) Accurately ripped
09 [7ea77cba|16a5b94e] (00+05/13) Accurately ripped
10 [ebf7a57d|2968f6c1] (00+05/13) Accurately ripped
Offsetted by -25:
01 [9c237a73] (03/13) Accurately ripped
02 [2903fc85] (03/13) Accurately ripped
03 [637080cb] (03/13) Accurately ripped
04 [7b5512d6] (03/13) Accurately ripped
05 [290ba79d] (03/13) Accurately ripped
06 [c83c0dbc] (03/13) Accurately ripped
07 [99244b52] (03/13) Accurately ripped
08 [8cc78a86] (03/13) Accurately ripped
09 [743d5a78] (03/13) Accurately ripped
10 [3c09257a] (03/13) Accurately ripped
Track Peak [ CRC32 ] [W/O NULL] [ LOG ]
-- 100,0 [4CA245EC] [1BA37FD4]
01 92,6 [D77E2488] [0E629993] CRC32
02 83,0 [1F3DACBE] [9A86F67F] CRC32
03 100,0 [9EAA3BDA] [1CCC2FC8] CRC32
04 92,1 [87E04E49] [7E236F93] CRC32
05 91,2 [BE8886C1] [AA8138C5] CRC32
06 98,8 [258EF74F] [FAA7EDBA] CRC32
07 98,0 [42DF24DD] [D10FC050] CRC32
08 98,8 [8F3CF7FC] [1473DD01] CRC32
09 98,5 [17278D85] [2E6CC63D] CRC32
10 98,5 [430B55C6] [DB462DDD] CRC32
 
Об альбоме (сборнике)
The elusive and mysterious ‘Special Release’ album by the Brief Encounter has eluded many an intrepid record collector over the years. Despite being a relatively well-known and highly-respected soul/funk band, their highly sought-after album on Seventy Seven Records has remained practically impossible to find. And when one does surface, a figure over $2000 isn’t out of the ordinary for a copy to change hands.
As a result it’s not only have the vast majority of collectors and soul fans that have been unable to enjoy the music, but for over 30 years the band themselves have not had the satisfaction of having their pride and joy felt, heard and enjoyed. So we decided to put things right. With help and assistance from members of The Brief Encounter themselves, we have made available this inspirational album that displays a wide showcase of soulful talent from funky rare grooves to beautiful ballads. Recorded in 1977, we reveal in our detailed liner notes from our exclusive interviews the story behind the band and their enigmatic recording of the Special Release album, and how a small-time group of musicians from rural North Carolina came to entrance soul fans and collectors the world over with such a superb yet under-appreciated masterpiece.
Приватный:
Нет (DHT включён)
Размер:
256.01 Мб (268,449,105 байт) » файлов: 18
Участники:
0 раздают, 0 качают (0 участников всего)
Внешние участники:
3 раздают, 1 качают (4 участников всего) [ Обновить ]
No seeders - write personal message to user M0p94ok. Нет сидеров - пишите личное сообщение пользователю M0p94ok.
05:55
91
Нет комментариев. Ваш будет первым!