Поиск

(Soul, R&B) [CD] VA - The Birth Of Northern Soul! - 2013, FLAC (tracks+.cue), lossless

(Soul, R&B) [CD] VA - The Birth Of Northern Soul! - 2013, FLAC (tracks+.cue), lossless
Треклист:
Various - The Birth Of Northern Soul! Жанр: Soul, R&B
Носитель: CD
Год издания: 2013
Издатель (лейбл): Outta Soul Records
Номер по каталогу: OSCD038
Аудиокодек: FLAC (*.flac)
Тип рипа: tracks+.cue
Битрейт аудио: lossless
Продолжительность: 65:08
Источник (релизер): TmanHome
Наличие сканов в содержимом раздачи: да
Треклист:
01. It Hurts Too Much To Cry (H B Barnum) (2:15)
02. My Heart's On Fire (Billy Bland) (2:14)
03. Good Enough (Bobby Guy) (2:12)
04. He's The One That Rings My Bell (Sherri Taylor) (2:33)
05. I Received Your Message (Ruby Johnson) (2:42)
06. Every Dog Got His Day (Eddie Bo) (2:17)
07. I Think I Love You (Helen Troy) (2:19)
08. Bend A Little (Shorty Billups) (2:01)
09. My Nerves (Little Willie John) (2:32)
10. You Don't Love (Willie Cobbs) (2:34)
11. Sugar In My Tea (Cream In My Coffee) (Piney Brown and his Blues Toppers) (2:27)
12. Come On Baby (Hold My Hand) (Marie Knight) (2:23)
13. You Don't Have To Go (Sam Myers) (2:31)
14. I Burned Your Letter (Ruth Brown) (2:47)
15. Pneumonia (Joe Tex) (2:42)
16. Little Annie (Anna Belle Caesar) (2:29)
17. Feelin' Kind A Lonesome (Willie J. Charles) (2:21)
18. You Ain't So Such A Much (Blanche Thomas) (2:23)
19. I Never Get Enough (Billy (The Kid) Emerson) (2:34)
20. I Smell A Rat (Young Jessie) (2:21)
21. She Knocks Me Out (Harold Burrage) (2:16)
22. Chills And Fever (Johnny Love) (2:28)
23. When You See Me Hurt (Carl Lester & The Show Stoppers) (2:20)
24. Walk Ginny Walk (Lenny Johnson) (2:19)
25. Baby Please Don't Go (Jo Ann Henderson) (2:27)
26. Since You Left Me Behind (Larry Birdsong) (1:55)
27. Wide Awake In A Dream (Jerry Jackson) (2:46)
 
 
Лог создания рипа
Exact Audio Copy V1.0 beta 6 from 9. April 2015
EAC extraction logfile from 28. November 2015, 20:35
Various Artists / The Birth Of Northern Soul
Used drive : TSSTcorpCDDVDW SH-224BB Adapter: 1 ID: 0
Read mode : Secure
Utilize accurate stream : Yes
Defeat audio cache : Yes
Make use of C2 pointers : No
Read offset correction : 6
Overread into Lead-In and Lead-Out : No
Fill up missing offset samples with silence : Yes
Delete leading and trailing silent blocks : No
Null samples used in CRC calculations : Yes
Used interface : Native Win32 interface for Win NT & 2000
Gap handling : Appended to previous track
Used output format : User Defined Encoder
Selected bitrate : 768 kBit/s
Quality : High
Add ID3 tag : No
Command line compressor : C:\Program Files (x86)\Exact Audio Copy\Flac\flac.exe
Additional command line options : -8 -V -T "ARTIST=%artist%" -T "TITLE=%title%" -T "ALBUM=%albumtitle%" -T "DATE=%year%" -T "TRACKNUMBER=%tracknr%" -T "TOTALTRACKS=%numtracks%" -T "GENRE=%genre%" -T "ALBUMARTIST=%albumartist%" -T "ALBUM ARTIST=%albumartist%" -T "COMMENT=EAC Secure Mode, Test & Copy, AccurateRip, FLAC -8" %source%
TOC of the extracted CD
Track | Start | Length | Start sector | End sector
---------------------------------------------------------
1 | 0:00.00 | 2:15.02 | 0 | 10126
2 | 2:15.02 | 2:14.34 | 10127 | 20210
3 | 4:29.36 | 2:11.63 | 20211 | 30098
4 | 6:41.24 | 2:33.13 | 30099 | 41586
5 | 9:14.37 | 2:42.01 | 41587 | 53737
6 | 11:56.38 | 2:16.70 | 53738 | 64007
7 | 14:13.33 | 2:19.17 | 64008 | 74449
8 | 16:32.50 | 2:01.02 | 74450 | 83526
9 | 18:33.52 | 2:31.66 | 83527 | 94917
10 | 21:05.43 | 2:33.69 | 94918 | 106461
11 | 23:39.37 | 2:26.42 | 106462 | 117453
12 | 26:06.04 | 2:23.11 | 117454 | 128189
13 | 28:29.15 | 2:31.15 | 128190 | 139529
14 | 31:00.30 | 2:46.70 | 139530 | 152049
15 | 33:47.25 | 2:42.04 | 152050 | 164203
16 | 36:29.29 | 2:28.56 | 164204 | 175359
17 | 38:58.10 | 2:21.29 | 175360 | 185963
18 | 41:19.39 | 2:22.45 | 185964 | 196658
19 | 43:42.09 | 2:34.21 | 196659 | 208229
20 | 46:16.30 | 2:21.32 | 208230 | 218836
21 | 48:37.62 | 2:15.55 | 218837 | 229016
22 | 50:53.42 | 2:27.70 | 229017 | 240111
23 | 53:21.37 | 2:19.43 | 240112 | 250579
24 | 55:41.05 | 2:19.09 | 250580 | 261013
25 | 58:00.14 | 2:27.12 | 261014 | 272050
26 | 60:27.26 | 1:54.74 | 272051 | 280674
27 | 62:22.25 | 2:46.03 | 280675 | 293127
Track 1
Filename C:\Rips\Various Artists - The Birth Of Northern Soul! (2013) [FLAC]\01 - H B Barnum - It Hurts Too Much To Cry.wav
Pre-gap length 0:00:02.00
Peak level 98.8 %
Extraction speed 1.5 X
Track quality 100.0 %
Test CRC 7C5EC8FE
Copy CRC 7C5EC8FE
Accurately ripped (confidence 1) [47E05DB9] (AR v2)
Copy OK
Track 2
Filename C:\Rips\Various Artists - The Birth Of Northern Soul! (2013) [FLAC]\02 - Billy Bland - My Heart's On Fire.wav
Peak level 98.8 %
Extraction speed 1.3 X
Track quality 99.9 %
Test CRC C22672CB
Copy CRC C22672CB
Accurately ripped (confidence 1) [F60FB890] (AR v2)
Copy OK
Track 3
Filename C:\Rips\Various Artists - The Birth Of Northern Soul! (2013) [FLAC]\03 - Bobby Guy - Good Enough.wav
Peak level 98.8 %
Extraction speed 1.6 X
Track quality 100.0 %
Test CRC 54B19703
Copy CRC 54B19703
Accurately ripped (confidence 1) [324E710B] (AR v2)
Copy OK
Track 4
Filename C:\Rips\Various Artists - The Birth Of Northern Soul! (2013) [FLAC]\04 - Sherri Taylor - He's The One That Rings My Bell.wav
Peak level 94.5 %
Extraction speed 1.8 X
Track quality 100.0 %
Test CRC E1DDE62A
Copy CRC E1DDE62A
Accurately ripped (confidence 1) [65166CE7] (AR v2)
Copy OK
Track 5
Filename C:\Rips\Various Artists - The Birth Of Northern Soul! (2013) [FLAC]\05 - Ruby Johnson - I Received Your Message.wav
Peak level 100.0 %
Extraction speed 1.6 X
Track quality 99.9 %
Test CRC AB773042
Copy CRC AB773042
Accurately ripped (confidence 1) [DAF90EF2] (AR v2)
Copy OK
Track 6
Filename C:\Rips\Various Artists - The Birth Of Northern Soul! (2013) [FLAC]\06 - Eddie Bo - Every Dog Got His Day.wav
Peak level 98.8 %
Extraction speed 1.9 X
Track quality 100.0 %
Test CRC B36FA61D
Copy CRC B36FA61D
Accurately ripped (confidence 1) [478300B1] (AR v2)
Copy OK
Track 7
Filename C:\Rips\Various Artists - The Birth Of Northern Soul! (2013) [FLAC]\07 - Helen Troy - I Think I Love You.wav
Peak level 98.8 %
Extraction speed 2.0 X
Track quality 100.0 %
Test CRC 02CED5A5
Copy CRC 02CED5A5
Accurately ripped (confidence 1) [EB915833] (AR v2)
Copy OK
Track 8
Filename C:\Rips\Various Artists - The Birth Of Northern Soul! (2013) [FLAC]\08 - Shorty Billups - Bend A Little.wav
Peak level 98.8 %
Extraction speed 2.0 X
Track quality 100.0 %
Test CRC FCDF992E
Copy CRC FCDF992E
Accurately ripped (confidence 1) [3EC1E463] (AR v2)
Copy OK
Track 9
Filename C:\Rips\Various Artists - The Birth Of Northern Soul! (2013) [FLAC]\09 - Little Willie John - My Nerves.wav
Peak level 98.8 %
Extraction speed 2.2 X
Track quality 100.0 %
Test CRC 9BE33847
Copy CRC 9BE33847
Accurately ripped (confidence 1) [D3A21D1F] (AR v2)
Copy OK
Track 10
Filename C:\Rips\Various Artists - The Birth Of Northern Soul! (2013) [FLAC]\10 - Willie Cobbs - You Don't Love.wav
Peak level 98.8 %
Extraction speed 2.3 X
Track quality 100.0 %
Test CRC 4F4044C0
Copy CRC 4F4044C0
Accurately ripped (confidence 1) [08E41955] (AR v2)
Copy OK
Track 11
Filename C:\Rips\Various Artists - The Birth Of Northern Soul! (2013) [FLAC]\11 - Piney Brown and his Blues Toppers - Sugar In My Tea (Cream In My Coffee).wav
Peak level 98.8 %
Extraction speed 2.3 X
Track quality 100.0 %
Test CRC 47E95CA8
Copy CRC 47E95CA8
Accurately ripped (confidence 1) [2E6F6F84] (AR v2)
Copy OK
Track 12
Filename C:\Rips\Various Artists - The Birth Of Northern Soul! (2013) [FLAC]\12 - Marie Knight - Come On Baby (Hold My Hand).wav
Peak level 98.8 %
Extraction speed 2.4 X
Track quality 100.0 %
Test CRC 36A0C458
Copy CRC 36A0C458
Accurately ripped (confidence 1) [6C82B8C8] (AR v2)
Copy OK
Track 13
Filename C:\Rips\Various Artists - The Birth Of Northern Soul! (2013) [FLAC]\13 - Sam Myers - You Don't Have To Go.wav
Peak level 98.8 %
Extraction speed 2.5 X
Track quality 100.0 %
Test CRC B4ADA03A
Copy CRC B4ADA03A
Accurately ripped (confidence 1) [5F0750BF] (AR v2)
Copy OK
Track 14
Filename C:\Rips\Various Artists - The Birth Of Northern Soul! (2013) [FLAC]\14 - Ruth Brown - I Burned Your Letter.wav
Peak level 98.8 %
Extraction speed 2.6 X
Track quality 100.0 %
Test CRC A0BDC18C
Copy CRC A0BDC18C
Accurately ripped (confidence 1) [6CDA20CA] (AR v2)
Copy OK
Track 15
Filename C:\Rips\Various Artists - The Birth Of Northern Soul! (2013) [FLAC]\15 - Joe Tex - Pneumonia.wav
Peak level 96.6 %
Extraction speed 2.7 X
Track quality 100.0 %
Test CRC 3D41F311
Copy CRC 3D41F311
Accurately ripped (confidence 1) [5016557C] (AR v2)
Copy OK
Track 16
Filename C:\Rips\Various Artists - The Birth Of Northern Soul! (2013) [FLAC]\16 - Anna Belle Caesar - Little Annie.wav
Peak level 92.1 %
Extraction speed 1.9 X
Track quality 99.9 %
Test CRC 9C139164
Copy CRC 9C139164
Accurately ripped (confidence 1) [91126592] (AR v2)
Copy OK
Track 17
Filename C:\Rips\Various Artists - The Birth Of Northern Soul! (2013) [FLAC]\17 - Willie J. Charles - Feelin' Kind A Lonesome.wav
Peak level 98.7 %
Extraction speed 1.9 X
Track quality 99.9 %
Test CRC 04FD4AA1
Copy CRC 04FD4AA1
Accurately ripped (confidence 1) [D5A0A22A] (AR v2)
Copy OK
Track 18
Filename C:\Rips\Various Artists - The Birth Of Northern Soul! (2013) [FLAC]\18 - Blanche Thomas - You Ain't So Such A Much.wav
Peak level 98.8 %
Extraction speed 2.8 X
Track quality 100.0 %
Test CRC 172419A8
Copy CRC 172419A8
Accurately ripped (confidence 1) [058A3262] (AR v2)
Copy OK
Track 19
Filename C:\Rips\Various Artists - The Birth Of Northern Soul! (2013) [FLAC]\19 - Billy (The Kid) Emerson - I Never Get Enough.wav
Peak level 98.8 %
Extraction speed 2.9 X
Track quality 100.0 %
Test CRC 528E83C7
Copy CRC 528E83C7
Accurately ripped (confidence 1) [CBA2CD3D] (AR v2)
Copy OK
Track 20
Filename C:\Rips\Various Artists - The Birth Of Northern Soul! (2013) [FLAC]\20 - Young Jessie - I Smell A Rat.wav
Peak level 98.8 %
Extraction speed 1.9 X
Track quality 99.9 %
Test CRC A190597B
Copy CRC A190597B
Accurately ripped (confidence 1) [08B89A28] (AR v2)
Copy OK
Track 21
Filename C:\Rips\Various Artists - The Birth Of Northern Soul! (2013) [FLAC]\21 - Harold Burrage - She Knocks Me Out.wav
Peak level 98.8 %
Extraction speed 2.9 X
Track quality 100.0 %
Test CRC C3D229EF
Copy CRC C3D229EF
Accurately ripped (confidence 1) [A5A46DA6] (AR v2)
Copy OK
Track 22
Filename C:\Rips\Various Artists - The Birth Of Northern Soul! (2013) [FLAC]\22 - Johnny Love - Chills And Fever.wav
Peak level 98.8 %
Extraction speed 3.0 X
Track quality 100.0 %
Test CRC 0F98A9E7
Copy CRC 0F98A9E7
Accurately ripped (confidence 1) [0BF3BA7A] (AR v2)
Copy OK
Track 23
Filename C:\Rips\Various Artists - The Birth Of Northern Soul! (2013) [FLAC]\23 - Carl Lester & The Show Stoppers - When You See Me Hurt.wav
Peak level 98.7 %
Extraction speed 3.1 X
Track quality 100.0 %
Test CRC 04D207D9
Copy CRC 04D207D9
Accurately ripped (confidence 1) [101F58C1] (AR v2)
Copy OK
Track 24
Filename C:\Rips\Various Artists - The Birth Of Northern Soul! (2013) [FLAC]\24 - Lenny Johnson - Walk Ginny Walk.wav
Peak level 98.8 %
Extraction speed 2.0 X
Track quality 99.9 %
Test CRC FA9067F6
Copy CRC FA9067F6
Accurately ripped (confidence 1) [06F92061] (AR v2)
Copy OK
Track 25
Filename C:\Rips\Various Artists - The Birth Of Northern Soul! (2013) [FLAC]\25 - Jo Ann Henderson - Baby Please Don't Go.wav
Peak level 98.7 %
Extraction speed 3.2 X
Track quality 100.0 %
Test CRC 93D3D1D1
Copy CRC 93D3D1D1
Accurately ripped (confidence 1) [E9E03482] (AR v2)
Copy OK
Track 26
Filename C:\Rips\Various Artists - The Birth Of Northern Soul! (2013) [FLAC]\26 - Larry Birdsong - Since You Left Me Behind.wav
Peak level 98.8 %
Extraction speed 3.0 X
Track quality 100.0 %
Test CRC E7612EAE
Copy CRC E7612EAE
Accurately ripped (confidence 1) [36DD270C] (AR v2)
Copy OK
Track 27
Filename C:\Rips\Various Artists - The Birth Of Northern Soul! (2013) [FLAC]\27 - Jerry Jackson - Wide Awake In A Dream.wav
Peak level 98.8 %
Extraction speed 3.3 X
Track quality 100.0 %
Test CRC 8FE98913
Copy CRC 8FE98913
Accurately ripped (confidence 1) [23EC0F82] (AR v2)
Copy OK
All tracks accurately ripped
No errors occurred
End of status report
---- CUETools DB Plugin V2.1.6
[CTDB TOCID: 0tgdwsNEu6ggn39pJZXKoqpd4j8-] found
Submit result: 0tgdwsNEu6ggn39pJZXKoqpd4j8- has been confirmed
Track | CTDB Status
1 | (1/1) Accurately ripped
2 | (1/1) Accurately ripped
3 | (1/1) Accurately ripped
4 | (1/1) Accurately ripped
5 | (1/1) Accurately ripped
6 | (1/1) Accurately ripped
7 | (1/1) Accurately ripped
8 | (1/1) Accurately ripped
9 | (1/1) Accurately ripped
10 | (1/1) Accurately ripped
11 | (1/1) Accurately ripped
12 | (1/1) Accurately ripped
13 | (1/1) Accurately ripped
14 | (1/1) Accurately ripped
15 | (1/1) Accurately ripped
16 | (1/1) Accurately ripped
17 | (1/1) Accurately ripped
18 | (1/1) Accurately ripped
19 | (1/1) Accurately ripped
20 | (1/1) Accurately ripped
21 | (1/1) Accurately ripped
22 | (1/1) Accurately ripped
23 | (1/1) Accurately ripped
24 | (1/1) Accurately ripped
25 | (1/1) Accurately ripped
26 | (1/1) Accurately ripped
27 | (1/1) Accurately ripped
==== Log checksum ED31E17E576D19407B7660D13BDAACE20B5135400ACDDF4E0F9851169CA12512 ====
 
Содержание индексной карты (.CUE)
REM GENRE R&B
REM DATE 2013
REM DISCID 7C0F441B
REM COMMENT "ExactAudioCopy v1.0b6"
PERFORMER "Various"
TITLE "The Birth Of Northern Soul!"
FILE "01 - H B Barnum - It Hurts Too Much To Cry.wav" WAVE
TRACK 01 AUDIO
TITLE "It Hurts Too Much To Cry"
PERFORMER "H B Barnum"
INDEX 01 00:00:00
FILE "02 - Billy Bland - My Heart's On Fire.wav" WAVE
TRACK 02 AUDIO
TITLE "My Heart's On Fire"
PERFORMER "Billy Bland"
INDEX 01 00:00:00
FILE "03 - Bobby Guy - Good Enough.wav" WAVE
TRACK 03 AUDIO
TITLE "Good Enough"
PERFORMER "Bobby Guy"
INDEX 01 00:00:00
FILE "04 - Sherri Taylor - He's The One That Rings My Bell.wav" WAVE
TRACK 04 AUDIO
TITLE "He's The One That Rings My Bell"
PERFORMER "Sherri Taylor"
INDEX 01 00:00:00
FILE "05 - Ruby Johnson - I Received Your Message.wav" WAVE
TRACK 05 AUDIO
TITLE "I Received Your Message"
PERFORMER "Ruby Johnson"
INDEX 01 00:00:00
FILE "06 - Eddie Bo - Every Dog Got His Day.wav" WAVE
TRACK 06 AUDIO
TITLE "Every Dog Got His Day"
PERFORMER "Eddie Bo"
INDEX 01 00:00:00
FILE "07 - Helen Troy - I Think I Love You.wav" WAVE
TRACK 07 AUDIO
TITLE "I Think I Love You"
PERFORMER "Helen Troy "
INDEX 01 00:00:00
FILE "08 - Shorty Billups - Bend A Little.wav" WAVE
TRACK 08 AUDIO
TITLE "Bend A Little"
PERFORMER "Shorty Billups"
INDEX 01 00:00:00
FILE "09 - Little Willie John - My Nerves.wav" WAVE
TRACK 09 AUDIO
TITLE "My Nerves"
PERFORMER "Little Willie John"
INDEX 01 00:00:00
FILE "10 - Willie Cobbs - You Don't Love.wav" WAVE
TRACK 10 AUDIO
TITLE "You Don't Love"
PERFORMER "Willie Cobbs"
INDEX 01 00:00:00
FILE "11 - Piney Brown and his Blues Toppers - Sugar In My Tea (Cream In My Coffee).wav" WAVE
TRACK 11 AUDIO
TITLE "Sugar In My Tea (Cream In My Coffee)"
PERFORMER "Piney Brown and his Blues Toppers"
INDEX 01 00:00:00
FILE "12 - Marie Knight - Come On Baby (Hold My Hand).wav" WAVE
TRACK 12 AUDIO
TITLE "Come On Baby (Hold My Hand)"
PERFORMER "Marie Knight"
INDEX 01 00:00:00
FILE "13 - Sam Myers - You Don't Have To Go.wav" WAVE
TRACK 13 AUDIO
TITLE "You Don't Have To Go"
PERFORMER "Sam Myers"
INDEX 01 00:00:00
FILE "14 - Ruth Brown - I Burned Your Letter.wav" WAVE
TRACK 14 AUDIO
TITLE "I Burned Your Letter"
PERFORMER "Ruth Brown"
INDEX 01 00:00:00
FILE "15 - Joe Tex - Pneumonia.wav" WAVE
TRACK 15 AUDIO
TITLE "Pneumonia"
PERFORMER "Joe Tex"
INDEX 01 00:00:00
FILE "16 - Anna Belle Caesar - Little Annie.wav" WAVE
TRACK 16 AUDIO
TITLE "Little Annie"
PERFORMER "Anna Belle Caesar"
INDEX 01 00:00:00
FILE "17 - Willie J. Charles - Feelin' Kind A Lonesome.wav" WAVE
TRACK 17 AUDIO
TITLE "Feelin' Kind A Lonesome"
PERFORMER "Willie J. Charles "
INDEX 01 00:00:00
FILE "18 - Blanche Thomas - You Ain't So Such A Much.wav" WAVE
TRACK 18 AUDIO
TITLE "You Ain't So Such A Much"
PERFORMER "Blanche Thomas"
INDEX 01 00:00:00
FILE "19 - Billy (The Kid) Emerson - I Never Get Enough.wav" WAVE
TRACK 19 AUDIO
TITLE "I Never Get Enough"
PERFORMER "Billy (The Kid) Emerson"
INDEX 01 00:00:00
FILE "20 - Young Jessie - I Smell A Rat.wav" WAVE
TRACK 20 AUDIO
TITLE "I Smell A Rat"
PERFORMER "Young Jessie"
INDEX 01 00:00:00
FILE "21 - Harold Burrage - She Knocks Me Out.wav" WAVE
TRACK 21 AUDIO
TITLE "She Knocks Me Out"
PERFORMER "Harold Burrage"
INDEX 01 00:00:00
FILE "22 - Johnny Love - Chills And Fever.wav" WAVE
TRACK 22 AUDIO
TITLE "Chills And Fever"
PERFORMER "Johnny Love"
INDEX 01 00:00:00
FILE "23 - Carl Lester & The Show Stoppers - When You See Me Hurt.wav" WAVE
TRACK 23 AUDIO
TITLE "When You See Me Hurt"
PERFORMER "Carl Lester & The Show Stoppers"
INDEX 01 00:00:00
FILE "24 - Lenny Johnson - Walk Ginny Walk.wav" WAVE
TRACK 24 AUDIO
TITLE "Walk Ginny Walk"
PERFORMER "Lenny Johnson"
INDEX 01 00:00:00
FILE "25 - Jo Ann Henderson - Baby Please Don't Go.wav" WAVE
TRACK 25 AUDIO
TITLE "Baby Please Don't Go"
PERFORMER "Jo Ann Henderson"
INDEX 01 00:00:00
FILE "26 - Larry Birdsong - Since You Left Me Behind.wav" WAVE
TRACK 26 AUDIO
TITLE "Since You Left Me Behind"
PERFORMER "Larry Birdsong"
INDEX 01 00:00:00
FILE "27 - Jerry Jackson - Wide Awake In A Dream.wav" WAVE
TRACK 27 AUDIO
TITLE "Wide Awake In A Dream"
PERFORMER "Jerry Jackson "
INDEX 01 00:00:00
 
Об альбоме (сборнике)
No.3 in the roots of Northern Soul series, hot on the success of the “Age Of Northern Soul” and “The Dawn Of Northern Soul”. Here we feature 27 more rare, forgotten and new-to-CD maximum R&B dancers. The album opens and ends with Northern Soul legends H B Barnum and Jerry Jackson, and sandwiched in between are Europe’s hottest R&B stompers including Anna Belle Caesar, Willie J Charles and the fabulous Ruby Johnson.
Приватный:
Нет (DHT включён)
Размер:
328.55 Мб (344,508,989 байт) » файлов: 40
Участники:
0 раздают, 0 качают (0 участников всего)
Внешние участники:
2 раздают, 1 качают (3 участников всего) [ Обновить ]
No seeders - write personal message to user M0p94ok. Нет сидеров - пишите личное сообщение пользователю M0p94ok.
09:14
80
Нет комментариев. Ваш будет первым!