Поиск

(Soul/Funk/Disco) VA - The Tabu Records Box Set (2014), FLAC (tracks+.cue),lossless

(Soul/Funk/Disco) VA - The Tabu Records Box Set (2014), FLAC (tracks+.cue),lossless
Треклист:

VA - The Tabu Records Box Set

Жанр: Soul, Funk, Disco, Jazz
Страна-производитель диска (релиза): UK
Год издания: 2014
Издатель (лейбл): Tabu Records
Номер по каталогу: TABUBOX001
Страна исполнителя (группы): USA
Аудиокодек: FLAC (*.flac)
Тип рипа: tracks+.cue
Битрейт аудио: lossless
Продолжительность: 7:56:01
Источник (релизер): Unknown
Наличие сканов в содержимом раздачи: нет
Треклист:
 
CD1 - Introducing TABU
01. Wake Up & Be Somebody 06:22 - Brainstorm
02. No One Home 06:40 - Lalo Schifrin
03. Take Your Time Do It Right 07:23 - S.O.S. Band
04. Universal Love 04:25 - Woods Empire
05. Jungle Kitten 03:37 - Manfredo Fest
06. Changin' 06:21 - Sharon Ridley
07. Middle of the Night 03:59 - Lalo Schifrin
08. Waiting For Someone 06:11 - Brainstorm
09. Are You Ready? 05:06 - S.O.S. Band
10. Full Moon 04:45 - Sharon Ridley
11. Enchanted Flame 05:19 - Lalo Schifrin
12. Stormin' 04:15 - Brainstorm
13. Koko and Leeroe 04:48 - Manfredo Fest
14. Guess I'm Gonna Have To Say Goodbye 03:02 - Sharon Ridley
15. Journey To the Light 05:45 - Brainstorm
 
Log
Exact Audio Copy V1.0 beta 3 from 29. August 2011
EAC extraction logfile from 4. March 2014, 7:48
Various / The Tabu Records Box Set CD1 - Introducing Tabu
Used drive : PIONEER BD-RW BDR-207D Adapter: 4 ID: 0
Read mode : Secure
Utilize accurate stream : Yes
Defeat audio cache : Yes
Make use of C2 pointers : No
Read offset correction : 667
Overread into Lead-In and Lead-Out : No
Fill up missing offset samples with silence : Yes
Delete leading and trailing silent blocks : No
Null samples used in CRC calculations : Yes
Used interface : Native Win32 interface for Win NT & 2000
Gap handling : Appended to previous track
Used output format : User Defined Encoder
Selected bitrate : 1024 kBit/s
Quality : High
Add ID3 tag : No
Command line compressor : C:\Program Files (x86)\Exact Audio Copy\Flac\flac.exe
Additional command line options : -8 -V -T "artist=%artist%" -T "title=%title%" -T "album=%albumtitle%" -T "date=%year%" -T "tracknumber=%tracknr%" -T "genre=%genre%" %source%
TOC of the extracted CD
Track | Start | Length | Start sector | End sector
---------------------------------------------------------
1 | 0:00.00 | 6:23.72 | 0 | 28796
2 | 6:23.72 | 6:48.46 | 28797 | 59442
3 | 13:12.43 | 7:43.36 | 59443 | 94203
4 | 20:56.04 | 4:22.13 | 94204 | 113866
5 | 25:18.17 | 3:37.30 | 113867 | 130171
6 | 28:55.47 | 6:29.63 | 130172 | 159409
7 | 35:25.35 | 4:04.08 | 159410 | 177717
8 | 39:29.43 | 6:09.42 | 177718 | 205434
9 | 45:39.10 | 5:07.22 | 205435 | 228481
10 | 50:46.32 | 4:51.07 | 228482 | 250313
11 | 55:37.39 | 5:20.21 | 250314 | 274334
12 | 60:57.60 | 4:16.00 | 274335 | 293534
13 | 65:13.60 | 4:52.70 | 293535 | 315504
14 | 70:06.55 | 3:05.14 | 315505 | 329393
15 | 73:11.69 | 5:40.02 | 329394 | 354895
Track 1
Filename H:\!!!!!!!!!!!!!!!!!!! EAC RIPS\Various - The Tabu Records Box Set\CD1\01 - Brainstorm - Wake Up & Be Somebody.wav
Pre-gap length 0:00:02.00
Peak level 96.6 %
Extraction speed 5.2 X
Track quality 100.0 %
Test CRC 99B66528
Copy CRC 99B66528
Track not present in AccurateRip database
Copy OK
Track 2
Filename H:\!!!!!!!!!!!!!!!!!!! EAC RIPS\Various - The Tabu Records Box Set\CD1\02 - Lalo Schifrin - No One Home.wav
Pre-gap length 0:00:02.00
Peak level 96.6 %
Extraction speed 5.8 X
Track quality 100.0 %
Test CRC 6F1F2B88
Copy CRC 6F1F2B88
Track not present in AccurateRip database
Copy OK
Track 3
Filename H:\!!!!!!!!!!!!!!!!!!! EAC RIPS\Various - The Tabu Records Box Set\CD1\03 - The S.O.S. Band - Take Your Time Do It Right.wav
Pre-gap length 0:00:02.00
Peak level 96.5 %
Extraction speed 6.1 X
Track quality 99.9 %
Test CRC 10F32328
Copy CRC 10F32328
Track not present in AccurateRip database
Copy OK
Track 4
Filename H:\!!!!!!!!!!!!!!!!!!! EAC RIPS\Various - The Tabu Records Box Set\CD1\04 - Woods Empire - Universal Love.wav
Pre-gap length 0:00:02.00
Peak level 96.6 %
Extraction speed 6.6 X
Track quality 100.0 %
Test CRC C8563981
Copy CRC C8563981
Track not present in AccurateRip database
Copy OK
Track 5
Filename H:\!!!!!!!!!!!!!!!!!!! EAC RIPS\Various - The Tabu Records Box Set\CD1\05 - Manfredo Fest - Jungle Kitten.wav
Pre-gap length 0:00:02.00
Peak level 96.6 %
Extraction speed 6.7 X
Track quality 100.0 %
Test CRC B8134770
Copy CRC B8134770
Track not present in AccurateRip database
Copy OK
Track 6
Filename H:\!!!!!!!!!!!!!!!!!!! EAC RIPS\Various - The Tabu Records Box Set\CD1\06 - Sharon Ridley - Changin'.wav
Pre-gap length 0:00:02.00
Peak level 96.6 %
Extraction speed 7.5 X
Track quality 100.0 %
Test CRC A1955B7E
Copy CRC A1955B7E
Track not present in AccurateRip database
Copy OK
Track 7
Filename H:\!!!!!!!!!!!!!!!!!!! EAC RIPS\Various - The Tabu Records Box Set\CD1\07 - Lalo Schifrin - Middle Of The Night.wav
Pre-gap length 0:00:02.00
Peak level 96.6 %
Extraction speed 7.3 X
Track quality 100.0 %
Test CRC E8615BD1
Copy CRC E8615BD1
Track not present in AccurateRip database
Copy OK
Track 8
Filename H:\!!!!!!!!!!!!!!!!!!! EAC RIPS\Various - The Tabu Records Box Set\CD1\08 - Brainstorm - Waiting For Someone.wav
Pre-gap length 0:00:02.00
Peak level 96.6 %
Extraction speed 7.9 X
Track quality 100.0 %
Test CRC 16C4CA9B
Copy CRC 16C4CA9B
Track not present in AccurateRip database
Copy OK
Track 9
Filename H:\!!!!!!!!!!!!!!!!!!! EAC RIPS\Various - The Tabu Records Box Set\CD1\09 - The S.O.S. Band - Are You Ready.wav
Pre-gap length 0:00:02.00
Peak level 96.6 %
Extraction speed 8.0 X
Track quality 100.0 %
Test CRC 5FA6B336
Copy CRC 5FA6B336
Track not present in AccurateRip database
Copy OK
Track 10
Filename H:\!!!!!!!!!!!!!!!!!!! EAC RIPS\Various - The Tabu Records Box Set\CD1\10 - Sharon Ridley - Full Moon.wav
Pre-gap length 0:00:02.00
Peak level 96.6 %
Extraction speed 8.3 X
Track quality 100.0 %
Test CRC 5AC2FD4D
Copy CRC 5AC2FD4D
Track not present in AccurateRip database
Copy OK
Track 11
Filename H:\!!!!!!!!!!!!!!!!!!! EAC RIPS\Various - The Tabu Records Box Set\CD1\11 - Lalo Schifrin - Enchanted Flame.wav
Pre-gap length 0:00:02.00
Peak level 96.6 %
Extraction speed 8.5 X
Track quality 100.0 %
Test CRC 2607F269
Copy CRC 2607F269
Track not present in AccurateRip database
Copy OK
Track 12
Filename H:\!!!!!!!!!!!!!!!!!!! EAC RIPS\Various - The Tabu Records Box Set\CD1\12 - Brainstorm - Stormin'.wav
Pre-gap length 0:00:02.00
Peak level 96.6 %
Extraction speed 8.5 X
Track quality 100.0 %
Test CRC 67B44635
Copy CRC 67B44635
Track not present in AccurateRip database
Copy OK
Track 13
Filename H:\!!!!!!!!!!!!!!!!!!! EAC RIPS\Various - The Tabu Records Box Set\CD1\13 - Manfredo Fest - Koko And Leeroe.wav
Pre-gap length 0:00:02.00
Peak level 96.6 %
Extraction speed 8.9 X
Track quality 100.0 %
Test CRC 2E6FF6A9
Copy CRC 2E6FF6A9
Track not present in AccurateRip database
Copy OK
Track 14
Filename H:\!!!!!!!!!!!!!!!!!!! EAC RIPS\Various - The Tabu Records Box Set\CD1\14 - Sharon Ridley - Guess I'm Gonna Have To Say Goodbye.wav
Pre-gap length 0:00:02.00
Peak level 96.6 %
Extraction speed 8.5 X
Track quality 100.0 %
Test CRC 9F4FC8A2
Copy CRC 9F4FC8A2
Track not present in AccurateRip database
Copy OK
Track 15
Filename H:\!!!!!!!!!!!!!!!!!!! EAC RIPS\Various - The Tabu Records Box Set\CD1\15 - Brainstorm - Journey To The Light.wav
Pre-gap length 0:00:02.00
Peak level 96.6 %
Extraction speed 9.4 X
Track quality 100.0 %
Test CRC 29C74871
Copy CRC 29C74871
Track not present in AccurateRip database
Copy OK
None of the tracks are present in the AccurateRip database
No errors occurred
End of status report
---- CUETools DB Plugin V2.1.3
[CTDB TOCID: ETAMAQGmpXnNgGRs5yYQ69Vecf4-] disk not present in database, Submit result: ETAMAQGmpXnNgGRs5yYQ69Vecf4- has been uploaded
==== Log checksum A7DC2503D4268744E1C3535D86B9C73FF9D30C38063B4A573B5372E81B5A0657 ====
 
Содержание индексной карты (.CUE)
REM GENRE Soul
REM DATE 2014
REM DISCID E2127B0F
REM COMMENT "ExactAudioCopy v1.0b3"
PERFORMER Various
TITLE "The Tabu Records Box Set CD1 - Introducing Tabu"
FILE "2014 The Tabu Records Box Set CD1 - Introducing Tabu.wav" WAVE
TRACK 01 AUDIO
TITLE "Wake Up & Be Somebody"
PERFORMER Brainstorm
ISRC GBBLG7600381
INDEX 01 00:00:00
TRACK 02 AUDIO
TITLE "No One Home"
PERFORMER "Lalo Schifrin"
ISRC GBBLG7900456
INDEX 00 06:21:72
FILE "2014 The Tabu Records Box Set CD1 - Introducing Tabu.wav" WAVE
INDEX 01 00:00:00
TRACK 03 AUDIO
TITLE "Take Your Time Do It Right"
PERFORMER "The S.O.S. Band"
ISRC GBBLG1300977
INDEX 00 06:46:46
FILE "2014 The Tabu Records Box Set CD1 - Introducing Tabu.wav" WAVE
INDEX 01 00:00:00
TRACK 04 AUDIO
TITLE "Universal Love"
PERFORMER "Woods Empire"
INDEX 00 07:41:36
FILE "2014 The Tabu Records Box Set CD1 - Introducing Tabu.wav" WAVE
INDEX 01 00:00:00
TRACK 05 AUDIO
TITLE "Jungle Kitten"
PERFORMER "Manfredo Fest"
ISRC GBBLG8300159
INDEX 00 04:20:13
FILE "2014 The Tabu Records Box Set CD1 - Introducing Tabu.wav" WAVE
INDEX 01 00:00:00
TRACK 06 AUDIO
TITLE Changin'
PERFORMER "Sharon Ridley"
ISRC GBBLG7800333
INDEX 00 03:35:30
FILE "2014 The Tabu Records Box Set CD1 - Introducing Tabu.wav" WAVE
INDEX 01 00:00:00
TRACK 07 AUDIO
TITLE "Middle Of The Night"
PERFORMER "Lalo Schifrin"
ISRC GBBLG7900461
INDEX 00 06:27:63
FILE "2014 The Tabu Records Box Set CD1 - Introducing Tabu.wav" WAVE
INDEX 01 00:00:00
TRACK 08 AUDIO
TITLE "Waiting For Someone"
PERFORMER Brainstorm
ISRC GBBLG7700342
INDEX 00 04:02:08
FILE "2014 The Tabu Records Box Set CD1 - Introducing Tabu.wav" WAVE
INDEX 01 00:00:00
TRACK 09 AUDIO
TITLE "Are You Ready"
PERFORMER "The S.O.S. Band"
INDEX 00 06:07:42
FILE "2014 The Tabu Records Box Set CD1 - Introducing Tabu.wav" WAVE
INDEX 01 00:00:00
TRACK 10 AUDIO
TITLE "Full Moon"
PERFORMER "Sharon Ridley"
INDEX 00 05:05:22
FILE "2014 The Tabu Records Box Set CD1 - Introducing Tabu.wav" WAVE
INDEX 01 00:00:00
TRACK 11 AUDIO
TITLE "Enchanted Flame"
PERFORMER "Lalo Schifrin"
ISRC GBBLG7900458
INDEX 00 04:49:07
FILE "2014 The Tabu Records Box Set CD1 - Introducing Tabu.wav" WAVE
INDEX 01 00:00:00
TRACK 12 AUDIO
TITLE Stormin'
PERFORMER Brainstorm
ISRC GBBLG7700346
INDEX 00 05:18:21
FILE "2014 The Tabu Records Box Set CD1 - Introducing Tabu.wav" WAVE
INDEX 01 00:00:00
TRACK 13 AUDIO
TITLE "Koko And Leeroe"
PERFORMER "Manfredo Fest"
ISRC GBBLG8300160
INDEX 00 04:14:00
FILE "2014 The Tabu Records Box Set CD1 - Introducing Tabu.wav" WAVE
INDEX 01 00:00:00
TRACK 14 AUDIO
TITLE "Guess I'm Gonna Have To Say Goodbye"
PERFORMER "Sharon Ridley"
ISRC GBBLG7800337
INDEX 00 04:50:70
FILE "2014 The Tabu Records Box Set CD1 - Introducing Tabu.wav" WAVE
INDEX 01 00:00:00
TRACK 15 AUDIO
TITLE "Journey To The Light"
PERFORMER Brainstorm
ISRC USYS90200001
INDEX 00 03:03:14
FILE "2014 The Tabu Records Box Set CD1 - Introducing Tabu.wav" WAVE
INDEX 01 00:00:00
 
CD2 - At The Dance
01. S.O.S. (Dit Dit Dat Dat) 05:34 - S.O.S. Band
02. Lovin' is Really My Game 05:00 - Brainstorm
03. Sweet Delight (Special Mix) 06:55 - Woods Empire
04. Groovin' (That's What We're Doin') 04:28 - S.O.S. Band
05. Knock Down the Walls 05:07 - General Caine
06. Sister Fine 04:04 - Lamont Johnson
07. Can't Get Enough 05:47 - S.O.S. Band
08. Your Unchanging Love 03:16 - Anacostia
09. Oh Darlin...Life Goes On 04:32 - Lalo Schifrin
10. Girls 05:53 - General Caine
11. Love Won't Wait For Love 05:35 - S.O.S. Band
12. Who Needs It 04:23 - Manfredo Fest
13. Hangin' On 04:17 - Brainstorm
14. Looking For You 04:31 - S.O.S. Band
15. Hot For You 10:48 - Brainstorm
 
Log
Exact Audio Copy V1.0 beta 3 from 29. August 2011
EAC extraction logfile from 5. March 2014, 7:14
Various / The Tabu Records Box Set CD2 - At The Dance
Used drive : PIONEER BD-RW BDR-207D Adapter: 4 ID: 0
Read mode : Secure
Utilize accurate stream : Yes
Defeat audio cache : Yes
Make use of C2 pointers : No
Read offset correction : 667
Overread into Lead-In and Lead-Out : No
Fill up missing offset samples with silence : Yes
Delete leading and trailing silent blocks : No
Null samples used in CRC calculations : Yes
Used interface : Native Win32 interface for Win NT & 2000
Gap handling : Appended to previous track
Used output format : User Defined Encoder
Selected bitrate : 1024 kBit/s
Quality : High
Add ID3 tag : No
Command line compressor : C:\Program Files (x86)\Exact Audio Copy\Flac\flac.exe
Additional command line options : -8 -V -T "artist=%artist%" -T "title=%title%" -T "album=%albumtitle%" -T "date=%year%" -T "tracknumber=%tracknr%" -T "genre=%genre%" %source%
TOC of the extracted CD
Track | Start | Length | Start sector | End sector
---------------------------------------------------------
1 | 0:00.00 | 5:45.11 | 0 | 25885
2 | 5:45.11 | 4:53.36 | 25886 | 47896
3 | 10:38.47 | 6:56.23 | 47897 | 79119
4 | 17:34.70 | 4:21.45 | 79120 | 98739
5 | 21:56.40 | 5:10.06 | 98740 | 121995
6 | 27:06.46 | 4:12.49 | 121996 | 140944
7 | 31:19.20 | 5:47.00 | 140945 | 166969
8 | 37:06.20 | 3:16.02 | 166970 | 181671
9 | 40:22.22 | 4:34.35 | 181672 | 202256
10 | 44:56.57 | 5:52.30 | 202257 | 228686
11 | 50:49.12 | 5:15.72 | 228687 | 252383
12 | 56:05.09 | 4:27.47 | 252384 | 272455
13 | 60:32.56 | 4:15.48 | 272456 | 291628
14 | 64:48.29 | 4:30.48 | 291629 | 311926
15 | 69:19.02 | 10:06.51 | 311927 | 357427
Track 1
Filename H:\!!!!!!!!!!!!!!!!!!! EAC RIPS\Various - The Tabu Records Box Set\CD2\01 - The S.O.S. Band - S.O.S. (Dit Dit Dat Dat).wav
Pre-gap length 0:00:02.00
Peak level 96.6 %
Extraction speed 5.1 X
Track quality 100.0 %
Test CRC 3ACFF1A5
Copy CRC 3ACFF1A5
Track not present in AccurateRip database
Copy OK
Track 2
Filename H:\!!!!!!!!!!!!!!!!!!! EAC RIPS\Various - The Tabu Records Box Set\CD2\02 - Brainstorm - Lovin' Is Really My Game.wav
Pre-gap length 0:00:02.00
Peak level 96.6 %
Extraction speed 5.0 X
Track quality 99.9 %
Test CRC B31F1F92
Copy CRC B31F1F92
Track not present in AccurateRip database
Copy OK
Track 3
Filename H:\!!!!!!!!!!!!!!!!!!! EAC RIPS\Various - The Tabu Records Box Set\CD2\03 - Woods Empire - Sweet Delight (Special Mix).wav
Pre-gap length 0:00:02.00
Peak level 96.6 %
Extraction speed 5.8 X
Track quality 99.9 %
Test CRC DD66029A
Copy CRC DD66029A
Track not present in AccurateRip database
Copy OK
Track 4
Filename H:\!!!!!!!!!!!!!!!!!!! EAC RIPS\Various - The Tabu Records Box Set\CD2\04 - The S.O.S. Band - Groovin' (That's What We're Doin').wav
Pre-gap length 0:00:02.00
Peak level 96.6 %
Extraction speed 5.7 X
Track quality 99.9 %
Test CRC 5ACDB25D
Copy CRC 5ACDB25D
Track not present in AccurateRip database
Copy OK
Track 5
Filename H:\!!!!!!!!!!!!!!!!!!! EAC RIPS\Various - The Tabu Records Box Set\CD2\05 - General Caine - Knock Down The Walls.wav
Pre-gap length 0:00:02.00
Peak level 96.6 %
Extraction speed 6.2 X
Track quality 99.9 %
Test CRC 0403F202
Copy CRC 0403F202
Track not present in AccurateRip database
Copy OK
Track 6
Filename H:\!!!!!!!!!!!!!!!!!!! EAC RIPS\Various - The Tabu Records Box Set\CD2\06 - Lamont Johnson - Sister Fine.wav
Pre-gap length 0:00:02.00
Peak level 96.6 %
Extraction speed 6.2 X
Track quality 99.9 %
Test CRC 13DACBA9
Copy CRC 13DACBA9
Track not present in AccurateRip database
Copy OK
Track 7
Filename H:\!!!!!!!!!!!!!!!!!!! EAC RIPS\Various - The Tabu Records Box Set\CD2\07 - The S.O.S. Band - Can't Get Enough.wav
Pre-gap length 0:00:02.00
Peak level 96.6 %
Extraction speed 7.5 X
Track quality 100.0 %
Test CRC 125F0C1F
Copy CRC 125F0C1F
Track not present in AccurateRip database
Copy OK
Track 8
Filename H:\!!!!!!!!!!!!!!!!!!! EAC RIPS\Various - The Tabu Records Box Set\CD2\08 - Anacostia - Your Unchanging Love.wav
Pre-gap length 0:00:02.00
Peak level 96.6 %
Extraction speed 7.1 X
Track quality 100.0 %
Test CRC 22B683E2
Copy CRC 22B683E2
Track not present in AccurateRip database
Copy OK
Track 9
Filename H:\!!!!!!!!!!!!!!!!!!! EAC RIPS\Various - The Tabu Records Box Set\CD2\09 - Lalo Schifrin - Oh Darlin...Life Goes On.wav
Pre-gap length 0:00:02.00
Peak level 96.6 %
Extraction speed 7.7 X
Track quality 100.0 %
Test CRC 13766235
Copy CRC 13766235
Track not present in AccurateRip database
Copy OK
Track 10
Filename H:\!!!!!!!!!!!!!!!!!!! EAC RIPS\Various - The Tabu Records Box Set\CD2\10 - General Caine - Girls.wav
Pre-gap length 0:00:02.00
Peak level 96.6 %
Extraction speed 8.2 X
Track quality 100.0 %
Test CRC A3297951
Copy CRC A3297951
Track not present in AccurateRip database
Copy OK
Track 11
Filename H:\!!!!!!!!!!!!!!!!!!! EAC RIPS\Various - The Tabu Records Box Set\CD2\11 - The S.O.S. Band - Love Won't Wait For Love.wav
Pre-gap length 0:00:02.00
Peak level 96.6 %
Extraction speed 8.4 X
Track quality 100.0 %
Test CRC 37BC59A6
Copy CRC 37BC59A6
Track not present in AccurateRip database
Copy OK
Track 12
Filename H:\!!!!!!!!!!!!!!!!!!! EAC RIPS\Various - The Tabu Records Box Set\CD2\12 - Manfredo Fest - Who Needs It.wav
Pre-gap length 0:00:02.00
Peak level 96.6 %
Extraction speed 8.4 X
Track quality 100.0 %
Test CRC E42A8682
Copy CRC E42A8682
Track not present in AccurateRip database
Copy OK
Track 13
Filename H:\!!!!!!!!!!!!!!!!!!! EAC RIPS\Various - The Tabu Records Box Set\CD2\13 - Brainstorm - Hangin' On.wav
Pre-gap length 0:00:02.00
Peak level 96.6 %
Extraction speed 7.6 X
Track quality 99.9 %
Test CRC 7F0AA5F3
Copy CRC 7F0AA5F3
Track not present in AccurateRip database
Copy OK
Track 14
Filename H:\!!!!!!!!!!!!!!!!!!! EAC RIPS\Various - The Tabu Records Box Set\CD2\14 - The S.O.S. Band - Looking For You.wav
Pre-gap length 0:00:02.00
Peak level 96.6 %
Extraction speed 8.8 X
Track quality 100.0 %
Test CRC 0F5B36C9
Copy CRC 0F5B36C9
Track not present in AccurateRip database
Copy OK
Track 15
Filename H:\!!!!!!!!!!!!!!!!!!! EAC RIPS\Various - The Tabu Records Box Set\CD2\15 - Brainstorm - Hot For You.wav
Pre-gap length 0:00:02.00
Peak level 96.6 %
Extraction speed 9.8 X
Track quality 100.0 %
Test CRC A8998C8C
Copy CRC A8998C8C
Track not present in AccurateRip database
Copy OK
None of the tracks are present in the AccurateRip database
No errors occurred
End of status report
---- CUETools DB Plugin V2.1.3
[CTDB TOCID: jqU8JqcZeUE1RNcSomURFQgCKE4-] disk not present in database, Submit result: jqU8JqcZeUE1RNcSomURFQgCKE4- has been uploaded
==== Log checksum A0C0C16F560A39A9CCCFD2BA62D49BC7608B45D555A786331F00D183034A4634 ====
 
Содержание индексной карты (.CUE)
REM GENRE Soul
REM DATE 2014
REM DISCID D5129D0F
REM COMMENT "ExactAudioCopy v1.0b3"
PERFORMER Various
TITLE "The Tabu Records Box Set CD2 - At The Dance"
FILE "2014 The Tabu Records Box Set CD2 - At The Dance.wav" WAVE
TRACK 01 AUDIO
TITLE "S.O.S. (Dit Dit Dat Dat)"
PERFORMER "The S.O.S. Band"
ISRC GBBLG1300973
INDEX 01 00:00:00
TRACK 02 AUDIO
TITLE "Lovin' Is Really My Game"
PERFORMER Brainstorm
ISRC GBBLG7700341
INDEX 00 05:43:11
FILE "2014 The Tabu Records Box Set CD2 - At The Dance.wav" WAVE
INDEX 01 00:00:00
TRACK 03 AUDIO
TITLE "Sweet Delight (Special Mix)"
PERFORMER "Woods Empire"
ISRC GBBLG8100294
INDEX 00 04:51:36
FILE "2014 The Tabu Records Box Set CD2 - At The Dance.wav" WAVE
INDEX 01 00:00:00
TRACK 04 AUDIO
TITLE "Groovin' (That's What We're Doin')"
PERFORMER "The S.O.S. Band"
ISRC GBBLG1300998
INDEX 00 06:54:23
FILE "2014 The Tabu Records Box Set CD2 - At The Dance.wav" WAVE
INDEX 01 00:00:00
TRACK 05 AUDIO
TITLE "Knock Down The Walls"
PERFORMER "General Caine"
ISRC GBBLG8200280
INDEX 00 04:19:45
FILE "2014 The Tabu Records Box Set CD2 - At The Dance.wav" WAVE
INDEX 01 00:00:00
TRACK 06 AUDIO
TITLE "Sister Fine"
PERFORMER "Lamont Johnson"
INDEX 00 05:08:06
FILE "2014 The Tabu Records Box Set CD2 - At The Dance.wav" WAVE
INDEX 01 00:00:00
TRACK 07 AUDIO
TITLE "Can't Get Enough"
PERFORMER "The S.O.S. Band"
ISRC GBBLG1300990
INDEX 00 04:10:49
FILE "2014 The Tabu Records Box Set CD2 - At The Dance.wav" WAVE
INDEX 01 00:00:00
TRACK 08 AUDIO
TITLE "Your Unchanging Love"
PERFORMER Anacostia
ISRC GBBLG7800315
INDEX 00 05:45:00
FILE "2014 The Tabu Records Box Set CD2 - At The Dance.wav" WAVE
INDEX 01 00:00:00
TRACK 09 AUDIO
TITLE "Oh Darlin...Life Goes On"
PERFORMER "Lalo Schifrin"
ISRC GBBLG7900457
INDEX 00 03:14:02
FILE "2014 The Tabu Records Box Set CD2 - At The Dance.wav" WAVE
INDEX 01 00:00:00
TRACK 10 AUDIO
TITLE Girls
PERFORMER "General Caine"
ISRC GBBLG8200278
INDEX 00 04:32:35
FILE "2014 The Tabu Records Box Set CD2 - At The Dance.wav" WAVE
INDEX 01 00:00:00
TRACK 11 AUDIO
TITLE "Love Won't Wait For Love"
PERFORMER "The S.O.S. Band"
ISRC GBBLG1300976
INDEX 00 05:50:30
FILE "2014 The Tabu Records Box Set CD2 - At The Dance.wav" WAVE
INDEX 01 00:00:00
TRACK 12 AUDIO
TITLE "Who Needs It"
PERFORMER "Manfredo Fest"
ISRC GBBLG8300163
INDEX 00 05:13:72
FILE "2014 The Tabu Records Box Set CD2 - At The Dance.wav" WAVE
INDEX 01 00:00:00
TRACK 13 AUDIO
TITLE "Hangin' On"
PERFORMER Brainstorm
INDEX 00 04:25:47
FILE "2014 The Tabu Records Box Set CD2 - At The Dance.wav" WAVE
INDEX 01 00:00:00
TRACK 14 AUDIO
TITLE "Looking For You"
PERFORMER "The S.O.S. Band"
ISRC GBBLG1300995
INDEX 00 04:13:48
FILE "2014 The Tabu Records Box Set CD2 - At The Dance.wav" WAVE
INDEX 01 00:00:00
TRACK 15 AUDIO
TITLE "Hot For You"
PERFORMER Brainstorm
ISRC GBBLG7900431
INDEX 00 04:28:48
FILE "2014 The Tabu Records Box Set CD2 - At The Dance.wav" WAVE
INDEX 01 00:00:00
 
CD3 - Romancing & Mellow Grooves
01. If You Were Here Tonight 06:11 - Alexander O'Neal
02. I Will Wait For You 03:44 - Cherrelle
03. This Must Be Heaven 04:49 - Lamont Johnson
04. Loving Just You 04:26 - Brainstorm
05. Memory of Love 04:43 - Lalo Schifrin
06. Do You Wanna Like I Do? 04:51 - Alexander O'Neal
07. Upside Down 04:21 - General Caine
08. What's Wrong With Our Love Affair? 04:55 - S.O.S. Band
09. Easy Come, Easy Go 04:56 - Lamont Johnson
10. Destiny 03:34 - Woods Empire
11. Ain't Nothing To It 03:40 - Anacostia
12. Just You and Me 04:51 - Sharon Ridley
13. Look At Us Now 05:10 - Alexander O'Neal
14. Stay With Me 04:02 - Cherrelle
15. You Put a Charge In My Life 04:09 - Brainstorm
16. I Need You Now 04:57 - Cherrelle
17. All For You 03:22 - Anacostia
 
Log
Exact Audio Copy V1.0 beta 3 from 29. August 2011
EAC extraction logfile from 5. March 2014, 7:56
Various / The Tabu Records Box Set CD3 - Romancing & Mellow Grooves
Used drive : PIONEER BD-RW BDR-207D Adapter: 4 ID: 0
Read mode : Secure
Utilize accurate stream : Yes
Defeat audio cache : Yes
Make use of C2 pointers : No
Read offset correction : 667
Overread into Lead-In and Lead-Out : No
Fill up missing offset samples with silence : Yes
Delete leading and trailing silent blocks : No
Null samples used in CRC calculations : Yes
Used interface : Native Win32 interface for Win NT & 2000
Gap handling : Appended to previous track
Used output format : User Defined Encoder
Selected bitrate : 1024 kBit/s
Quality : High
Add ID3 tag : No
Command line compressor : C:\Program Files (x86)\Exact Audio Copy\Flac\flac.exe
Additional command line options : -8 -V -T "artist=%artist%" -T "title=%title%" -T "album=%albumtitle%" -T "date=%year%" -T "tracknumber=%tracknr%" -T "genre=%genre%" %source%
TOC of the extracted CD
Track | Start | Length | Start sector | End sector
---------------------------------------------------------
1 | 0:00.00 | 6:12.13 | 0 | 27912
2 | 6:12.13 | 3:45.21 | 27913 | 44808
3 | 9:57.34 | 4:51.15 | 44809 | 66648
4 | 14:48.49 | 4:32.07 | 66649 | 87055
5 | 19:20.56 | 4:42.28 | 87056 | 108233
6 | 24:03.09 | 4:49.59 | 108234 | 129967
7 | 28:52.68 | 4:20.49 | 129968 | 149516
8 | 33:13.42 | 4:52.00 | 149517 | 171416
9 | 38:05.42 | 4:58.38 | 171417 | 193804
10 | 43:04.05 | 3:34.15 | 193805 | 209869
11 | 46:38.20 | 3:37.01 | 209870 | 226145
12 | 50:15.21 | 4:58.38 | 226146 | 248533
13 | 55:13.59 | 5:09.19 | 248534 | 271727
14 | 60:23.03 | 4:03.73 | 271728 | 290025
15 | 64:27.01 | 4:13.20 | 290026 | 309020
16 | 68:40.21 | 4:57.74 | 309021 | 331369
17 | 73:38.20 | 3:19.27 | 331370 | 346321
Track 1
Filename H:\!!!!!!!!!!!!!!!!!!! EAC RIPS\Various - The Tabu Records Box Set\CD3\01 - Alexander O'Neal - If You Were Here Tonight.wav
Pre-gap length 0:00:02.00
Peak level 96.6 %
Extraction speed 4.7 X
Track quality 99.9 %
Test CRC 65A21AD0
Copy CRC 65A21AD0
Track not present in AccurateRip database
Copy OK
Track 2
Filename H:\!!!!!!!!!!!!!!!!!!! EAC RIPS\Various - The Tabu Records Box Set\CD3\02 - Cherrelle - I Will Wait For You.wav
Pre-gap length 0:00:02.00
Peak level 98.6 %
Extraction speed 5.3 X
Track quality 100.0 %
Test CRC 51B13AC6
Copy CRC 51B13AC6
Track not present in AccurateRip database
Copy OK
Track 3
Filename H:\!!!!!!!!!!!!!!!!!!! EAC RIPS\Various - The Tabu Records Box Set\CD3\03 - Lamont Johnson - This Must Be Heaven.wav
Pre-gap length 0:00:02.00
Peak level 96.6 %
Extraction speed 5.9 X
Track quality 100.0 %
Test CRC 7D38B433
Copy CRC 7D38B433
Track not present in AccurateRip database
Copy OK
Track 4
Filename H:\!!!!!!!!!!!!!!!!!!! EAC RIPS\Various - The Tabu Records Box Set\CD3\04 - Brainstorm - Loving Just You.wav
Pre-gap length 0:00:02.00
Peak level 96.6 %
Extraction speed 6.2 X
Track quality 100.0 %
Test CRC F7B8EB71
Copy CRC F7B8EB71
Track not present in AccurateRip database
Copy OK
Track 5
Filename H:\!!!!!!!!!!!!!!!!!!! EAC RIPS\Various - The Tabu Records Box Set\CD3\05 - Lalo Schifrin - Memory Of Love.wav
Pre-gap length 0:00:02.00
Peak level 96.6 %
Extraction speed 6.6 X
Track quality 100.0 %
Test CRC B0FD75A4
Copy CRC B0FD75A4
Track not present in AccurateRip database
Copy OK
Track 6
Filename H:\!!!!!!!!!!!!!!!!!!! EAC RIPS\Various - The Tabu Records Box Set\CD3\06 - Alexander O'Neal - Do You Wanna Like I Do.wav
Pre-gap length 0:00:02.00
Peak level 96.6 %
Extraction speed 6.9 X
Track quality 100.0 %
Test CRC 2E00DFDD
Copy CRC 2E00DFDD
Track not present in AccurateRip database
Copy OK
Track 7
Filename H:\!!!!!!!!!!!!!!!!!!! EAC RIPS\Various - The Tabu Records Box Set\CD3\07 - General Caine - Upside Down.wav
Pre-gap length 0:00:02.00
Peak level 97.3 %
Extraction speed 7.1 X
Track quality 100.0 %
Test CRC B2FAE8E4
Copy CRC B2FAE8E4
Track not present in AccurateRip database
Copy OK
Track 8
Filename H:\!!!!!!!!!!!!!!!!!!! EAC RIPS\Various - The Tabu Records Box Set\CD3\08 - The S.O.S. Band - What's Wrong With Our Love Affair.wav
Pre-gap length 0:00:02.00
Peak level 96.6 %
Extraction speed 7.5 X
Track quality 100.0 %
Test CRC E7A010A1
Copy CRC E7A010A1
Track not present in AccurateRip database
Copy OK
Track 9
Filename H:\!!!!!!!!!!!!!!!!!!! EAC RIPS\Various - The Tabu Records Box Set\CD3\09 - Lamont Johnson - Easy Come, Easy Go.wav
Pre-gap length 0:00:02.00
Peak level 96.6 %
Extraction speed 7.7 X
Track quality 100.0 %
Test CRC 884C1252
Copy CRC 884C1252
Track not present in AccurateRip database
Copy OK
Track 10
Filename H:\!!!!!!!!!!!!!!!!!!! EAC RIPS\Various - The Tabu Records Box Set\CD3\10 - Woods Empire - Destiny.wav
Pre-gap length 0:00:02.00
Peak level 96.6 %
Extraction speed 7.5 X
Track quality 100.0 %
Test CRC 128DA179
Copy CRC 128DA179
Track not present in AccurateRip database
Copy OK
Track 11
Filename H:\!!!!!!!!!!!!!!!!!!! EAC RIPS\Various - The Tabu Records Box Set\CD3\11 - Anacostia - Ain't Nothing To It.wav
Pre-gap length 0:00:02.00
Peak level 96.6 %
Extraction speed 7.8 X
Track quality 100.0 %
Test CRC CAFAB7C3
Copy CRC CAFAB7C3
Track not present in AccurateRip database
Copy OK
Track 12
Filename H:\!!!!!!!!!!!!!!!!!!! EAC RIPS\Various - The Tabu Records Box Set\CD3\12 - Sharon Ridley - Just You And Me.wav
Pre-gap length 0:00:02.00
Peak level 98.5 %
Extraction speed 8.3 X
Track quality 100.0 %
Test CRC 534BA1F2
Copy CRC 534BA1F2
Track not present in AccurateRip database
Copy OK
Track 13
Filename H:\!!!!!!!!!!!!!!!!!!! EAC RIPS\Various - The Tabu Records Box Set\CD3\13 - Alexander O'Neal - Look At Us Now.wav
Pre-gap length 0:00:02.00
Peak level 96.6 %
Extraction speed 8.5 X
Track quality 100.0 %
Test CRC 04C801A5
Copy CRC 04C801A5
Track not present in AccurateRip database
Copy OK
Track 14
Filename H:\!!!!!!!!!!!!!!!!!!! EAC RIPS\Various - The Tabu Records Box Set\CD3\14 - Cherrelle - Stay With Me.wav
Pre-gap length 0:00:02.00
Peak level 98.7 %
Extraction speed 8.5 X
Track quality 100.0 %
Test CRC D144C704
Copy CRC D144C704
Track not present in AccurateRip database
Copy OK
Track 15
Filename H:\!!!!!!!!!!!!!!!!!!! EAC RIPS\Various - The Tabu Records Box Set\CD3\15 - Brainstorm - You Put A Charge In My Life.wav
Pre-gap length 0:00:02.00
Peak level 96.6 %
Extraction speed 7.7 X
Track quality 99.9 %
Test CRC 8E6E91E4
Copy CRC 8E6E91E4
Track not present in AccurateRip database
Copy OK
Track 16
Filename H:\!!!!!!!!!!!!!!!!!!! EAC RIPS\Various - The Tabu Records Box Set\CD3\16 - Cherrelle - I Need You Now.wav
Pre-gap length 0:00:02.00
Peak level 98.9 %
Extraction speed 9.1 X
Track quality 100.0 %
Test CRC CAB53AAF
Copy CRC CAB53AAF
Track not present in AccurateRip database
Copy OK
Track 17
Filename H:\!!!!!!!!!!!!!!!!!!! EAC RIPS\Various - The Tabu Records Box Set\CD3\17 - Anacostia - All For You.wav
Pre-gap length 0:00:02.00
Peak level 96.6 %
Extraction speed 8.8 X
Track quality 100.0 %
Test CRC C3F27825
Copy CRC C3F27825
Track not present in AccurateRip database
Copy OK
None of the tracks are present in the AccurateRip database
No errors occurred
End of status report
---- CUETools DB Plugin V2.1.3
[CTDB TOCID: WjWuPbrV5SSyO.2IKDZpK2MUk_o-] disk not present in database, Submit result: WjWuPbrV5SSyO.2IKDZpK2MUk_o- has been uploaded
==== Log checksum 2B4937A0A67611B3355FAB83D992DCFB8D43B68B85342F39D0AA20E2DD241131 ====
 
Содержание индексной карты (.CUE)
REM GENRE Soul
REM DATE 2014
REM DISCID FD120911
REM COMMENT "ExactAudioCopy v1.0b3"
PERFORMER Various
TITLE "The Tabu Records Box Set CD3 - Romancing & Mellow Grooves"
FILE "2014 The Tabu Records Box Set CD3 - Romancing & Mellow Grooves.wav" WAVE
TRACK 01 AUDIO
TITLE "If You Were Here Tonight"
PERFORMER "Alexander O'neal"
ISRC GBBLG8500226
INDEX 01 00:00:00
TRACK 02 AUDIO
TITLE "I Will Wait For You"
PERFORMER Cherrelle
ISRC USTS90200038
INDEX 00 06:10:13
FILE "2014 The Tabu Records Box Set CD3 - Romancing & Mellow Grooves.wav" WAVE
INDEX 01 00:00:00
TRACK 03 AUDIO
TITLE "This Must Be Heaven"
PERFORMER "Lamont Johnson"
ISRC GBBLG7800326
INDEX 00 03:43:21
FILE "2014 The Tabu Records Box Set CD3 - Romancing & Mellow Grooves.wav" WAVE
INDEX 01 00:00:00
TRACK 04 AUDIO
TITLE "Loving Just You"
PERFORMER Brainstorm
ISRC USTS90200026
INDEX 00 04:49:15
FILE "2014 The Tabu Records Box Set CD3 - Romancing & Mellow Grooves.wav" WAVE
INDEX 01 00:00:00
TRACK 05 AUDIO
TITLE "Memory Of Love"
PERFORMER "Lalo Schifrin"
ISRC GBBLG7900460
INDEX 00 04:30:07
FILE "2014 The Tabu Records Box Set CD3 - Romancing & Mellow Grooves.wav" WAVE
INDEX 01 00:00:00
TRACK 06 AUDIO
TITLE "Do You Wanna Like I Do"
PERFORMER "Alexander O'neal"
ISRC GBBLG8500227
INDEX 00 04:40:28
FILE "2014 The Tabu Records Box Set CD3 - Romancing & Mellow Grooves.wav" WAVE
INDEX 01 00:00:00
TRACK 07 AUDIO
TITLE "Upside Down"
PERFORMER "General Caine"
ISRC GBBLG8300150
INDEX 00 04:47:59
FILE "2014 The Tabu Records Box Set CD3 - Romancing & Mellow Grooves.wav" WAVE
INDEX 01 00:00:00
TRACK 08 AUDIO
TITLE "What's Wrong With Our Love Affair"
PERFORMER "The S.O.S. Band"
ISRC GBBLG1300974
INDEX 00 04:18:49
FILE "2014 The Tabu Records Box Set CD3 - Romancing & Mellow Grooves.wav" WAVE
INDEX 01 00:00:00
TRACK 09 AUDIO
TITLE "Easy Come, Easy Go"
PERFORMER "Lamont Johnson"
ISRC GBBLG7800324
INDEX 00 04:50:00
FILE "2014 The Tabu Records Box Set CD3 - Romancing & Mellow Grooves.wav" WAVE
INDEX 01 00:00:00
TRACK 10 AUDIO
TITLE Destiny
PERFORMER "Woods Empire"
ISRC GBBLG8100298
INDEX 00 04:56:38
FILE "2014 The Tabu Records Box Set CD3 - Romancing & Mellow Grooves.wav" WAVE
INDEX 01 00:00:00
TRACK 11 AUDIO
TITLE "Ain't Nothing To It"
PERFORMER Anacostia
ISRC GBBLG7800309
INDEX 00 03:32:15
FILE "2014 The Tabu Records Box Set CD3 - Romancing & Mellow Grooves.wav" WAVE
INDEX 01 00:00:00
TRACK 12 AUDIO
TITLE "Just You And Me"
PERFORMER "Sharon Ridley"
ISRC GBBLG7800332
INDEX 00 03:35:01
FILE "2014 The Tabu Records Box Set CD3 - Romancing & Mellow Grooves.wav" WAVE
INDEX 01 00:00:00
TRACK 13 AUDIO
TITLE "Look At Us Now"
PERFORMER "Alexander O'neal"
ISRC GBBLG8500228
INDEX 00 04:56:38
FILE "2014 The Tabu Records Box Set CD3 - Romancing & Mellow Grooves.wav" WAVE
INDEX 01 00:00:00
TRACK 14 AUDIO
TITLE "Stay With Me"
PERFORMER Cherrelle
ISRC USTS90200040
INDEX 00 05:07:19
FILE "2014 The Tabu Records Box Set CD3 - Romancing & Mellow Grooves.wav" WAVE
INDEX 01 00:00:00
TRACK 15 AUDIO
TITLE "You Put A Charge In My Life"
PERFORMER Brainstorm
ISRC GBBLG7900435
INDEX 00 04:01:73
FILE "2014 The Tabu Records Box Set CD3 - Romancing & Mellow Grooves.wav" WAVE
INDEX 01 00:00:00
TRACK 16 AUDIO
TITLE "I Need You Now"
PERFORMER Cherrelle
ISRC USTS90200042
INDEX 00 04:11:20
FILE "2014 The Tabu Records Box Set CD3 - Romancing & Mellow Grooves.wav" WAVE
INDEX 01 00:00:00
TRACK 17 AUDIO
TITLE "All For You"
PERFORMER Anacostia
ISRC GBBLG7800318
INDEX 00 04:55:74
FILE "2014 The Tabu Records Box Set CD3 - Romancing & Mellow Grooves.wav" WAVE
INDEX 01 00:00:00
 
CD4 - The Jam & Lewis Sessions
01. High Hopes 06:32 - S.O.S. Band
02. What's Missing? 05:45 - Alexander O'Neal
03. I Didn't Mean To Turn You On 07:03 - Cherrelle
04. Just Be Good To Me 04:02 - S.O.S Band
05. Saturday Love 05:02 - Cherrelle
06. Never Knew Love Like This 03:31 - Alexander O'Neal & Cherrel
07. No One's Gonna Love You 06:34 - S.O.S Band
08. Weekend Girl 06:24 - S.O.S Band
09. When You Look In My Eyes 04:48 - Cherrelle
10. A Broken Heart Can Mend 03:47 - Alexander O'Neal
11. Tell Me If You Still Care 07:01 - S.O.S. Band
12. Will You Satisfy? 05:09 - Cherrelle
13. Just the Way You Like It 08:44 - S.O.S. Band
 
Log
Exact Audio Copy V1.0 beta 3 from 29. August 2011
EAC extraction logfile from 5. March 2014, 8:33
Various / The Tabu Records Box Set CD4 - The Jam & Lewis Sessions
Used drive : PIONEER BD-RW BDR-207D Adapter: 4 ID: 0
Read mode : Secure
Utilize accurate stream : Yes
Defeat audio cache : Yes
Make use of C2 pointers : No
Read offset correction : 667
Overread into Lead-In and Lead-Out : No
Fill up missing offset samples with silence : Yes
Delete leading and trailing silent blocks : No
Null samples used in CRC calculations : Yes
Used interface : Native Win32 interface for Win NT & 2000
Gap handling : Appended to previous track
Used output format : User Defined Encoder
Selected bitrate : 1024 kBit/s
Quality : High
Add ID3 tag : No
Command line compressor : C:\Program Files (x86)\Exact Audio Copy\Flac\flac.exe
Additional command line options : -8 -V -T "artist=%artist%" -T "title=%title%" -T "album=%albumtitle%" -T "date=%year%" -T "tracknumber=%tracknr%" -T "genre=%genre%" %source%
TOC of the extracted CD
Track | Start | Length | Start sector | End sector
---------------------------------------------------------
1 | 0:00.00 | 6:31.16 | 0 | 29340
2 | 6:31.16 | 5:45.69 | 29341 | 55284
3 | 12:17.10 | 7:04.72 | 55285 | 87156
4 | 19:22.07 | 5:41.36 | 87157 | 112767
5 | 25:03.43 | 4:51.50 | 112768 | 134642
6 | 29:55.18 | 3:30.26 | 134643 | 150418
7 | 33:25.44 | 6:49.42 | 150419 | 181135
8 | 40:15.11 | 6:26.15 | 181136 | 210100
9 | 46:41.26 | 4:50.05 | 210101 | 231855
10 | 51:31.31 | 3:44.03 | 231856 | 248658
11 | 55:15.34 | 6:59.13 | 248659 | 280096
12 | 62:14.47 | 4:18.33 | 280097 | 299479
13 | 66:33.05 | 8:43.46 | 299480 | 338750
Track 1
Filename H:\!!!!!!!!!!!!!!!!!!! EAC RIPS\Various - The Tabu Records Box Set\CD4\01 - The S.O.S. Band - High Hopes.wav
Pre-gap length 0:00:02.00
Peak level 96.6 %
Extraction speed 5.1 X
Track quality 100.0 %
Test CRC 3AEF4973
Copy CRC 3AEF4973
Track not present in AccurateRip database
Copy OK
Track 2
Filename H:\!!!!!!!!!!!!!!!!!!! EAC RIPS\Various - The Tabu Records Box Set\CD4\02 - Alexander O'Neal - What's Missing.wav
Pre-gap length 0:00:02.00
Peak level 96.6 %
Extraction speed 5.1 X
Track quality 99.9 %
Test CRC DFE02B2A
Copy CRC DFE02B2A
Track not present in AccurateRip database
Copy OK
Track 3
Filename H:\!!!!!!!!!!!!!!!!!!! EAC RIPS\Various - The Tabu Records Box Set\CD4\03 - Cherrelle - I Didn't Mean To Turn You On.wav
Pre-gap length 0:00:02.00
Peak level 96.6 %
Extraction speed 5.9 X
Track quality 99.9 %
Test CRC 9FAD1951
Copy CRC 9FAD1951
Track not present in AccurateRip database
Copy OK
Track 4
Filename H:\!!!!!!!!!!!!!!!!!!! EAC RIPS\Various - The Tabu Records Box Set\CD4\04 - The S.O.S. Band - Just Be Good To Me.wav
Pre-gap length 0:00:02.00
Peak level 99.1 %
Extraction speed 6.7 X
Track quality 100.0 %
Test CRC F837F680
Copy CRC F837F680
Track not present in AccurateRip database
Copy OK
Track 5
Filename H:\!!!!!!!!!!!!!!!!!!! EAC RIPS\Various - The Tabu Records Box Set\CD4\05 - Cherrelle - Saturday Love.wav
Pre-gap length 0:00:02.00
Peak level 96.6 %
Extraction speed 6.9 X
Track quality 100.0 %
Test CRC 458ACF43
Copy CRC 458ACF43
Track not present in AccurateRip database
Copy OK
Track 6
Filename H:\!!!!!!!!!!!!!!!!!!! EAC RIPS\Various - The Tabu Records Box Set\CD4\06 - Alexander O'Neal & Cherrelle - Never Knew Love Like This.wav
Pre-gap length 0:00:02.00
Peak level 93.3 %
Extraction speed 6.8 X
Track quality 100.0 %
Test CRC A4851EB3
Copy CRC A4851EB3
Track not present in AccurateRip database
Copy OK
Track 7
Filename H:\!!!!!!!!!!!!!!!!!!! EAC RIPS\Various - The Tabu Records Box Set\CD4\07 - The S.O.S. Band - No One's Gonna Love You.wav
Pre-gap length 0:00:02.00
Peak level 96.6 %
Extraction speed 7.7 X
Track quality 100.0 %
Test CRC 759A45F2
Copy CRC 759A45F2
Track not present in AccurateRip database
Copy OK
Track 8
Filename H:\!!!!!!!!!!!!!!!!!!! EAC RIPS\Various - The Tabu Records Box Set\CD4\08 - The S.O.S. Band - Weekend Girl.wav
Pre-gap length 0:00:02.00
Peak level 96.6 %
Extraction speed 8.0 X
Track quality 100.0 %
Test CRC 460F026E
Copy CRC 460F026E
Track not present in AccurateRip database
Copy OK
Track 9
Filename H:\!!!!!!!!!!!!!!!!!!! EAC RIPS\Various - The Tabu Records Box Set\CD4\09 - Cherrelle - When You Look In My Eyes.wav
Pre-gap length 0:00:02.00
Peak level 96.6 %
Extraction speed 8.0 X
Track quality 100.0 %
Test CRC 8B7DA39B
Copy CRC 8B7DA39B
Track not present in AccurateRip database
Copy OK
Track 10
Filename H:\!!!!!!!!!!!!!!!!!!! EAC RIPS\Various - The Tabu Records Box Set\CD4\10 - Alexander O'Neal - A Broken Heart Can Mend.wav
Pre-gap length 0:00:02.00
Peak level 96.6 %
Extraction speed 7.9 X
Track quality 100.0 %
Test CRC EC8FB7B8
Copy CRC EC8FB7B8
Track not present in AccurateRip database
Copy OK
Track 11
Filename H:\!!!!!!!!!!!!!!!!!!! EAC RIPS\Various - The Tabu Records Box Set\CD4\11 - The S.O.S. Band - Tell Me If You Still Care.wav
Pre-gap length 0:00:02.00
Peak level 96.6 %
Extraction speed 8.8 X
Track quality 100.0 %
Test CRC 18792B5C
Copy CRC 18792B5C
Track not present in AccurateRip database
Copy OK
Track 12
Filename H:\!!!!!!!!!!!!!!!!!!! EAC RIPS\Various - The Tabu Records Box Set\CD4\12 - Cherrelle - Will You Satisfy.wav
Pre-gap length 0:00:02.00
Peak level 98.5 %
Extraction speed 8.7 X
Track quality 100.0 %
Test CRC 170AABF6
Copy CRC 170AABF6
Track not present in AccurateRip database
Copy OK
Track 13
Filename H:\!!!!!!!!!!!!!!!!!!! EAC RIPS\Various - The Tabu Records Box Set\CD4\13 - The S.O.S. Band - Just The Way You Like It.wav
Pre-gap length 0:00:02.00
Peak level 96.6 %
Extraction speed 8.9 X
Track quality 99.9 %
Test CRC 6AFA8AF3
Copy CRC 6AFA8AF3
Track not present in AccurateRip database
Copy OK
None of the tracks are present in the AccurateRip database
No errors occurred
End of status report
---- CUETools DB Plugin V2.1.3
[CTDB TOCID: hHpP.Mo0IsrM9llTuMv.bJoIqIM-] disk not present in database, Submit result: hHpP.Mo0IsrM9llTuMv.bJoIqIM- has been uploaded
==== Log checksum 5F83F600D175F67C2B16AA8A3EDAF456E95E21D4A9C74E70AB8D0AAE5BB870A2 ====
 
Содержание индексной карты (.CUE)
REM GENRE Soul
REM DATE 2014
REM DISCID C111A40D
REM COMMENT "ExactAudioCopy v1.0b3"
PERFORMER Various
TITLE "The Tabu Records Box Set CD4 - The Jam & Lewis Sessions"
FILE "2014 The Tabu Records Box Set CD4 - The Jam & Lewis Sessions.wav" WAVE
TRACK 01 AUDIO
TITLE "High Hopes"
PERFORMER "The S.O.S. Band"
ISRC GBBLG1300991
INDEX 01 00:00:00
TRACK 02 AUDIO
TITLE "What's Missing"
PERFORMER "Alexander O'neal"
ISRC GBBLG8500230
INDEX 00 06:29:16
FILE "2014 The Tabu Records Box Set CD4 - The Jam & Lewis Sessions.wav" WAVE
INDEX 01 00:00:00
TRACK 03 AUDIO
TITLE "I Didn't Mean To Turn You On"
PERFORMER Cherrelle
ISRC USTS90200036
INDEX 00 05:43:69
FILE "2014 The Tabu Records Box Set CD4 - The Jam & Lewis Sessions.wav" WAVE
INDEX 01 00:00:00
TRACK 04 AUDIO
TITLE "Just Be Good To Me"
PERFORMER "The S.O.S. Band"
ISRC GBBLG1301048
INDEX 00 07:02:72
FILE "2014 The Tabu Records Box Set CD4 - The Jam & Lewis Sessions.wav" WAVE
INDEX 01 00:00:00
TRACK 05 AUDIO
TITLE "Saturday Love"
PERFORMER Cherrelle
ISRC USTS90400003
INDEX 00 05:39:36
FILE "2014 The Tabu Records Box Set CD4 - The Jam & Lewis Sessions.wav" WAVE
INDEX 01 00:00:00
TRACK 06 AUDIO
TITLE "Never Knew Love Like This"
PERFORMER "Alexander O'neal & Cherrelle"
ISRC GBBLG8700282
INDEX 00 04:49:50
FILE "2014 The Tabu Records Box Set CD4 - The Jam & Lewis Sessions.wav" WAVE
INDEX 01 00:00:00
TRACK 07 AUDIO
TITLE "No One's Gonna Love You"
PERFORMER "The S.O.S. Band"
ISRC GBBLG1301007
INDEX 00 03:28:26
FILE "2014 The Tabu Records Box Set CD4 - The Jam & Lewis Sessions.wav" WAVE
INDEX 01 00:00:00
TRACK 08 AUDIO
TITLE "Weekend Girl"
PERFORMER "The S.O.S. Band"
ISRC GBBLG1301008
INDEX 00 06:47:42
FILE "2014 The Tabu Records Box Set CD4 - The Jam & Lewis Sessions.wav" WAVE
INDEX 01 00:00:00
TRACK 09 AUDIO
TITLE "When You Look In My Eyes"
PERFORMER Cherrelle
ISRC USTS90200041
INDEX 00 06:24:15
FILE "2014 The Tabu Records Box Set CD4 - The Jam & Lewis Sessions.wav" WAVE
INDEX 01 00:00:00
TRACK 10 AUDIO
TITLE "A Broken Heart Can Mend"
PERFORMER "Alexander O'neal"
ISRC GBBLG8500225
INDEX 00 04:48:05
FILE "2014 The Tabu Records Box Set CD4 - The Jam & Lewis Sessions.wav" WAVE
INDEX 01 00:00:00
TRACK 11 AUDIO
TITLE "Tell Me If You Still Care"
PERFORMER "The S.O.S. Band"
ISRC GBBLG1300999
INDEX 00 03:42:03
FILE "2014 The Tabu Records Box Set CD4 - The Jam & Lewis Sessions.wav" WAVE
INDEX 01 00:00:00
TRACK 12 AUDIO
TITLE "Will You Satisfy"
PERFORMER Cherrelle
ISRC USTS90200066
INDEX 00 06:57:13
FILE "2014 The Tabu Records Box Set CD4 - The Jam & Lewis Sessions.wav" WAVE
INDEX 01 00:00:00
TRACK 13 AUDIO
TITLE "Just The Way You Like It"
PERFORMER "The S.O.S. Band"
ISRC GBBLG1301009
INDEX 00 04:16:33
FILE "2014 The Tabu Records Box Set CD4 - The Jam & Lewis Sessions.wav" WAVE
INDEX 01 00:00:00
 
CD5 - Jam, Lewis & Beyond
01. The Finest 05:58 - S.O.S Band
02. What is This Thing Called Love 04:11 - Alexander O'Neal
03. Keep It Inside 04:13 - Cherrelle
04. Fake '88 (Remix) 03:52 - Alexander O'Neal
05. One of Many Nights - S.O.S. Band
06. The Lovers 03:42 - Alexander O'Neal
07. Sands of Time 04:27 - S.O.S Band
08. Can-Do Can-Do 04:42 - Demetrius Perry
09. (What Can I Say) To Make You Love Me 04:25 - Alexander O'Nea
10. State of Attraction 04:02 - Rhonda Clark
11. Thin Line 03:53 - Kathy Mathis
12. Just What I've Been Missing 05:24 - James Robinson
13. Automatic Stop & Go 03:53 - Kathy Mathis
14. Criticize 04:02 - Alexander O'Neal
15. Love Festival 05:00 - Kathy Mathis
16. Another World 05:18 - Demetrius Perry
17. Sunshine 04:05 - Alexander O'Neal
 
Log
Exact Audio Copy V1.0 beta 3 from 29. August 2011
EAC extraction logfile from 5. March 2014, 16:25
Various / The Tabu Records Box Set CD5 - Jam, Lewis & Beyond
Used drive : PIONEER BD-RW BDR-207D Adapter: 4 ID: 0
Read mode : Secure
Utilize accurate stream : Yes
Defeat audio cache : Yes
Make use of C2 pointers : No
Read offset correction : 667
Overread into Lead-In and Lead-Out : No
Fill up missing offset samples with silence : Yes
Delete leading and trailing silent blocks : No
Null samples used in CRC calculations : Yes
Used interface : Native Win32 interface for Win NT & 2000
Gap handling : Appended to previous track
Used output format : User Defined Encoder
Selected bitrate : 1024 kBit/s
Quality : High
Add ID3 tag : No
Command line compressor : C:\Program Files (x86)\Exact Audio Copy\Flac\flac.exe
Additional command line options : -8 -V -T "artist=%artist%" -T "title=%title%" -T "album=%albumtitle%" -T "date=%year%" -T "tracknumber=%tracknr%" -T "genre=%genre%" %source%
TOC of the extracted CD
Track | Start | Length | Start sector | End sector
---------------------------------------------------------
1 | 0:00.00 | 6:07.39 | 0 | 27563
2 | 6:07.39 | 4:10.15 | 27564 | 46328
3 | 10:17.54 | 4:15.68 | 46329 | 65521
4 | 14:33.47 | 3:52.53 | 65522 | 82974
5 | 18:26.25 | 7:18.73 | 82975 | 115897
6 | 25:45.23 | 3:42.39 | 115898 | 132586
7 | 29:27.62 | 4:28.63 | 132587 | 152749
8 | 33:56.50 | 4:50.29 | 152750 | 174528
9 | 38:47.04 | 4:30.73 | 174529 | 194851
10 | 43:18.02 | 4:03.52 | 194852 | 213128
11 | 47:21.54 | 3:49.04 | 213129 | 230307
12 | 51:10.58 | 5:25.36 | 230308 | 254718
13 | 56:36.19 | 3:50.27 | 254719 | 271995
14 | 60:26.46 | 4:02.29 | 271996 | 290174
15 | 64:29.00 | 4:57.74 | 290175 | 312523
16 | 69:26.74 | 5:20.02 | 312524 | 336525
17 | 74:47.01 | 4:02.68 | 336526 | 354743
Track 1
Filename H:\!!!!!!!!!!!!!!!!!!! EAC RIPS\Various - The Tabu Records Box Set\CD5\01 - The S.O.S. Band - The Finest.wav
Pre-gap length 0:00:02.00
Peak level 96.6 %
Extraction speed 4.7 X
Track quality 99.9 %
Test CRC D030E847
Copy CRC D030E847
Track not present in AccurateRip database
Copy OK
Track 2
Filename H:\!!!!!!!!!!!!!!!!!!! EAC RIPS\Various - The Tabu Records Box Set\CD5\02 - Alexander O'Neal - What Is This Thing Called Love.wav
Pre-gap length 0:00:02.00
Peak level 96.6 %
Extraction speed 5.4 X
Track quality 100.0 %
Test CRC CA083A56
Copy CRC CA083A56
Track not present in AccurateRip database
Copy OK
Track 3
Filename H:\!!!!!!!!!!!!!!!!!!! EAC RIPS\Various - The Tabu Records Box Set\CD5\03 - Cherrelle - Keep It Inside.wav
Pre-gap length 0:00:02.00
Peak level 98.6 %
Extraction speed 5.8 X
Track quality 100.0 %
Test CRC 05A1C74F
Copy CRC 05A1C74F
Track not present in AccurateRip database
Copy OK
Track 4
Filename H:\!!!!!!!!!!!!!!!!!!! EAC RIPS\Various - The Tabu Records Box Set\CD5\04 - Alexander O'Neal - Fake '88 (Remix).wav
Pre-gap length 0:00:02.00
Peak level 96.6 %
Extraction speed 5.3 X
Track quality 99.9 %
Test CRC A81EC1CC
Copy CRC A81EC1CC
Track not present in AccurateRip database
Copy OK
Track 5
Filename H:\!!!!!!!!!!!!!!!!!!! EAC RIPS\Various - The Tabu Records Box Set\CD5\05 - The S.O.S. Band - One Of Many Nights.wav
Pre-gap length 0:00:02.00
Peak level 98.6 %
Extraction speed 6.9 X
Track quality 100.0 %
Test CRC 0B8611CA
Copy CRC 0B8611CA
Track not present in AccurateRip database
Copy OK
Track 6
Filename H:\!!!!!!!!!!!!!!!!!!! EAC RIPS\Various - The Tabu Records Box Set\CD5\06 - Alexander O'Neal - The Lovers.wav
Pre-gap length 0:00:02.00
Peak level 96.6 %
Extraction speed 6.7 X
Track quality 100.0 %
Test CRC 71EF483F
Copy CRC 71EF483F
Track not present in AccurateRip database
Copy OK
Track 7
Filename H:\!!!!!!!!!!!!!!!!!!! EAC RIPS\Various - The Tabu Records Box Set\CD5\07 - The S.O.S. Band - Sands Of Time.wav
Pre-gap length 0:00:02.00
Peak level 96.6 %
Extraction speed 7.1 X
Track quality 100.0 %
Test CRC DF289672
Copy CRC DF289672
Track not present in AccurateRip database
Copy OK
Track 8
Filename H:\!!!!!!!!!!!!!!!!!!! EAC RIPS\Various - The Tabu Records Box Set\CD5\08 - Demetrius Perry - Can-Do Can-Do.wav
Pre-gap length 0:00:02.00
Peak level 96.1 %
Extraction speed 7.5 X
Track quality 100.0 %
Test CRC 9A03B308
Copy CRC 9A03B308
Track not present in AccurateRip database
Copy OK
Track 9
Filename H:\!!!!!!!!!!!!!!!!!!! EAC RIPS\Various - The Tabu Records Box Set\CD5\09 - Alexander O'Neal - (What Can I Say) To Make You Love Me.wav
Pre-gap length 0:00:02.00
Peak level 96.6 %
Extraction speed 7.6 X
Track quality 100.0 %
Test CRC 166B7194
Copy CRC 166B7194
Track not present in AccurateRip database
Copy OK
Track 10
Filename H:\!!!!!!!!!!!!!!!!!!! EAC RIPS\Various - The Tabu Records Box Set\CD5\10 - Rhonda Clark - State Of Attraction.wav
Pre-gap length 0:00:02.00
Peak level 98.7 %
Extraction speed 6.8 X
Track quality 99.9 %
Test CRC F659850E
Copy CRC F659850E
Track not present in AccurateRip database
Copy OK
Track 11
Filename H:\!!!!!!!!!!!!!!!!!!! EAC RIPS\Various - The Tabu Records Box Set\CD5\11 - Kathy Mathis - Thin Line.wav
Pre-gap length 0:00:02.00
Peak level 96.6 %
Extraction speed 6.8 X
Track quality 99.9 %
Test CRC A8B0720B
Copy CRC A8B0720B
Track not present in AccurateRip database
Copy OK
Track 12
Filename H:\!!!!!!!!!!!!!!!!!!! EAC RIPS\Various - The Tabu Records Box Set\CD5\12 - James Robinson - Just What I've Been Missing.wav
Pre-gap length 0:00:02.00
Peak level 96.6 %
Extraction speed 8.4 X
Track quality 100.0 %
Test CRC 5B3FC858
Copy CRC 5B3FC858
Track not present in AccurateRip database
Copy OK
Track 13
Filename H:\!!!!!!!!!!!!!!!!!!! EAC RIPS\Various - The Tabu Records Box Set\CD5\13 - Kathy Mathis - Automatic Stop & Go.wav
Pre-gap length 0:00:02.00
Peak level 96.6 %
Extraction speed 8.3 X
Track quality 100.0 %
Test CRC 6CD814EE
Copy CRC 6CD814EE
Track not present in AccurateRip database
Copy OK
Track 14
Filename H:\!!!!!!!!!!!!!!!!!!! EAC RIPS\Various - The Tabu Records Box Set\CD5\14 - Alexander O'Neal - Criticize.wav
Pre-gap length 0:00:02.00
Peak level 96.6 %
Extraction speed 8.4 X
Track quality 100.0 %
Test CRC C593425E
Copy CRC C593425E
Track not present in AccurateRip database
Copy OK
Track 15
Filename H:\!!!!!!!!!!!!!!!!!!! EAC RIPS\Various - The Tabu Records Box Set\CD5\15 - Kathy Mathis - Love Festival.wav
Pre-gap length 0:00:02.00
Peak level 96.6 %
Extraction speed 8.9 X
Track quality 100.0 %
Test CRC F242A3E7
Copy CRC F242A3E7
Track not present in AccurateRip database
Copy OK
Track 16
Filename H:\!!!!!!!!!!!!!!!!!!! EAC RIPS\Various - The Tabu Records Box Set\CD5\16 - Demetrius Perry - Another World.wav
Pre-gap length 0:00:02.00
Peak level 96.6 %
Extraction speed 8.3 X
Track quality 99.9 %
Test CRC 690A3821
Copy CRC 690A3821
Track not present in AccurateRip database
Copy OK
Track 17
Filename H:\!!!!!!!!!!!!!!!!!!! EAC RIPS\Various - The Tabu Records Box Set\CD5\17 - Alexander O'Neal - Sunshine.wav
Pre-gap length 0:00:02.00
Peak level 96.6 %
Extraction speed 9.1 X
Track quality 100.0 %
Test CRC B312641D
Copy CRC B312641D
Track not present in AccurateRip database
Copy OK
None of the tracks are present in the AccurateRip database
No errors occurred
End of status report
---- CUETools DB Plugin V2.1.3
[CTDB TOCID: KgC8yqs8UPwzqzdKKM.WUOaHtZo-] disk not present in database, Submit result: KgC8yqs8UPwzqzdKKM.WUOaHtZo- has been uploaded
==== Log checksum FEA5826FB66CF5A538B0B66A53BB2716CCF9050DF51E3826A19749D798863649 ====
 
Содержание индексной карты (.CUE)
REM GENRE Soul
REM DATE 2014
REM DISCID 16127911
REM COMMENT "ExactAudioCopy v1.0b3"
PERFORMER Various
TITLE "The Tabu Records Box Set CD5 - Jam, Lewis & Beyond"
FILE "2014 The Tabu Records Box Set CD5 - Jam, Lewis & Beyond.wav" WAVE
TRACK 01 AUDIO
TITLE "The Finest"
PERFORMER "The S.O.S. Band"
ISRC GBBLG1301018
INDEX 01 00:00:00
TRACK 02 AUDIO
TITLE "What Is This Thing Called Love"
PERFORMER "Alexander O'neal"
ISRC GBBLG9100193
INDEX 00 06:05:39
FILE "2014 The Tabu Records Box Set CD5 - Jam, Lewis & Beyond.wav" WAVE
INDEX 01 00:00:00
TRACK 03 AUDIO
TITLE "Keep It Inside"
PERFORMER Cherrelle
ISRC USMO18882738
INDEX 00 04:08:15
FILE "2014 The Tabu Records Box Set CD5 - Jam, Lewis & Beyond.wav" WAVE
INDEX 01 00:00:00
TRACK 04 AUDIO
TITLE "Fake '88 (Remix)"
PERFORMER "Alexander O'neal"
ISRC GBBLG8800255
INDEX 00 04:13:68
FILE "2014 The Tabu Records Box Set CD5 - Jam, Lewis & Beyond.wav" WAVE
INDEX 01 00:00:00
TRACK 05 AUDIO
TITLE "One Of Many Nights"
PERFORMER "The S.O.S. Band"
INDEX 00 03:50:53
FILE "2014 The Tabu Records Box Set CD5 - Jam, Lewis & Beyond.wav" WAVE
INDEX 01 00:00:00
TRACK 06 AUDIO
TITLE "The Lovers"
PERFORMER "Alexander O'neal"
ISRC GBBLG8700285
INDEX 00 07:16:73
FILE "2014 The Tabu Records Box Set CD5 - Jam, Lewis & Beyond.wav" WAVE
INDEX 01 00:00:00
TRACK 07 AUDIO
TITLE "Sands Of Time"
PERFORMER "The S.O.S. Band"
ISRC GBBLG1301015
INDEX 00 03:40:39
FILE "2014 The Tabu Records Box Set CD5 - Jam, Lewis & Beyond.wav" WAVE
INDEX 01 00:00:00
TRACK 08 AUDIO
TITLE "Can-Do Can-Do"
PERFORMER "Demetrius Perry"
ISRC GBBLG9000084
INDEX 00 04:26:63
FILE "2014 The Tabu Records Box Set CD5 - Jam, Lewis & Beyond.wav" WAVE
INDEX 01 00:00:00
TRACK 09 AUDIO
TITLE "(What Can I Say) To Make You Love Me"
PERFORMER "Alexander O'neal"
INDEX 00 04:48:29
FILE "2014 The Tabu Records Box Set CD5 - Jam, Lewis & Beyond.wav" WAVE
INDEX 01 00:00:00
TRACK 10 AUDIO
TITLE "State Of Attraction"
PERFORMER "Rhonda Clark"
ISRC GBBLG8900316
INDEX 00 04:28:73
FILE "2014 The Tabu Records Box Set CD5 - Jam, Lewis & Beyond.wav" WAVE
INDEX 01 00:00:00
TRACK 11 AUDIO
TITLE "Thin Line"
PERFORMER "Kathy Mathis"
INDEX 00 04:01:52
FILE "2014 The Tabu Records Box Set CD5 - Jam, Lewis & Beyond.wav" WAVE
INDEX 01 00:00:00
TRACK 12 AUDIO
TITLE "Just What I've Been Missing"
PERFORMER "James Robinson"
ISRC GBBLG1400066
INDEX 00 03:47:04
FILE "2014 The Tabu Records Box Set CD5 - Jam, Lewis & Beyond.wav" WAVE
INDEX 01 00:00:00
TRACK 13 AUDIO
TITLE "Automatic Stop & Go"
PERFORMER "Kathy Mathis"
ISRC GBBLG8700204
INDEX 00 05:23:36
FILE "2014 The Tabu Records Box Set CD5 - Jam, Lewis & Beyond.wav" WAVE
INDEX 01 00:00:00
TRACK 14 AUDIO
TITLE Criticize
PERFORMER "Alexander O'neal"
ISRC GB01A0800071
INDEX 00 03:48:27
FILE "2014 The Tabu Records Box Set CD5 - Jam, Lewis & Beyond.wav" WAVE
INDEX 01 00:00:00
TRACK 15 AUDIO
TITLE "Love Festival"
PERFORMER "Kathy Mathis"
INDEX 00 04:00:29
FILE "2014 The Tabu Records Box Set CD5 - Jam, Lewis & Beyond.wav" WAVE
INDEX 01 00:00:00
TRACK 16 AUDIO
TITLE "Another World"
PERFORMER "Demetrius Perry"
ISRC GBBLG9000083
INDEX 00 04:55:74
FILE "2014 The Tabu Records Box Set CD5 - Jam, Lewis & Beyond.wav" WAVE
INDEX 01 00:00:00
TRACK 17 AUDIO
TITLE Sunshine
PERFORMER "Alexander O'neal"
ISRC GBBLG8700286
INDEX 00 05:18:02
FILE "2014 The Tabu Records Box Set CD5 - Jam, Lewis & Beyond.wav" WAVE
INDEX 01 00:00:00
 
CD6 - The Final Years
01. Still In Love With You 05:13 - Cherrelle
02. Feeling 06:27 - S.O.S. Band
03. Everything I Miss At Home 03:55 - Alexander O'Neal & Cherrel
04. Can We Do It Again 05:13 - James Robinson
05. Separate Ways 05:44 - Mary Davis
06. Lady 05:35 - Alexander O'Neal
07. You're My Everything (Ft Chuck Howard) 04:23 - Rhonda Clark
08. Can't Explain 05:31 - S.O.S. Band
09. Tears of Joy 04:24 - Cherrelle
10. Guilty 04:51 - James Robinson
11. Sentimental 04:38 - Alexander O'Neal
12. Broken Promises 05:02 - S.O.S. Band
13. Breathless 04:44 - Demetrius Perry
14. Now That You're Gone 03:18 - Kathy Mathis
15. My Gift To You 04:16 - Alexander O'Neal
16. We're On Our Way Home (Part 1) 03:46 - Brainstorm 17. Vd
 
Log
Exact Audio Copy V1.0 beta 3 from 29. August 2011
EAC extraction logfile from 5. March 2014, 16:58
Various / The Tabu Records Box Set CD6 - The Final Years
Used drive : PIONEER BD-RW BDR-207D Adapter: 4 ID: 0
Read mode : Secure
Utilize accurate stream : Yes
Defeat audio cache : Yes
Make use of C2 pointers : No
Read offset correction : 667
Overread into Lead-In and Lead-Out : No
Fill up missing offset samples with silence : Yes
Delete leading and trailing silent blocks : No
Null samples used in CRC calculations : Yes
Used interface : Native Win32 interface for Win NT & 2000
Gap handling : Appended to previous track
Used output format : User Defined Encoder
Selected bitrate : 1024 kBit/s
Quality : High
Add ID3 tag : No
Command line compressor : C:\Program Files (x86)\Exact Audio Copy\Flac\flac.exe
Additional command line options : -8 -V -T "artist=%artist%" -T "title=%title%" -T "album=%albumtitle%" -T "date=%year%" -T "tracknumber=%tracknr%" -T "genre=%genre%" %source%
TOC of the extracted CD
Track | Start | Length | Start sector | End sector
---------------------------------------------------------
1 | 0:00.00 | 5:13.29 | 0 | 23503
2 | 5:13.29 | 6:43.71 | 23504 | 53799
3 | 11:57.25 | 3:57.34 | 53800 | 71608
4 | 15:54.59 | 5:04.39 | 71609 | 94447
5 | 20:59.23 | 5:42.66 | 94448 | 120163
6 | 26:42.14 | 5:35.46 | 120164 | 145334
7 | 32:17.60 | 4:25.03 | 145335 | 165212
8 | 36:42.63 | 5:29.42 | 165213 | 189929
9 | 42:12.30 | 4:22.74 | 189930 | 209653
10 | 46:35.29 | 4:47.56 | 209654 | 231234
11 | 51:23.10 | 4:38.58 | 231235 | 252142
12 | 56:01.68 | 5:01.67 | 252143 | 274784
13 | 61:03.60 | 4:42.39 | 274785 | 295973
14 | 65:46.24 | 5:41.58 | 295974 | 321606
15 | 71:28.07 | 4:20.61 | 321607 | 341167
16 | 75:48.68 | 3:44.04 | 341168 | 357971
Track 1
Filename H:\!!!!!!!!!!!!!!!!!!! EAC RIPS\Various - The Tabu Records Box Set\CD6\01 - Cherrelle - Still In Love With You.wav
Pre-gap length 0:00:02.00
Peak level 96.6 %
Extraction speed 4.6 X
Track quality 99.9 %
Test CRC CD7BBA36
Copy CRC CD7BBA36
Track not present in AccurateRip database
Copy OK
Track 2
Filename H:\!!!!!!!!!!!!!!!!!!! EAC RIPS\Various - The Tabu Records Box Set\CD6\02 - The S.O.S. Band - Feeling.wav
Pre-gap length 0:00:02.00
Peak level 96.6 %
Extraction speed 5.8 X
Track quality 100.0 %
Test CRC 430A98AD
Copy CRC 430A98AD
Track not present in AccurateRip database
Copy OK
Track 3
Filename H:\!!!!!!!!!!!!!!!!!!! EAC RIPS\Various - The Tabu Records Box Set\CD6\03 - Alexander O'Neal & Cherrelle - Everything I Miss At Home.wav
Pre-gap length 0:00:02.00
Peak level 98.5 %
Extraction speed 5.9 X
Track quality 100.0 %
Test CRC 7612F9C8
Copy CRC 7612F9C8
Track not present in AccurateRip database
Copy OK
Track 4
Filename H:\!!!!!!!!!!!!!!!!!!! EAC RIPS\Various - The Tabu Records Box Set\CD6\04 - James Robinson - Can We Do It Again.wav
Pre-gap length 0:00:02.00
Peak level 98.6 %
Extraction speed 6.4 X
Track quality 100.0 %
Test CRC 238BE3A2
Copy CRC 238BE3A2
Track not present in AccurateRip database
Copy OK
Track 5
Filename H:\!!!!!!!!!!!!!!!!!!! EAC RIPS\Various - The Tabu Records Box Set\CD6\05 - Mary Davis - Separate Ways.wav
Pre-gap length 0:00:02.00
Peak level 96.6 %
Extraction speed 6.9 X
Track quality 100.0 %
Test CRC 106E4734
Copy CRC 106E4734
Track not present in AccurateRip database
Copy OK
Track 6
Filename H:\!!!!!!!!!!!!!!!!!!! EAC RIPS\Various - The Tabu Records Box Set\CD6\06 - Alexander O'Neal - Lady.wav
Pre-gap length 0:00:02.00
Peak level 96.6 %
Extraction speed 6.6 X
Track quality 99.9 %
Test CRC 58315D2A
Copy CRC 58315D2A
Track not present in AccurateRip database
Copy OK
Track 7
Filename H:\!!!!!!!!!!!!!!!!!!! EAC RIPS\Various - The Tabu Records Box Set\CD6\07 - Rhonda Clark - You're My Everything (Feat Chuck Howard).wav
Pre-gap length 0:00:02.00
Peak level 98.4 %
Extraction speed 7.4 X
Track quality 100.0 %
Test CRC 4602BA87
Copy CRC 4602BA87
Track not present in AccurateRip database
Copy OK
Track 8
Filename H:\!!!!!!!!!!!!!!!!!!! EAC RIPS\Various - The Tabu Records Box Set\CD6\08 - The S.O.S. Band - Can't Explain.wav
Pre-gap length 0:00:02.00
Peak level 98.7 %
Extraction speed 7.7 X
Track quality 100.0 %
Test CRC D1FF62B8
Copy CRC D1FF62B8
Track not present in AccurateRip database
Copy OK
Track 9
Filename H:\!!!!!!!!!!!!!!!!!!! EAC RIPS\Various - The Tabu Records Box Set\CD6\09 - Cherrelle - Tears Of Joy.wav
Pre-gap length 0:00:02.00
Peak level 96.6 %
Extraction speed 7.7 X
Track quality 100.0 %
Test CRC 3E24C0FF
Copy CRC 3E24C0FF
Track not present in AccurateRip database
Copy OK
Track 10
Filename H:\!!!!!!!!!!!!!!!!!!! EAC RIPS\Various - The Tabu Records Box Set\CD6\10 - James Robinson - Guilty.wav
Pre-gap length 0:00:02.00
Peak level 96.6 %
Extraction speed 8.0 X
Track quality 100.0 %
Test CRC 8D0B3C5F
Copy CRC 8D0B3C5F
Track not present in AccurateRip database
Copy OK
Track 11
Filename H:\!!!!!!!!!!!!!!!!!!! EAC RIPS\Various - The Tabu Records Box Set\CD6\11 - Alexander O'Neal - Sentimental.wav
Pre-gap length 0:00:02.00
Peak level 96.6 %
Extraction speed 8.3 X
Track quality 100.0 %
Test CRC BDC240F1
Copy CRC BDC240F1
Track not present in AccurateRip database
Copy OK
Track 12
Filename H:\!!!!!!!!!!!!!!!!!!! EAC RIPS\Various - The Tabu Records Box Set\CD6\12 - The S.O.S. Band - Broken Promises.wav
Pre-gap length 0:00:02.00
Peak level 99.4 %
Extraction speed 8.5 X
Track quality 100.0 %
Test CRC AB7DF26F
Copy CRC AB7DF26F
Track not present in AccurateRip database
Copy OK
Track 13
Filename H:\!!!!!!!!!!!!!!!!!!! EAC RIPS\Various - The Tabu Records Box Set\CD6\13 - Demetrius Perry - Breathless.wav
Pre-gap length 0:00:02.00
Peak level 96.6 %
Extraction speed 7.8 X
Track quality 99.9 %
Test CRC 23643970
Copy CRC 23643970
Track not present in AccurateRip database
Copy OK
Track 14
Filename H:\!!!!!!!!!!!!!!!!!!! EAC RIPS\Various - The Tabu Records Box Set\CD6\14 - Kathy Mathis - Now That You're Gone.wav
Pre-gap length 0:00:02.00
Peak level 96.6 %
Extraction speed 9.1 X
Track quality 100.0 %
Test CRC 6244E0DA
Copy CRC 6244E0DA
Track not present in AccurateRip database
Copy OK
Track 15
Filename H:\!!!!!!!!!!!!!!!!!!! EAC RIPS\Various - The Tabu Records Box Set\CD6\15 - Alexander O'Neal - My Gift To You.wav
Pre-gap length 0:00:02.00
Peak level 96.6 %
Extraction speed 8.8 X
Track quality 100.0 %
Test CRC 190E5940
Copy CRC 190E5940
Track not present in AccurateRip database
Copy OK
Track 16
Filename H:\!!!!!!!!!!!!!!!!!!! EAC RIPS\Various - The Tabu Records Box Set\CD6\16 - Brainstorm - We're On Our Way Home (Part 1).wav
Pre-gap length 0:00:02.00
Peak level 96.6 %
Extraction speed 8.9 X
Track quality 100.0 %
Test CRC FBBECCB5
Copy CRC FBBECCB5
Track not present in AccurateRip database
Copy OK
None of the tracks are present in the AccurateRip database
No errors occurred
End of status report
---- CUETools DB Plugin V2.1.3
[CTDB TOCID: tNLkZ3tFDNWNqZa0XX8OKXF90wI-] disk not present in database, Submit result: tNLkZ3tFDNWNqZa0XX8OKXF90wI- has been uploaded
==== Log checksum C205BD07B8BA2F3A7476944301EAF6D300EA8C216D7E26764D1518A4A3954B82 ====
 
Содержание индексной карты (.CUE)
REM GENRE Soul
REM DATE 2014
REM DISCID F212A410
REM COMMENT "ExactAudioCopy v1.0b3"
PERFORMER Various
TITLE "The Tabu Records Box Set CD6 - The Final Years"
FILE "2014 The Tabu Records Box Set CD6 - The Final Years.wav" WAVE
TRACK 01 AUDIO
TITLE "Still In Love With You"
PERFORMER Cherrelle
ISRC USUG11004364
INDEX 01 00:00:00
TRACK 02 AUDIO
TITLE Feeling
PERFORMER "The S.O.S. Band"
ISRC GBBLG1301011
INDEX 00 05:11:29
FILE "2014 The Tabu Records Box Set CD6 - The Final Years.wav" WAVE
INDEX 01 00:00:00
TRACK 03 AUDIO
TITLE "Everything I Miss At Home"
PERFORMER "Alexander O'neal & Cherrelle"
INDEX 00 06:41:71
FILE "2014 The Tabu Records Box Set CD6 - The Final Years.wav" WAVE
INDEX 01 00:00:00
TRACK 04 AUDIO
TITLE "Can We Do It Again"
PERFORMER "James Robinson"
ISRC GBBLG1400067
INDEX 00 03:55:34
FILE "2014 The Tabu Records Box Set CD6 - The Final Years.wav" WAVE
INDEX 01 00:00:00
TRACK 05 AUDIO
TITLE "Separate Ways"
PERFORMER "Mary Davis"
ISRC GBBLG9000076
INDEX 00 05:02:39
FILE "2014 The Tabu Records Box Set CD6 - The Final Years.wav" WAVE
INDEX 01 00:00:00
TRACK 06 AUDIO
TITLE Lady
PERFORMER "Alexander O'neal"
INDEX 00 05:40:66
FILE "2014 The Tabu Records Box Set CD6 - The Final Years.wav" WAVE
INDEX 01 00:00:00
TRACK 07 AUDIO
TITLE "You're My Everything (Feat Chuck Howard)"
PERFORMER "Rhonda Clark"
ISRC GBBLG8900323
INDEX 00 05:33:46
FILE "2014 The Tabu Records Box Set CD6 - The Final Years.wav" WAVE
INDEX 01 00:00:00
TRACK 08 AUDIO
TITLE "Can't Explain"
PERFORMER "The S.O.S. Band"
ISRC GBBLG1301037
INDEX 00 04:23:03
FILE "2014 The Tabu Records Box Set CD6 - The Final Years.wav" WAVE
INDEX 01 00:00:00
TRACK 09 AUDIO
TITLE "Tears Of Joy"
PERFORMER Cherrelle
ISRC USUG11004367
INDEX 00 05:27:42
FILE "2014 The Tabu Records Box Set CD6 - The Final Years.wav" WAVE
INDEX 01 00:00:00
TRACK 10 AUDIO
TITLE Guilty
PERFORMER "James Robinson"
ISRC GBBLG1400068
INDEX 00 04:20:74
FILE "2014 The Tabu Records Box Set CD6 - The Final Years.wav" WAVE
INDEX 01 00:00:00
TRACK 11 AUDIO
TITLE Sentimental
PERFORMER "Alexander O'neal"
ISRC GBBPJ9100002
INDEX 00 04:45:56
FILE "2014 The Tabu Records Box Set CD6 - The Final Years.wav" WAVE
INDEX 01 00:00:00
TRACK 12 AUDIO
TITLE "Broken Promises"
PERFORMER "The S.O.S. Band"
ISRC GBBLG1301034
INDEX 00 04:36:58
FILE "2014 The Tabu Records Box Set CD6 - The Final Years.wav" WAVE
INDEX 01 00:00:00
TRACK 13 AUDIO
TITLE Breathless
PERFORMER "Demetrius Perry"
INDEX 00 04:59:67
FILE "2014 The Tabu Records Box Set CD6 - The Final Years.wav" WAVE
INDEX 01 00:00:00
TRACK 14 AUDIO
TITLE "Now That You're Gone"
PERFORMER "Kathy Mathis"
ISRC GBBLG8700211
INDEX 00 04:40:39
FILE "2014 The Tabu Records Box Set CD6 - The Final Years.wav" WAVE
INDEX 01 00:00:00
TRACK 15 AUDIO
TITLE "My Gift To You"
PERFORMER "Alexander O'neal"
ISRC GBBLG8800285
INDEX 00 05:39:58
FILE "2014 The Tabu Records Box Set CD6 - The Final Years.wav" WAVE
INDEX 01 00:00:00
TRACK 16 AUDIO
TITLE "We're On Our Way Home (Part 1)"
PERFORMER Brainstorm
ISRC USTS90200002
INDEX 00 04:18:61
FILE "2014 The Tabu Records Box Set CD6 - The Final Years.wav" WAVE
INDEX 01 00:00:00

Приятного прослушивания !
Приватный:
Нет (DHT включён)
Размер:
3.12 Гб (3,351,269,777 байт) » файлов: 111
Участники:
0 раздают, 0 качают (0 участников всего)
Внешние участники:
3 раздают, 1 качают (4 участников всего) [ Обновить ]
Есть вопросы - пишите личное сообщение пользователю M0p94ok.
09:27
136
Нет комментариев. Ваш будет первым!