Поиск

(Soul, R&B) [CD] VA - The Age Of Northern Soul! - 2012, FLAC (tracks+.cue), lossless

(Soul, R&B) [CD] VA - The Age Of Northern Soul! - 2012, FLAC (tracks+.cue), lossless
Треклист:
Various - The Age Of Northern Soul! Жанр: Soul, R&B
Носитель: CD
Год издания: 2012
Издатель (лейбл): Outta Soul Records
Номер по каталогу: OSCD032
Аудиокодек: FLAC (*.flac)
Тип рипа: tracks+.cue
Битрейт аудио: lossless
Продолжительность: 68:38
Источник (релизер): TmanHome
Наличие сканов в содержимом раздачи: да
Треклист:
01. Seven Day Fool (Etta James) (3:01)
02. Don't Feel Sorry For Me (Jimmy Ruffin) (2:24)
03. If You Don't Come (You Better Call) (Patience Valentine) (2:01)
04. I'm Going Home (Prince Conley) (2:30)
05. Bring Back Your Heart (The Del-Vikings) (3:00)
06. Drip Drop (The Drifters) (2:30)
07. I'm On My Way (Barbara Dane) (3:26)
08. Honky Tonk Woman (Fabulous Playboys) (2:52)
09. Don't Mess With My Man (Irma Thomas) (2:17)
10. Coal Miner (Nappy Brown) (2:38)
11. You're The Boss (Laverne Baker & Jimmy Ricks) (2:18)
12. Ammerette (Benny Spellman) (2:35)
13. Romance Without Finance (The Temptations) (2:50)
14. Jack Of All Trades (Eugene Church) (2:28)
15. Hard Times (The Royal Jokers) (2:07)
16. The Man Won't Work (Lillian Offitt) (2:24)
17. Mr Johnny Q (The Bobbettes) (2:15)
18. Take Me With You Baby (The 5 Royales) (2:27)
19. Hard Headed Woman (Eddie Burns) (2:35)
20. Oh My Soul (Garlon Davis) (2:11)
21. Miracles (The O'Jays) (2:27)
22. Just A Little Bit (Tiny Topsy) (2:37)
23. I Wonder (If Your Love Will Ever Belong To Me) (The Pentagons) (2:27)
24. My Darling (Ted Taylor) (2:26)
25. The Day Will Come (Freddie Gorman) (2:23)
26. Faded Letter (Satintones) (2:47)
27. It Keeps Raining (Fats Domino) (2:42)
 
 
Лог создания рипа
Exact Audio Copy V1.0 beta 6 from 9. April 2015
EAC extraction logfile from 27. November 2015, 20:54
Various Artists / The Age Of Northern Soul!
Used drive : TSSTcorpCDDVDW SH-224BB Adapter: 1 ID: 0
Read mode : Secure
Utilize accurate stream : Yes
Defeat audio cache : Yes
Make use of C2 pointers : No
Read offset correction : 6
Overread into Lead-In and Lead-Out : No
Fill up missing offset samples with silence : Yes
Delete leading and trailing silent blocks : No
Null samples used in CRC calculations : Yes
Used interface : Native Win32 interface for Win NT & 2000
Gap handling : Appended to previous track
Used output format : User Defined Encoder
Selected bitrate : 768 kBit/s
Quality : High
Add ID3 tag : No
Command line compressor : C:\Program Files (x86)\Exact Audio Copy\Flac\flac.exe
Additional command line options : -8 -V -T "ARTIST=%artist%" -T "TITLE=%title%" -T "ALBUM=%albumtitle%" -T "DATE=%year%" -T "TRACKNUMBER=%tracknr%" -T "TOTALTRACKS=%numtracks%" -T "GENRE=%genre%" -T "ALBUMARTIST=%albumartist%" -T "ALBUM ARTIST=%albumartist%" -T "COMMENT=EAC Secure Mode, Test & Copy, AccurateRip, FLAC -8" %source%
TOC of the extracted CD
Track | Start | Length | Start sector | End sector
---------------------------------------------------------
1 | 0:00.00 | 3:01.29 | 0 | 13603
2 | 3:01.29 | 2:23.64 | 13604 | 24392
3 | 5:25.18 | 2:01.27 | 24393 | 33494
4 | 7:26.45 | 2:30.24 | 33495 | 44768
5 | 9:56.69 | 3:00.13 | 44769 | 58281
6 | 12:57.07 | 2:30.08 | 58282 | 69539
7 | 15:27.15 | 3:25.73 | 69540 | 84987
8 | 18:53.13 | 2:52.31 | 84988 | 97918
9 | 21:45.44 | 2:17.06 | 97919 | 108199
10 | 24:02.50 | 2:38.01 | 108200 | 120050
11 | 26:40.51 | 2:18.19 | 120051 | 130419
12 | 28:58.70 | 2:34.59 | 130420 | 142028
13 | 31:33.54 | 2:49.74 | 142029 | 154777
14 | 34:23.53 | 2:27.52 | 154778 | 165854
15 | 36:51.30 | 2:06.51 | 165855 | 175355
16 | 38:58.06 | 2:23.71 | 175356 | 186151
17 | 41:22.02 | 2:15.05 | 186152 | 196281
18 | 43:37.07 | 2:26.51 | 196282 | 207282
19 | 46:03.58 | 2:35.05 | 207283 | 218912
20 | 48:38.63 | 2:10.43 | 218913 | 228705
21 | 50:49.31 | 2:26.49 | 228706 | 239704
22 | 53:16.05 | 2:37.01 | 239705 | 251480
23 | 55:53.06 | 2:26.48 | 251481 | 262478
24 | 58:19.54 | 2:25.62 | 262479 | 273415
25 | 60:45.41 | 2:23.17 | 273416 | 284157
26 | 63:08.58 | 2:46.70 | 284158 | 296677
27 | 65:55.53 | 2:42.17 | 296678 | 308844
Track 1
Filename C:\Rips\Various Artists - The Age Of Northern Soul! (2012) [FLAC]\01 - Etta James - Seven Day Fool.wav
Pre-gap length 0:00:02.00
Peak level 98.8 %
Extraction speed 1.7 X
Track quality 100.0 %
Test CRC 5F285E75
Copy CRC 5F285E75
Accurately ripped (confidence 1) [F8C47C24] (AR v2)
Copy OK
Track 2
Filename C:\Rips\Various Artists - The Age Of Northern Soul! (2012) [FLAC]\02 - Jimmy Ruffin - Don't Feel Sorry For Me.wav
Peak level 100.0 %
Extraction speed 1.7 X
Track quality 100.0 %
Test CRC 9055E046
Copy CRC 9055E046
Accurately ripped (confidence 1) [F110E97D] (AR v2)
Copy OK
Track 3
Filename C:\Rips\Various Artists - The Age Of Northern Soul! (2012) [FLAC]\03 - Patience Valentine - If You Don't Come (You Better Call).wav
Peak level 98.8 %
Extraction speed 1.7 X
Track quality 100.0 %
Test CRC 06B77619
Copy CRC 06B77619
Accurately ripped (confidence 1) [44850D0E] (AR v2)
Copy OK
Track 4
Filename C:\Rips\Various Artists - The Age Of Northern Soul! (2012) [FLAC]\04 - Prince Conley - I'm Going Home.wav
Peak level 92.2 %
Extraction speed 1.9 X
Track quality 100.0 %
Test CRC C532478C
Copy CRC C532478C
Accurately ripped (confidence 1) [79A26D27] (AR v2)
Copy OK
Track 5
Filename C:\Rips\Various Artists - The Age Of Northern Soul! (2012) [FLAC]\05 - The Del-Vikings - Bring Back Your Heart.wav
Peak level 98.8 %
Extraction speed 2.1 X
Track quality 100.0 %
Test CRC 9421BE61
Copy CRC 9421BE61
Accurately ripped (confidence 1) [ACC4C506] (AR v2)
Copy OK
Track 6
Filename C:\Rips\Various Artists - The Age Of Northern Soul! (2012) [FLAC]\06 - The Drifters - Drip Drop.wav
Peak level 98.8 %
Extraction speed 2.1 X
Track quality 100.0 %
Test CRC 48227013
Copy CRC 48227013
Accurately ripped (confidence 1) [ACBC0D1C] (AR v2)
Copy OK
Track 7
Filename C:\Rips\Various Artists - The Age Of Northern Soul! (2012) [FLAC]\07 - Barbara Dane - I'm On My Way.wav
Peak level 98.8 %
Extraction speed 2.4 X
Track quality 100.0 %
Test CRC DFC84603
Copy CRC DFC84603
Accurately ripped (confidence 1) [3CCE6AD8] (AR v2)
Copy OK
Track 8
Filename C:\Rips\Various Artists - The Age Of Northern Soul! (2012) [FLAC]\08 - Fabulous Playboys - Honky Tonk Woman.wav
Peak level 98.8 %
Extraction speed 2.2 X
Track quality 100.0 %
Test CRC 797C179F
Copy CRC 797C179F
Accurately ripped (confidence 1) [DC9CA0FE] (AR v2)
Copy OK
Track 9
Filename C:\Rips\Various Artists - The Age Of Northern Soul! (2012) [FLAC]\09 - Irma Thomas - Don't Mess With My Man.wav
Peak level 98.8 %
Extraction speed 1.6 X
Track quality 99.9 %
Test CRC E01DB851
Copy CRC E01DB851
Accurately ripped (confidence 1) [55C8AB6F] (AR v2)
Copy OK
Track 10
Filename C:\Rips\Various Artists - The Age Of Northern Soul! (2012) [FLAC]\10 - Nappy Brown - Coal Miner.wav
Peak level 98.8 %
Extraction speed 1.7 X
Track quality 99.9 %
Test CRC ADD5C2F7
Copy CRC ADD5C2F7
Accurately ripped (confidence 1) [9CD52C0E] (AR v2)
Copy OK
Track 11
Filename C:\Rips\Various Artists - The Age Of Northern Soul! (2012) [FLAC]\11 - Laverne Baker & Jimmy Ricks - You're The Boss.wav
Peak level 98.7 %
Extraction speed 2.2 X
Track quality 100.0 %
Test CRC ECF6DAC3
Copy CRC ECF6DAC3
Accurately ripped (confidence 1) [883C9C43] (AR v2)
Copy OK
Track 12
Filename C:\Rips\Various Artists - The Age Of Northern Soul! (2012) [FLAC]\12 - Benny Spellman - Ammerette.wav
Peak level 98.8 %
Extraction speed 2.4 X
Track quality 100.0 %
Test CRC 340519BB
Copy CRC 340519BB
Accurately ripped (confidence 1) [AD8B2A16] (AR v2)
Copy OK
Track 13
Filename C:\Rips\Various Artists - The Age Of Northern Soul! (2012) [FLAC]\13 - The Temptations - Romance Without Finance.wav
Peak level 98.7 %
Extraction speed 1.9 X
Track quality 99.9 %
Test CRC EFDD76E6
Copy CRC EFDD76E6
Accurately ripped (confidence 1) [67ECAF3C] (AR v2)
Copy OK
Track 14
Filename C:\Rips\Various Artists - The Age Of Northern Soul! (2012) [FLAC]\14 - Eugene Church - Jack Of All Trades.wav
Peak level 98.8 %
Extraction speed 1.7 X
Track quality 99.9 %
Test CRC 11BE2631
Copy CRC 11BE2631
Accurately ripped (confidence 1) [B5EEB015] (AR v2)
Copy OK
Track 15
Filename C:\Rips\Various Artists - The Age Of Northern Soul! (2012) [FLAC]\15 - The Royal Jokers - Hard Times.wav
Peak level 98.8 %
Extraction speed 2.4 X
Track quality 100.0 %
Test CRC 2403BDB8
Copy CRC 2403BDB8
Accurately ripped (confidence 1) [7DC39858] (AR v2)
Copy OK
Track 16
Filename C:\Rips\Various Artists - The Age Of Northern Soul! (2012) [FLAC]\16 - Lillian Offitt - The Man Won't Work.wav
Peak level 98.8 %
Extraction speed 0.0 X
Track quality 99.8 %
Test CRC D2B68744
Copy CRC D2B68744
Accurately ripped (confidence 1) [5E45627E] (AR v2)
Copy OK
Track 17
Filename C:\Rips\Various Artists - The Age Of Northern Soul! (2012) [FLAC]\17 - The Bobbettes - Mr Johnny Q.wav
Peak level 98.8 %
Extraction speed 2.9 X
Track quality 100.0 %
Test CRC 71BC5665
Copy CRC 71BC5665
Accurately ripped (confidence 1) [F34F664D] (AR v2)
Copy OK
Track 18
Filename C:\Rips\Various Artists - The Age Of Northern Soul! (2012) [FLAC]\18 - The 5 Royales - Take Me With You Baby.wav
Peak level 98.8 %
Extraction speed 2.9 X
Track quality 100.0 %
Test CRC C6CEB792
Copy CRC C6CEB792
Accurately ripped (confidence 1) [38209935] (AR v2)
Copy OK
Track 19
Filename C:\Rips\Various Artists - The Age Of Northern Soul! (2012) [FLAC]\19 - Eddie Burns - Hard Headed Woman.wav
Peak level 98.8 %
Extraction speed 3.0 X
Track quality 100.0 %
Test CRC AD17A292
Copy CRC AD17A292
Accurately ripped (confidence 1) [E2D2E9C7] (AR v2)
Copy OK
Track 20
Filename C:\Rips\Various Artists - The Age Of Northern Soul! (2012) [FLAC]\20 - Garlon Davis - Oh My Soul.wav
Peak level 98.8 %
Extraction speed 3.0 X
Track quality 100.0 %
Test CRC B2DB71E7
Copy CRC B2DB71E7
Accurately ripped (confidence 1) [7AD2E9BA] (AR v2)
Copy OK
Track 21
Filename C:\Rips\Various Artists - The Age Of Northern Soul! (2012) [FLAC]\21 - The O'Jays - Miracles.wav
Peak level 98.8 %
Extraction speed 3.1 X
Track quality 100.0 %
Test CRC 9EF0BEF9
Copy CRC 9EF0BEF9
Accurately ripped (confidence 1) [0469B938] (AR v2)
Copy OK
Track 22
Filename C:\Rips\Various Artists - The Age Of Northern Soul! (2012) [FLAC]\22 - Tiny Topsy - Just A Little Bit.wav
Peak level 98.8 %
Extraction speed 2.1 X
Track quality 99.9 %
Test CRC D42A4FD6
Copy CRC D42A4FD6
Accurately ripped (confidence 1) [EDE5650E] (AR v2)
Copy OK
Track 23
Filename C:\Rips\Various Artists - The Age Of Northern Soul! (2012) [FLAC]\23 - The Pentagons - I Wonder (If Your Love Will Ever Belong To Me).wav
Peak level 98.8 %
Extraction speed 3.2 X
Track quality 100.0 %
Test CRC 824BF7AC
Copy CRC 824BF7AC
Accurately ripped (confidence 1) [F959AE41] (AR v2)
Copy OK
Track 24
Filename C:\Rips\Various Artists - The Age Of Northern Soul! (2012) [FLAC]\24 - Ted Taylor - My Darling.wav
Peak level 98.8 %
Extraction speed 3.3 X
Track quality 100.0 %
Test CRC 19E7CDE4
Copy CRC 19E7CDE4
Accurately ripped (confidence 1) [4973CBAD] (AR v2)
Copy OK
Track 25
Filename C:\Rips\Various Artists - The Age Of Northern Soul! (2012) [FLAC]\25 - Freddie Gorman - The Day Will Come.wav
Peak level 89.6 %
Extraction speed 3.3 X
Track quality 100.0 %
Test CRC 6B71C31B
Copy CRC 6B71C31B
Accurately ripped (confidence 1) [69EE3D5A] (AR v2)
Copy OK
Track 26
Filename C:\Rips\Various Artists - The Age Of Northern Soul! (2012) [FLAC]\26 - Satintones - Faded Letter.wav
Peak level 98.7 %
Extraction speed 3.4 X
Track quality 100.0 %
Test CRC 63A6DFAB
Copy CRC 63A6DFAB
Accurately ripped (confidence 1) [6FA2D12A] (AR v2)
Copy OK
Track 27
Filename C:\Rips\Various Artists - The Age Of Northern Soul! (2012) [FLAC]\27 - Fats Domino - It Keeps Raining.wav
Peak level 92.2 %
Extraction speed 3.5 X
Track quality 100.0 %
Test CRC FA0088F7
Copy CRC FA0088F7
Accurately ripped (confidence 1) [AF52253C] (AR v2)
Copy OK
All tracks accurately ripped
No errors occurred
End of status report
---- CUETools DB Plugin V2.1.6
[CTDB TOCID: IyCzdU_HrLw1hxnjzHvYJg8va6o-] found
Submit result: IyCzdU_HrLw1hxnjzHvYJg8va6o- has been confirmed
Track | CTDB Status
1 | (1/1) Accurately ripped
2 | (1/1) Accurately ripped
3 | (1/1) Accurately ripped
4 | (1/1) Accurately ripped
5 | (1/1) Accurately ripped
6 | (1/1) Accurately ripped
7 | (1/1) Accurately ripped
8 | (1/1) Accurately ripped
9 | (1/1) Accurately ripped
10 | (1/1) Accurately ripped
11 | (1/1) Accurately ripped
12 | (1/1) Accurately ripped
13 | (1/1) Accurately ripped
14 | (1/1) Accurately ripped
15 | (1/1) Accurately ripped
16 | (1/1) Accurately ripped
17 | (1/1) Accurately ripped
18 | (1/1) Accurately ripped
19 | (1/1) Accurately ripped
20 | (1/1) Accurately ripped
21 | (1/1) Accurately ripped
22 | (1/1) Accurately ripped
23 | (1/1) Accurately ripped
24 | (1/1) Accurately ripped
25 | (1/1) Accurately ripped
26 | (1/1) Accurately ripped
27 | (1/1) Accurately ripped
==== Log checksum 135262A5D899A3B7F27C79ECB67E56E653DF5E4336462CE253E6E2898E625EDC ====
 
Содержание индексной карты (.CUE)
REM GENRE R&B
REM DATE 2012
REM DISCID 9310151B
REM COMMENT "ExactAudioCopy v1.0b6"
PERFORMER "Various Artists"
TITLE "The Age Of Northern Soul!"
FILE "01 - Etta James - Seven Day Fool.wav" WAVE
TRACK 01 AUDIO
TITLE "Seven Day Fool"
PERFORMER "Etta James"
INDEX 01 00:00:00
FILE "02 - Jimmy Ruffin - Don't Feel Sorry For Me.wav" WAVE
TRACK 02 AUDIO
TITLE "Don't Feel Sorry For Me"
PERFORMER "Jimmy Ruffin"
INDEX 01 00:00:00
FILE "03 - Patience Valentine - If You Don't Come (You Better Call).wav" WAVE
TRACK 03 AUDIO
TITLE "If You Don't Come (You Better Call)"
PERFORMER "Patience Valentine"
INDEX 01 00:00:00
FILE "04 - Prince Conley - I'm Going Home.wav" WAVE
TRACK 04 AUDIO
TITLE "I'm Going Home"
PERFORMER "Prince Conley"
INDEX 01 00:00:00
FILE "05 - The Del-Vikings - Bring Back Your Heart.wav" WAVE
TRACK 05 AUDIO
TITLE "Bring Back Your Heart"
PERFORMER "The Del-Vikings"
INDEX 01 00:00:00
FILE "06 - The Drifters - Drip Drop.wav" WAVE
TRACK 06 AUDIO
TITLE "Drip Drop"
PERFORMER "The Drifters"
INDEX 01 00:00:00
FILE "07 - Barbara Dane - I'm On My Way.wav" WAVE
TRACK 07 AUDIO
TITLE "I'm On My Way"
PERFORMER "Barbara Dane"
INDEX 01 00:00:00
FILE "08 - Fabulous Playboys - Honky Tonk Woman.wav" WAVE
TRACK 08 AUDIO
TITLE "Honky Tonk Woman"
PERFORMER "Fabulous Playboys"
INDEX 01 00:00:00
FILE "09 - Irma Thomas - Don't Mess With My Man.wav" WAVE
TRACK 09 AUDIO
TITLE "Don't Mess With My Man"
PERFORMER "Irma Thomas"
INDEX 01 00:00:00
FILE "10 - Nappy Brown - Coal Miner.wav" WAVE
TRACK 10 AUDIO
TITLE "Coal Miner"
PERFORMER "Nappy Brown"
INDEX 01 00:00:00
FILE "11 - Laverne Baker & Jimmy Ricks - You're The Boss.wav" WAVE
TRACK 11 AUDIO
TITLE "You're The Boss"
PERFORMER "Laverne Baker & Jimmy Ricks"
INDEX 01 00:00:00
FILE "12 - Benny Spellman - Ammerette.wav" WAVE
TRACK 12 AUDIO
TITLE "Ammerette"
PERFORMER "Benny Spellman"
INDEX 01 00:00:00
FILE "13 - The Temptations - Romance Without Finance.wav" WAVE
TRACK 13 AUDIO
TITLE "Romance Without Finance"
PERFORMER "The Temptations"
INDEX 01 00:00:00
FILE "14 - Eugene Church - Jack Of All Trades.wav" WAVE
TRACK 14 AUDIO
TITLE "Jack Of All Trades"
PERFORMER "Eugene Church"
INDEX 01 00:00:00
FILE "15 - The Royal Jokers - Hard Times.wav" WAVE
TRACK 15 AUDIO
TITLE "Hard Times"
PERFORMER "The Royal Jokers"
INDEX 01 00:00:00
FILE "16 - Lillian Offitt - The Man Won't Work.wav" WAVE
TRACK 16 AUDIO
TITLE "The Man Won't Work"
PERFORMER "Lillian Offitt"
INDEX 01 00:00:00
FILE "17 - The Bobbettes - Mr Johnny Q.wav" WAVE
TRACK 17 AUDIO
TITLE "Mr Johnny Q"
PERFORMER "The Bobbettes"
INDEX 01 00:00:00
FILE "18 - The 5 Royales - Take Me With You Baby.wav" WAVE
TRACK 18 AUDIO
TITLE "Take Me With You Baby"
PERFORMER "The 5 Royales"
INDEX 01 00:00:00
FILE "19 - Eddie Burns - Hard Headed Woman.wav" WAVE
TRACK 19 AUDIO
TITLE "Hard Headed Woman"
PERFORMER "Eddie Burns"
INDEX 01 00:00:00
FILE "20 - Garlon Davis - Oh My Soul.wav" WAVE
TRACK 20 AUDIO
TITLE "Oh My Soul"
PERFORMER "Garlon Davis"
INDEX 01 00:00:00
FILE "21 - The O'Jays - Miracles.wav" WAVE
TRACK 21 AUDIO
TITLE "Miracles"
PERFORMER "The O'Jays"
INDEX 01 00:00:00
FILE "22 - Tiny Topsy - Just A Little Bit.wav" WAVE
TRACK 22 AUDIO
TITLE "Just A Little Bit"
PERFORMER "Tiny Topsy"
INDEX 01 00:00:00
FILE "23 - The Pentagons - I Wonder (If Your Love Will Ever Belong To Me).wav" WAVE
TRACK 23 AUDIO
TITLE "I Wonder (If Your Love Will Ever Belong To Me)"
PERFORMER "The Pentagons"
INDEX 01 00:00:00
FILE "24 - Ted Taylor - My Darling.wav" WAVE
TRACK 24 AUDIO
TITLE "My Darling"
PERFORMER "Ted Taylor"
INDEX 01 00:00:00
FILE "25 - Freddie Gorman - The Day Will Come.wav" WAVE
TRACK 25 AUDIO
TITLE "The Day Will Come"
PERFORMER "Freddie Gorman"
INDEX 01 00:00:00
FILE "26 - Satintones - Faded Letter.wav" WAVE
TRACK 26 AUDIO
TITLE "Faded Letter"
PERFORMER "Satintones"
INDEX 01 00:00:00
FILE "27 - Fats Domino - It Keeps Raining.wav" WAVE
TRACK 27 AUDIO
TITLE "It Keeps Raining"
PERFORMER "Fats Domino"
INDEX 01 00:00:00
 
Об альбоме (сборнике)
1973 was a pivotal year for the Northern Soul movement. Its high-temple - Wigan Casino - had opened its doors to the faithful and this, slightly peculiar, underground music scene was about to break nationally. But it was all a far cry from the spiritual home of the music's roots which lay in the Bible Belt of the southeastern United States. It can be traced back to the late forties, to the birth of rhythm and blues, itself a hybrid of gospel, blues and hot jazz. A decade later, due to the rapid expansion of independent record labels (not least Detroit's Motown Records), R&B music inevitably found its way to these shores, and captured the imagination of insurance salesman and budding DJ Guy Stevens. Rhythm and Blues had arrived and buried deep in its grooves was the unmistakable dance beat that we call Northern Soul.
Приватный:
Нет (DHT включён)
Размер:
375.27 Мб (393,495,720 байт) » файлов: 40
Участники:
0 раздают, 1 качают (1 участников всего)
Внешние участники:
5 раздают, 1 качают (6 участников всего) [ Обновить ]
Скорость:
229.83 Кб/c 0/c
Есть вопросы - пишите личное сообщение пользователю M0p94ok.
09:13
73
Нет комментариев. Ваш будет первым!