Поиск

(Soul, R&B) [CD] Tyrone Davis - Turn Back The Hands Of Time - 1996 {Rhino, R2 72412}, FLAC (tracks+.cue), lossless

(Soul, R&B) [CD] Tyrone Davis - Turn Back The Hands Of Time - 1996 {Rhino, R2 72412}, FLAC (tracks+.cue), lossless
Треклист:
Tyrone Davis - Turn Back The Hands Of Time Жанр: Soul, R&B
Носитель: CD
Год издания: 1996
Издатель (лейбл): Rhino
Номер по каталогу: R2 72412
Аудиокодек: FLAC (*.flac)
Тип рипа: tracks+.cue
Битрейт аудио: lossless
Продолжительность: 32:16
Источник (релизер): What.cd (MrDap)
Наличие сканов в содержимом раздачи: нет
Треклист:
01. Turn Back The Hands Of Time (2:40)
02. Is It Something You Got (2:39)
03. I'll Be Right Here (2:40)
04. Let Me Back In (2:40)
05. Could I Forget You (2:29)
06. One-Way Ticket (2:36)
07. You Keep Me Holding On (3:23)
08. I Had It All The Time (5:38)
09. There It Is (4:12)
10. Without You In My Life (3:20)
  Это компиляция 1996 года , не путать со вторым студийным альбомом 1970 года с таким же названием.
 
Обложка альбома 1970 года

 
 
Лог создания рипа
Exact Audio Copy V0.99 prebeta 5 from 4. May 2009
EAC extraction logfile from 25. March 2010, 12:20
Tyrone Davis / Turn Back The Hands Of Time
Used drive : HP DVD Writer 1270d Adapter: 5 ID: 0
Read mode : Secure
Utilize accurate stream : Yes
Defeat audio cache : Yes
Make use of C2 pointers : No
Read offset correction : 6
Overread into Lead-In and Lead-Out : No
Fill up missing offset samples with silence : Yes
Delete leading and trailing silent blocks : No
Null samples used in CRC calculations : Yes
Used interface : Installed external ASPI interface
Gap handling : Appended to previous track
Used output format : User Defined Encoder
Selected bitrate : 128 kBit/s
Quality : High
Add ID3 tag : No
Command line compressor : C:\Program Files\Exact Audio Copy\Flac\flac.exe
Additional command line options : -8 -A tukey(0.25) -A gauss(0.1875) -b 4096 -V -T "artist=%a" -T "title=%t" -T "album=%g" -T "date=%y" -T "tracknumber=%n" -T "genre=%m" %s
TOC of the extracted CD
Track | Start | Length | Start sector | End sector
---------------------------------------------------------
1 | 0:00.32 | 2:40.18 | 32 | 12049
2 | 2:40.50 | 2:38.72 | 12050 | 23971
3 | 5:19.47 | 2:40.23 | 23972 | 35994
4 | 7:59.70 | 2:40.10 | 35995 | 48004
5 | 10:40.05 | 2:28.40 | 48005 | 59144
6 | 13:08.45 | 2:35.62 | 59145 | 70831
7 | 15:44.32 | 3:23.10 | 70832 | 86066
8 | 19:07.42 | 5:37.55 | 86067 | 111396
9 | 24:45.22 | 4:11.38 | 111397 | 130259
10 | 28:56.60 | 3:19.52 | 130260 | 145236
Track 1
Filename F:\Music Place\FLAC & WAV\Tyrone Davis - Turn Back The Hands Of Time (1970)\01. Tyrone Davis - Turn Back The Hands Of Time.wav
Pre-gap length 0:00:02.42
Peak level 100.0 %
Track quality 100.0 %
Test CRC B750CCF5
Copy CRC B750CCF5
Track not present in AccurateRip database
Copy OK
Track 2
Filename F:\Music Place\FLAC & WAV\Tyrone Davis - Turn Back The Hands Of Time (1970)\02. Tyrone Davis - Is It Something You Got.wav
Pre-gap length 0:00:01.16
Peak level 100.0 %
Track quality 100.0 %
Test CRC FD7E0FAD
Copy CRC FD7E0FAD
Track not present in AccurateRip database
Copy OK
Track 3
Filename F:\Music Place\FLAC & WAV\Tyrone Davis - Turn Back The Hands Of Time (1970)\03. Tyrone Davis - I'll Be Right Here.wav
Pre-gap length 0:00:01.38
Peak level 100.0 %
Track quality 100.0 %
Test CRC 13FB31CE
Copy CRC 13FB31CE
Track not present in AccurateRip database
Copy OK
Track 4
Filename F:\Music Place\FLAC & WAV\Tyrone Davis - Turn Back The Hands Of Time (1970)\04. Tyrone Davis - Let Me Back In.wav
Pre-gap length 0:00:01.40
Peak level 100.0 %
Track quality 100.0 %
Test CRC 44167E7A
Copy CRC 44167E7A
Track not present in AccurateRip database
Copy OK
Track 5
Filename F:\Music Place\FLAC & WAV\Tyrone Davis - Turn Back The Hands Of Time (1970)\05. Tyrone Davis - Could I Forget You.wav
Pre-gap length 0:00:01.62
Peak level 100.0 %
Track quality 100.0 %
Test CRC FAE9EB54
Copy CRC FAE9EB54
Track not present in AccurateRip database
Copy OK
Track 6
Filename F:\Music Place\FLAC & WAV\Tyrone Davis - Turn Back The Hands Of Time (1970)\06. Tyrone Davis - One-Way Ticket.wav
Pre-gap length 0:00:01.60
Peak level 100.0 %
Track quality 100.0 %
Test CRC 1A0F66F9
Copy CRC 1A0F66F9
Track not present in AccurateRip database
Copy OK
Track 7
Filename F:\Music Place\FLAC & WAV\Tyrone Davis - Turn Back The Hands Of Time (1970)\07. Tyrone Davis - You Keep Me Holding On.wav
Pre-gap length 0:00:02.62
Peak level 100.0 %
Track quality 100.0 %
Test CRC ECDE8BEA
Copy CRC ECDE8BEA
Track not present in AccurateRip database
Copy OK
Track 8
Filename F:\Music Place\FLAC & WAV\Tyrone Davis - Turn Back The Hands Of Time (1970)\08. Tyrone Davis - I Had It All The Time.wav
Pre-gap length 0:00:01.36
Peak level 92.1 %
Track quality 100.0 %
Test CRC F238E32D
Copy CRC F238E32D
Track not present in AccurateRip database
Copy OK
Track 9
Filename F:\Music Place\FLAC & WAV\Tyrone Davis - Turn Back The Hands Of Time (1970)\09. Tyrone Davis - There It Is.wav
Pre-gap length 0:00:01.38
Peak level 100.0 %
Track quality 100.0 %
Test CRC 65C45959
Copy CRC 65C45959
Track not present in AccurateRip database
Copy OK
Track 10
Filename F:\Music Place\FLAC & WAV\Tyrone Davis - Turn Back The Hands Of Time (1970)\10. Tyrone Davis - Without You In My Life.wav
Pre-gap length 0:00:01.86
Peak level 97.4 %
Track quality 100.0 %
Test CRC ACF62621
Copy CRC ACF62621
Track not present in AccurateRip database
Copy OK
None of the tracks are present in the AccurateRip database
No errors occurred
End of status report
 
Содержание индексной карты (.CUE)
REM GENRE Soul
REM DATE 1996
REM DISCID 8307900A
REM COMMENT "ExactAudioCopy v0.99pb5"
PERFORMER "Tyrone Davis"
TITLE "Turn Back The Hands Of Time"
FILE "01. Turn Back The Hands Of Time.flac" WAVE
TRACK 01 AUDIO
TITLE "Turn Back The Hands Of Time"
PERFORMER "Tyrone Davis"
PREGAP 00:00:32
INDEX 01 00:00:00
TRACK 02 AUDIO
TITLE "Is It Something You Got"
PERFORMER "Tyrone Davis"
INDEX 00 02:39:06
FILE "02. Is It Something You Got.flac" WAVE
INDEX 01 00:00:00
TRACK 03 AUDIO
TITLE "I'll Be Right Here"
PERFORMER "Tyrone Davis"
INDEX 00 02:37:43
FILE "03. I'll Be Right Here.flac" WAVE
INDEX 01 00:00:00
TRACK 04 AUDIO
TITLE "Let Me Back In"
PERFORMER "Tyrone Davis"
INDEX 00 02:38:68
FILE "04. Let Me Back In.flac" WAVE
INDEX 01 00:00:00
TRACK 05 AUDIO
TITLE "Could I Forget You"
PERFORMER "Tyrone Davis"
INDEX 00 02:38:38
FILE "05. Could I Forget You.flac" WAVE
INDEX 01 00:00:00
TRACK 06 AUDIO
TITLE "One-Way Ticket"
PERFORMER "Tyrone Davis"
INDEX 00 02:26:70
FILE "06. One-Way Ticket.flac" WAVE
INDEX 01 00:00:00
TRACK 07 AUDIO
TITLE "You Keep Me Holding On"
PERFORMER "Tyrone Davis"
INDEX 00 02:33:15
FILE "07. You Keep Me Holding On.flac" WAVE
INDEX 01 00:00:00
TRACK 08 AUDIO
TITLE "I Had It All The Time"
PERFORMER "Tyrone Davis"
INDEX 00 03:21:58
FILE "08. I Had It All The Time.flac" WAVE
INDEX 01 00:00:00
TRACK 09 AUDIO
TITLE "There It Is"
PERFORMER "Tyrone Davis"
INDEX 00 05:36:26
FILE "09. There It Is.flac" WAVE
INDEX 01 00:00:00
TRACK 10 AUDIO
TITLE "Without You In My Life"
PERFORMER "Tyrone Davis"
INDEX 00 04:09:48
FILE "10. Without You In My Life.flac" WAVE
INDEX 01 00:00:00
Приватный:
Нет (DHT включён)
Размер:
222.94 Мб (233,765,662 байт) » файлов: 17
Участники:
0 раздают, 0 качают (0 участников всего)
Внешние участники:
2 раздают, 1 качают (3 участников всего) [ Обновить ]
Есть вопросы - пишите личное сообщение пользователю M0p94ok.
10:57
83
Нет комментариев. Ваш будет первым!