Поиск

(Soul, R&B) [CD] Tyrone Davis - Let's Be Closer Together (1977) - 2015, FLAC (tracks+.cue), lossless

(Soul, R&B) [CD] Tyrone Davis - Let's Be Closer Together (1977) - 2015, FLAC (tracks+.cue), lossless
Треклист:
Tyrone Davis - Let's Be Closer Together (1977) Жанр: Soul, R&B
Носитель: CD
Год издания: 2015
Издатель (лейбл): FTG Records
Номер по каталогу: FTG-414
Аудиокодек: FLAC (*.flac)
Тип рипа: tracks+.cue
Битрейт аудио: lossless
Продолжительность: 48:28
Rip by JET 1
Наличие сканов в содержимом раздачи: да
Треклист:
01. All You Got (6:08)
02. I Just Can't Keep On Going (4:36)
03. If That's What It Takes (4:30)
04. Playing In The Sand (5:22)
05. This I Swear (5:59)
06. I Got Carried Away (5:06)
07. You Need Love (3:36)
08. Let's Be Closer Together (5:45)
Bonus tracks:
09. This I Swear (7'' Version) (3:41)
10. All You Got (7'' Version) (3:46)
 
 
Лог создания рипа
Exact Audio Copy V1.0 beta 3 from 29. August 2011
EAC extraction logfile from 19. June 2016, 1:22
Tyrone Davis / Let's Be Closer Together
Used drive : GENERIC CDRCB05 Adapter: 4 ID: 0
Read mode : Secure
Utilize accurate stream : Yes
Defeat audio cache : Yes
Make use of C2 pointers : No
Read offset correction : 102
Overread into Lead-In and Lead-Out : No
Fill up missing offset samples with silence : Yes
Delete leading and trailing silent blocks : No
Null samples used in CRC calculations : Yes
Used interface : Native Win32 interface for Win NT & 2000
Gap handling : Appended to previous track
Used output format : User Defined Encoder
Selected bitrate : 1024 kBit/s
Quality : High
Add ID3 tag : No
Command line compressor : C:\Program Files\FLAC\flac.exe
Additional command line options : -8 -V -T "ARTIST=%artist%" -T "TITLE=%title%" -T "ALBUM=%albumtitle%" -T "DATE=%year%" -T "TRACKNUMBER=%tracknr%" -T "GENRE=%genre%" -T "PERFORMER=%albuminterpret%" -T "COMPOSER=%composer%" %haslyrics%--tag-from-file=LYRICS="%lyricsfile%"%haslyrics% -T "ALBUMARTIST=%albumartist%" -T "DISCNUMBER=%cdnumber%" -T "TOTALDISCS=%totalcds%" -T "TOTALTRACKS=%numtracks%" -T "COMMENT=%comment%" %source% -o %dest%
TOC of the extracted CD
Track | Start | Length | Start sector | End sector
---------------------------------------------------------
1 | 0:00.00 | 6:08.12 | 0 | 27611
2 | 6:08.12 | 4:35.67 | 27612 | 48303
3 | 10:44.04 | 4:29.58 | 48304 | 68536
4 | 15:13.62 | 5:22.13 | 68537 | 92699
5 | 20:36.00 | 5:59.02 | 92700 | 119626
6 | 26:35.02 | 5:05.63 | 119627 | 142564
7 | 31:40.65 | 3:35.44 | 142565 | 158733
8 | 35:16.34 | 5:44.46 | 158734 | 184579
9 | 41:01.05 | 3:41.02 | 184580 | 201156
10 | 44:42.07 | 3:46.23 | 201157 | 218129
Track 1
Filename F:\.........POSTS\Tyrone Davis - Let's Be Closer Together (1977) [2015 FTG]\01 - All You Got.wav
Pre-gap length 0:00:02.00
Peak level 100.0 %
Extraction speed 2.2 X
Track quality 99.9 %
Test CRC 694EE89C
Copy CRC 694EE89C
Accurately ripped (confidence 2) [318D3083] (AR v2)
Copy OK
Track 2
Filename F:\.........POSTS\Tyrone Davis - Let's Be Closer Together (1977) [2015 FTG]\02 - I Just Can't Keep On Going.wav
Pre-gap length 0:00:01.32
Peak level 99.4 %
Extraction speed 2.4 X
Track quality 99.9 %
Test CRC D28C4830
Copy CRC D28C4830
Accurately ripped (confidence 2) [F3645FF7] (AR v2)
Copy OK
Track 3
Filename F:\.........POSTS\Tyrone Davis - Let's Be Closer Together (1977) [2015 FTG]\03 - If That's What It Takes.wav
Pre-gap length 0:00:01.32
Peak level 99.7 %
Extraction speed 2.9 X
Track quality 100.0 %
Test CRC F6BBF042
Copy CRC F6BBF042
Accurately ripped (confidence 2) [B34394A7] (AR v2)
Copy OK
Track 4
Filename F:\.........POSTS\Tyrone Davis - Let's Be Closer Together (1977) [2015 FTG]\04 - Playing In The Sand.wav
Pre-gap length 0:00:01.32
Peak level 96.8 %
Extraction speed 3.0 X
Track quality 100.0 %
Test CRC 8F7469F1
Copy CRC 8F7469F1
Accurately ripped (confidence 2) [B11A2D9C] (AR v2)
Copy OK
Track 5
Filename F:\.........POSTS\Tyrone Davis - Let's Be Closer Together (1977) [2015 FTG]\05 - This I Swear.wav
Pre-gap length 0:00:01.32
Peak level 100.0 %
Extraction speed 3.2 X
Track quality 100.0 %
Test CRC CC66BF79
Copy CRC CC66BF79
Accurately ripped (confidence 2) [3D540DF4] (AR v2)
Copy OK
Track 6
Filename F:\.........POSTS\Tyrone Davis - Let's Be Closer Together (1977) [2015 FTG]\06 - I Got Carried Away.wav
Pre-gap length 0:00:01.32
Peak level 100.0 %
Extraction speed 3.4 X
Track quality 100.0 %
Test CRC 5DCF223F
Copy CRC 5DCF223F
Accurately ripped (confidence 2) [FB765D34] (AR v2)
Copy OK
Track 7
Filename F:\.........POSTS\Tyrone Davis - Let's Be Closer Together (1977) [2015 FTG]\07 - You Need Love.wav
Pre-gap length 0:00:01.32
Peak level 100.0 %
Extraction speed 3.4 X
Track quality 100.0 %
Test CRC B23A1BB3
Copy CRC B23A1BB3
Accurately ripped (confidence 2) [B484D188] (AR v2)
Copy OK
Track 8
Filename F:\.........POSTS\Tyrone Davis - Let's Be Closer Together (1977) [2015 FTG]\08 - Let's Be Closer Together.wav
Pre-gap length 0:00:01.32
Peak level 100.0 %
Extraction speed 3.5 X
Track quality 99.9 %
Test CRC 95AA87DF
Copy CRC 95AA87DF
Accurately ripped (confidence 2) [FCCBAB3E] (AR v2)
Copy OK
Track 9
Filename F:\.........POSTS\Tyrone Davis - Let's Be Closer Together (1977) [2015 FTG]\09 - This I Swear (7'' Version).wav
Pre-gap length 0:00:01.32
Peak level 99.1 %
Extraction speed 3.6 X
Track quality 100.0 %
Test CRC 84947874
Copy CRC 84947874
Accurately ripped (confidence 2) [278440E9] (AR v2)
Copy OK
Track 10
Filename F:\.........POSTS\Tyrone Davis - Let's Be Closer Together (1977) [2015 FTG]\10 - All You Got (7'' Version).wav
Pre-gap length 0:00:01.33
Peak level 97.9 %
Extraction speed 3.7 X
Track quality 100.0 %
Test CRC 78DD3D8B
Copy CRC 78DD3D8B
Accurately ripped (confidence 2) [3CB970C5] (AR v2)
Copy OK
All tracks accurately ripped
No errors occurred
End of status report
==== Log checksum E1FE19028AFCB3E4CC3F88ECB0DAB3762C5FB6ACB616D9A4B9E92802B9389F4F ====
 
Содержание индексной карты (.CUE)
REM GENRE Soul
REM DATE 1977
REM DISCID 8A0B5C0A
REM COMMENT "ExactAudioCopy v1.0b3"
PERFORMER "Tyrone Davis"
TITLE "Let's Be Closer Together"
FILE "01 - All You Got.wav" WAVE
TRACK 01 AUDIO
TITLE "All You Got"
PERFORMER "Tyrone Davis"
INDEX 01 00:00:00
TRACK 02 AUDIO
TITLE "I Just Can't Keep On Going"
PERFORMER "Tyrone Davis"
INDEX 00 06:06:55
FILE "02 - I Just Can't Keep On Going.wav" WAVE
INDEX 01 00:00:00
TRACK 03 AUDIO
TITLE "If That's What It Takes"
PERFORMER "Tyrone Davis"
INDEX 00 04:34:35
FILE "03 - If That's What It Takes.wav" WAVE
INDEX 01 00:00:00
TRACK 04 AUDIO
TITLE "Playing In The Sand"
PERFORMER "Tyrone Davis"
INDEX 00 04:28:26
FILE "04 - Playing In The Sand.wav" WAVE
INDEX 01 00:00:00
TRACK 05 AUDIO
TITLE "This I Swear"
PERFORMER "Tyrone Davis"
INDEX 00 05:20:56
FILE "05 - This I Swear.wav" WAVE
INDEX 01 00:00:00
TRACK 06 AUDIO
TITLE "I Got Carried Away"
PERFORMER "Tyrone Davis"
INDEX 00 05:57:45
FILE "06 - I Got Carried Away.wav" WAVE
INDEX 01 00:00:00
TRACK 07 AUDIO
TITLE "You Need Love"
PERFORMER "Tyrone Davis"
INDEX 00 05:04:31
FILE "07 - You Need Love.wav" WAVE
INDEX 01 00:00:00
TRACK 08 AUDIO
TITLE "Let's Be Closer Together"
PERFORMER "Tyrone Davis"
INDEX 00 03:34:12
FILE "08 - Let's Be Closer Together.wav" WAVE
INDEX 01 00:00:00
TRACK 09 AUDIO
TITLE "This I Swear (7'' Version)"
PERFORMER "Tyrone Davis"
INDEX 00 05:43:14
FILE "09 - This I Swear (7'' Version).wav" WAVE
INDEX 01 00:00:00
TRACK 10 AUDIO
TITLE "All You Got (7'' Version)"
PERFORMER "Tyrone Davis"
INDEX 00 03:39:44
FILE "10 - All You Got (7'' Version).wav" WAVE
INDEX 01 00:00:00
Приватный:
Нет (DHT включён)
Размер:
402.07 Мб (421,602,221 байт) » файлов: 22
Участники:
0 раздают, 0 качают (0 участников всего)
Внешние участники:
--- [ Обновить ]
No seeders - write personal message to user M0p94ok. Нет сидеров - пишите личное сообщение пользователю M0p94ok.
10:57
67
Нет комментариев. Ваш будет первым!