Поиск

(Jam Bands, Jazz-Funk) [CD] Mike Dillon's Go-Go Jungle - Rock Star Bench Press - 2009, FLAC (tracks+.cue), lossless

(Jam Bands, Jazz-Funk) [CD] Mike Dillon's Go-Go Jungle - Rock Star Bench Press - 2009, FLAC (tracks+.cue), lossless
Треклист:
Mike Dillon's Go-Go Jungle - Rock Star Bench Press
Жанр: Jam Bands, Jazz-Funk
Носитель: CD
Страна-производитель диска (релиза): США
Год издания: 2009
Издатель (лейбл): Hyena Records
Номер по каталогу: HYN 9374
Аудиокодек: FLAC (*.flac)
Тип рипа: tracks+.cue
Битрейт аудио: lossless
Продолжительность: 57:01
Источник (релизер): gregfrankenstein (what)
Наличие сканов в содержимом раздачи: сетевые
Треклист:
01. Go Go's Theme Song No.2 (I Saw George Porter Jr. Playing Punk Rowk with My Pal Skerik) (4:41)
02. Rock Star Bench Press (2:56)
03. Redneck Tie Down Your Ladder (3:25)
04. Surfin with You (8:47)
05. Sack O' Sheet (3:14)
06. Hole in My Stomach (4:15)
07. Chemtrails (5:53)
08. Vietnam (1:31)
09. The Man Who Shot the Voting Machine (3:56)
10. Scampi from Hampi (2:09)
11. Smokestacks (4:09)
12. Summertime Rolls (6:13)
13. Do You Wanna Play? (5:52)
 
Лог создания рипа
X Lossless Decoder version 20120226 (139.1)
XLD extraction logfile from 2012-03-24 17:31:07 -0700
Mike Dillon's Go-Go Jungle / Rock Star Bench Press
Used drive : MATSHITA DVD-R UJ-85J (revision FCQA)
Ripper mode : XLD Secure Ripper
Disable audio cache : OK for the drive with a cache less than 1375KiB
Make use of C2 pointers : NO
Read offset correction : 102
Max retry count : 100
Gap status : Analyzed, Appended (except HTOA)
TOC of the extracted CD
Track | Start | Length | Start sector | End sector
---------------------------------------------------------
1 | 00:00:00 | 04:41:23 | 0 | 21097
2 | 04:41:23 | 02:55:72 | 21098 | 34294
3 | 07:37:20 | 03:25:29 | 34295 | 49698
4 | 11:02:49 | 08:46:42 | 49699 | 89190
5 | 19:49:16 | 03:13:46 | 89191 | 103711
6 | 23:02:62 | 04:15:23 | 103712 | 122859
7 | 27:18:10 | 05:52:69 | 122860 | 149328
8 | 33:11:04 | 01:30:60 | 149329 | 156138
9 | 34:41:64 | 03:56:20 | 156139 | 173858
10 | 38:38:09 | 02:09:22 | 173859 | 183555
11 | 40:47:31 | 04:08:71 | 183556 | 202226
12 | 44:56:27 | 06:12:41 | 202227 | 230167
13 | 51:08:68 | 05:51:71 | 230168 | 256563
AccurateRip Summary
Disc not found in AccurateRip DB.
All Tracks
Album gain : -5.54 dB
Peak : 0.966003
Statistics
Read error : 0
Jitter error (maybe fixed) : 0
Retry sector count : 0
Damaged sector count : 0
Track 01
Filename : /Users/tyler/flac/Mike Dillon's Go-Go Jungle - Rock Star Bench Press (2009) [FLAC]/01 Go Go's Theme Song No. 2 (I Saw George Porter Jr. Playing Punk Rowk With My Pal Skerik).flac
Pre-gap length : 00:02:00
Track gain : -5.31 dB
Peak : 0.964264
CRC32 hash (test run) : 5E419F5B
CRC32 hash : 5E419F5B
CRC32 hash (skip zero) : E38A4F05
AccurateRip signature : 5BD1D197
->Track not present in AccurateRip database.
Statistics
Read error : 0
Jitter error (maybe fixed) : 0
Retry sector count : 0
Damaged sector count : 0
Track 02
Filename : /Users/tyler/flac/Mike Dillon's Go-Go Jungle - Rock Star Bench Press (2009) [FLAC]/02 Rock Star Bench Press.flac
Track gain : -6.24 dB
Peak : 0.966003
CRC32 hash (test run) : 78AB1346
CRC32 hash : 78AB1346
CRC32 hash (skip zero) : F33845AC
AccurateRip signature : 667EDE81
->Track not present in AccurateRip database.
Statistics
Read error : 0
Jitter error (maybe fixed) : 0
Retry sector count : 0
Damaged sector count : 0
Track 03
Filename : /Users/tyler/flac/Mike Dillon's Go-Go Jungle - Rock Star Bench Press (2009) [FLAC]/03 Redneck Tie Down Your Ladder.flac
Track gain : -6.07 dB
Peak : 0.963715
CRC32 hash (test run) : 1B048123
CRC32 hash : 1B048123
CRC32 hash (skip zero) : 6B911F36
AccurateRip signature : CD74419F
->Track not present in AccurateRip database.
Statistics
Read error : 0
Jitter error (maybe fixed) : 0
Retry sector count : 0
Damaged sector count : 0
Track 04
Filename : /Users/tyler/flac/Mike Dillon's Go-Go Jungle - Rock Star Bench Press (2009) [FLAC]/04 Surfin With You.flac
Track gain : -5.96 dB
Peak : 0.964630
CRC32 hash (test run) : 915988BD
CRC32 hash : 915988BD
CRC32 hash (skip zero) : CE0C1D62
AccurateRip signature : ECDEC2F1
->Track not present in AccurateRip database.
Statistics
Read error : 0
Jitter error (maybe fixed) : 0
Retry sector count : 0
Damaged sector count : 0
Track 05
Filename : /Users/tyler/flac/Mike Dillon's Go-Go Jungle - Rock Star Bench Press (2009) [FLAC]/05 Sack O' Sheet.flac
Track gain : -5.75 dB
Peak : 0.966003
CRC32 hash (test run) : 786DE4D5
CRC32 hash : 786DE4D5
CRC32 hash (skip zero) : 93C8B811
AccurateRip signature : 15B84496
->Track not present in AccurateRip database.
Statistics
Read error : 0
Jitter error (maybe fixed) : 0
Retry sector count : 0
Damaged sector count : 0
Track 06
Filename : /Users/tyler/flac/Mike Dillon's Go-Go Jungle - Rock Star Bench Press (2009) [FLAC]/06 Hole In My Stomach.flac
Track gain : -4.90 dB
Peak : 0.966003
CRC32 hash (test run) : 727506B3
CRC32 hash : 727506B3
CRC32 hash (skip zero) : 48AAC771
AccurateRip signature : BBAA4FFF
->Track not present in AccurateRip database.
Statistics
Read error : 0
Jitter error (maybe fixed) : 0
Retry sector count : 0
Damaged sector count : 0
Track 07
Filename : /Users/tyler/flac/Mike Dillon's Go-Go Jungle - Rock Star Bench Press (2009) [FLAC]/07 Chemtrails.flac
Track gain : -4.86 dB
Peak : 0.965759
CRC32 hash (test run) : 2FDC8D2A
CRC32 hash : 2FDC8D2A
CRC32 hash (skip zero) : FD071C72
AccurateRip signature : 025942D9
->Track not present in AccurateRip database.
Statistics
Read error : 0
Jitter error (maybe fixed) : 0
Retry sector count : 0
Damaged sector count : 0
Track 08
Filename : /Users/tyler/flac/Mike Dillon's Go-Go Jungle - Rock Star Bench Press (2009) [FLAC]/08 Vietnam.flac
Track gain : -4.03 dB
Peak : 0.966003
CRC32 hash (test run) : 18090DD5
CRC32 hash : 18090DD5
CRC32 hash (skip zero) : 638CD82D
AccurateRip signature : 5ED70138
->Track not present in AccurateRip database.
Statistics
Read error : 0
Jitter error (maybe fixed) : 0
Retry sector count : 0
Damaged sector count : 0
Track 09
Filename : /Users/tyler/flac/Mike Dillon's Go-Go Jungle - Rock Star Bench Press (2009) [FLAC]/09 The Man Who Shot The Voting Machine.flac
Pre-gap length : 00:01:27
Track gain : -4.52 dB
Peak : 0.966003
CRC32 hash (test run) : BB692854
CRC32 hash : BB692854
CRC32 hash (skip zero) : 75A8C93D
AccurateRip signature : 88E6533D
->Track not present in AccurateRip database.
Statistics
Read error : 0
Jitter error (maybe fixed) : 0
Retry sector count : 0
Damaged sector count : 0
Track 10
Filename : /Users/tyler/flac/Mike Dillon's Go-Go Jungle - Rock Star Bench Press (2009) [FLAC]/10 Scampi From Hampi.flac
Track gain : -4.64 dB
Peak : 0.966003
CRC32 hash (test run) : 27D0FA91
CRC32 hash : 27D0FA91
CRC32 hash (skip zero) : 7BE6AE27
AccurateRip signature : 1E0E7C0F
->Track not present in AccurateRip database.
Statistics
Read error : 0
Jitter error (maybe fixed) : 0
Retry sector count : 0
Damaged sector count : 0
Track 11
Filename : /Users/tyler/flac/Mike Dillon's Go-Go Jungle - Rock Star Bench Press (2009) [FLAC]/11 Smokestacks.flac
Track gain : -5.98 dB
Peak : 0.966003
CRC32 hash (test run) : CBF7E481
CRC32 hash : CBF7E481
CRC32 hash (skip zero) : C20D3444
AccurateRip signature : 2C29E282
->Track not present in AccurateRip database.
Statistics
Read error : 0
Jitter error (maybe fixed) : 0
Retry sector count : 0
Damaged sector count : 0
Track 12
Filename : /Users/tyler/flac/Mike Dillon's Go-Go Jungle - Rock Star Bench Press (2009) [FLAC]/12 Summertime Rolls.flac
Track gain : -5.02 dB
Peak : 0.965973
CRC32 hash (test run) : 1A213C5F
CRC32 hash : 1A213C5F
CRC32 hash (skip zero) : CC6768D0
AccurateRip signature : C3FD3D4E
->Track not present in AccurateRip database.
Statistics
Read error : 0
Jitter error (maybe fixed) : 0
Retry sector count : 0
Damaged sector count : 0
Track 13
Filename : /Users/tyler/flac/Mike Dillon's Go-Go Jungle - Rock Star Bench Press (2009) [FLAC]/13 Do You Wanna Play?.flac
Track gain : -6.07 dB
Peak : 0.965973
CRC32 hash (test run) : E475C341
CRC32 hash : E475C341
CRC32 hash (skip zero) : 231DE551
AccurateRip signature : 6AAB1C11
->Track not present in AccurateRip database.
Statistics
Read error : 0
Jitter error (maybe fixed) : 0
Retry sector count : 0
Damaged sector count : 0
No errors occurred
End of status report
 
Содержание индексной карты (.CUE)
TITLE "Rock Star Bench Press"
PERFORMER "Mike Dillon's Go-Go Jungle"
REM GENRE "Funk"
REM DATE "2009"
REM DISCID B80D5C0D
REM REPLAYGAIN_ALBUM_GAIN -5.54 dB
REM REPLAYGAIN_ALBUM_PEAK 0.966003
FILE "01 - Go Go's Theme Song No.2 (I Saw George Porter Jr. Playing Punk Rowk with My Pal Skerik).flac" WAVE
TRACK 01 AUDIO
TITLE "Go Go's Theme Song No.2 (I Saw George Porter Jr. Playing Punk Rowk with My Pal Skerik)"
ISRC US39C0801349
REM REPLAYGAIN_TRACK_GAIN -5.31 dB
REM REPLAYGAIN_TRACK_PEAK 0.964264
INDEX 01 00:00:00
FILE "02 - Rock Star Bench Press.flac" WAVE
TRACK 02 AUDIO
TITLE "Rock Star Bench Press"
ISRC US39C0801350
REM REPLAYGAIN_TRACK_GAIN -6.24 dB
REM REPLAYGAIN_TRACK_PEAK 0.966003
INDEX 01 00:00:00
FILE "03 - Redneck Tie Down Your Ladder.flac" WAVE
TRACK 03 AUDIO
TITLE "Redneck Tie Down Your Ladder"
ISRC US39C0801351
REM REPLAYGAIN_TRACK_GAIN -6.07 dB
REM REPLAYGAIN_TRACK_PEAK 0.963715
INDEX 01 00:00:00
FILE "04 - Surfin with You.flac" WAVE
TRACK 04 AUDIO
TITLE "Surfin with You"
ISRC US39C0801352
REM REPLAYGAIN_TRACK_GAIN -5.96 dB
REM REPLAYGAIN_TRACK_PEAK 0.964630
INDEX 01 00:00:00
FILE "05 - Sack O' Sheet.flac" WAVE
TRACK 05 AUDIO
TITLE "Sack O' Sheet"
ISRC US39C0801353
REM REPLAYGAIN_TRACK_GAIN -5.75 dB
REM REPLAYGAIN_TRACK_PEAK 0.966003
INDEX 01 00:00:00
FILE "06 - Hole in My Stomach.flac" WAVE
TRACK 06 AUDIO
TITLE "Hole in My Stomach"
ISRC US39C0801354
REM REPLAYGAIN_TRACK_GAIN -4.90 dB
REM REPLAYGAIN_TRACK_PEAK 0.966003
INDEX 01 00:00:00
FILE "07 - Chemtrails.flac" WAVE
TRACK 07 AUDIO
TITLE "Chemtrails"
ISRC US39C0801355
REM REPLAYGAIN_TRACK_GAIN -4.86 dB
REM REPLAYGAIN_TRACK_PEAK 0.965759
INDEX 01 00:00:00
FILE "08 - Vietnam.flac" WAVE
TRACK 08 AUDIO
TITLE "Vietnam"
ISRC US39C0801356
REM REPLAYGAIN_TRACK_GAIN -4.03 dB
REM REPLAYGAIN_TRACK_PEAK 0.966003
INDEX 01 00:00:00
TRACK 09 AUDIO
TITLE "The Man Who Shot the Voting Machine"
ISRC US39C0801357
REM REPLAYGAIN_TRACK_GAIN -4.52 dB
REM REPLAYGAIN_TRACK_PEAK 0.966003
INDEX 00 01:29:33
FILE "09 - The Man Who Shot the Voting Machine.flac" WAVE
INDEX 01 00:00:00
FILE "10 - Scampi from Hampi.flac" WAVE
TRACK 10 AUDIO
TITLE "Scampi from Hampi"
ISRC US39C0801358
REM REPLAYGAIN_TRACK_GAIN -4.64 dB
REM REPLAYGAIN_TRACK_PEAK 0.966003
INDEX 01 00:00:00
FILE "11 - Smokestacks.flac" WAVE
TRACK 11 AUDIO
TITLE "Smokestacks"
ISRC US39C0801359
REM REPLAYGAIN_TRACK_GAIN -5.98 dB
REM REPLAYGAIN_TRACK_PEAK 0.966003
INDEX 01 00:00:00
FILE "12 - Summertime Rolls.flac" WAVE
TRACK 12 AUDIO
TITLE "Summertime Rolls"
ISRC US39C0801360
REM REPLAYGAIN_TRACK_GAIN -5.02 dB
REM REPLAYGAIN_TRACK_PEAK 0.965973
INDEX 01 00:00:00
FILE "13 - Do You Wanna Play.flac" WAVE
TRACK 13 AUDIO
TITLE "Do You Wanna Play?"
ISRC US39C0801361
REM REPLAYGAIN_TRACK_GAIN -6.07 dB
REM REPLAYGAIN_TRACK_PEAK 0.965973
INDEX 01 00:00:00
 
Review by Dennis Cook
Weird don’t usually swing this bloody hard! From the suited Yellow Submarine-like beastie throwing the horns on the cover to the electric vibraphone crunch inside (not to mention further subconscious stoking imagery from Thom Self) to the Butthole Surfers-esque, uh, singing, the latest from Mike Dillon’s Go-Go Jungle is unabashedly “other.” Dillon’s jib is cut WAY different than the other monkeys brachiating around music, and we’re goddamn lucky to have him – a flexed, unwavering warrior for the punk rock ethos married to startlingly kinetic musicianship. Roaring like vintage Black Flag era Henry Rollins lit up by some new upper drug, banging mallets on all manner of plinking, clanging objects, Mike D and his coconspirators – JJ Jungle (bass, vocals, keys) and Go-Go Ray (drums) – have generated one of this year’s grandest rackets, a work that infuses jazz and rock with a two-fingered salute backed by as much brains as brawn.
In some ways, Rock Star Bench Press (released February 10 on Hyena Records) is the holy/unholy meeting of the Modern Jazz Quartet with The Minutemen, D.C. go-go hump with Public Image Ltd. brute sophistication, Tortoise swoon mixed with Beat Poet glossolalia. Yet, none of these ancestors would likely have produced this sound. As the wide, toothy mouth on the cover suggests, Go-Go Jungle masticate influences and burp up something redolent of their unique stomach acid. By turns sexy and mean, hypnotic and battering, Bench Press pushes limits, their own and the listeners’, too. Calling out liars and cheats, they also remember to shout, “Dance, motherfuckers!” with alarming regularity. “I can’t do what I’m told!” roars Dillon on “Sack O’ Sheet,” and misbehavior is a cornerstone of their philosophy. But, this isn’t just wild hairs and rebellion. There’s real love for serious playing and musical sophistication hiding in the clamor. While you’re snapping your neck into chiropractic agony and throwing the horns it’s easy to miss how much is going on inside these thirteen marvelous salvos, but step off the dance floor for a minute and take a good, hard listen and you’ll find some of the smartest thugs to ever muscle sound around.
The groundwork laid on 2007’s Battery Milk (see JamBase review here) comes to fulminating, invigorating fruition on Rock Star Bench Press, an album that encapsulates and comments on the justifiable rage of the G.W. Bush years AND gives us tools for breaking down our psychic walls as we move into what we’re all hoping is a brighter fucking tomorrow, shaking off our rage with mad laughter and booty vibrating vigor.
Приватный:
Нет (DHT включён)
Размер:
371.27 Мб (389,304,809 байт) » файлов: 20
Участники:
0 раздают, 0 качают (0 участников всего)
Внешние участники:
1 раздают, 0 качают (1 участников всего) [ Обновить ]
Есть вопросы - пишите личное сообщение пользователю M0p94ok.
10:56
52
Нет комментариев. Ваш будет первым!