Поиск

(Soul) [CD] Laura Mvula - The Dreaming Room - 2016, FLAC (image+.cue), lossless

(Soul) [CD] Laura Mvula - The Dreaming Room - 2016, FLAC (image+.cue), lossless
Треклист:
Laura Mvula / The Dreaming Room
Жанр: Soul
Носитель: CD
Страна-производитель диска (релиза): EU
Год издания: 2016
Издатель (лейбл): RCA|Sony
Номер по каталогу: 88875165682
Страна исполнителя (группы): UK
Аудиокодек: FLAC (*.flac)
Тип рипа: image+.cue
Битрейт аудио: lossless
Продолжительность: 00:36:23
Источник (релизер): usenet
Наличие сканов в содержимом раздачи: да
Треклист:
01. Who I Am (1:19)
02. Overcome (3:12)
03. Bread (3:22)
04. Lucky Man (2:53)
05. Let Me Fall (3:40)
06. Kiss My Feet (3:44)
07. Show Me Love (6:03)
08. Renaissance Moon (0:46)
09. Angel (3:41)
10. People (3:48)
11. Nan (1:12)
12. Phenomenal Woman (2:44)
 
Лог создания рипа
Exact Audio Copy V1.1 from 23. June 2015
EAC extraction logfile from 17. June 2016, 10:26
Laura Mvula / The Dream Room
Used drive : HL-DT-STDVDRAM GH24NSD1 Adapter: 0 ID: 0
Read mode : Secure
Utilize accurate stream : Yes
Defeat audio cache : Yes
Make use of C2 pointers : No
Read offset correction : 6
Overread into Lead-In and Lead-Out : No
Fill up missing offset samples with silence : Yes
Delete leading and trailing silent blocks : No
Null samples used in CRC calculations : Yes
Used interface : Installed external ASPI interface
Used output format : Internal WAV Routines
Sample format : 44.100 Hz; 16 Bit; Stereo
TOC of the extracted CD
Track | Start | Length | Start sector | End sector
---------------------------------------------------------
1 | 0:00.00 | 1:18.59 | 0 | 5908
2 | 1:18.59 | 3:11.73 | 5909 | 20306
3 | 4:30.57 | 3:22.13 | 20307 | 35469
4 | 7:52.70 | 2:52.50 | 35470 | 48419
5 | 10:45.45 | 3:40.08 | 48420 | 64927
6 | 14:25.53 | 3:43.42 | 64928 | 81694
7 | 18:09.20 | 6:03.05 | 81695 | 108924
8 | 24:12.25 | 0:45.43 | 108925 | 112342
9 | 24:57.68 | 3:41.17 | 112343 | 128934
10 | 28:39.10 | 3:47.62 | 128935 | 146021
11 | 32:26.72 | 1:11.70 | 146022 | 151416
12 | 33:38.67 | 2:44.15 | 151417 | 163731
Range status and errors
Selected range
Filename H:\SPOTNET\Laura Mvula - Dreaming Room (EAC)\Laura Mvula - The Dream Room.wav
Peak level 97.5 %
Extraction speed 6.6 X
Range quality 100.0 %
Test CRC E8CF103D
Copy CRC E8CF103D
Copy OK
No errors occurred
AccurateRip summary
Track 1 not present in database
Track 2 not present in database
Track 3 not present in database
Track 4 not present in database
Track 5 not present in database
Track 6 not present in database
Track 7 not present in database
Track 8 not present in database
Track 9 not present in database
Track 10 not present in database
Track 11 not present in database
Track 12 not present in database
None of the tracks are present in the AccurateRip database
End of status report
 
Содержание индексной карты (.CUE)
REM GENRE Pop
REM DATE 2016
REM DISCID 9F08870C
REM COMMENT "ExactAudioCopy v1.1"
PERFORMER "Laura Mvula"
TITLE "The Dream Room"
FILE "Laura Mvula - The Dream Room.wav" WAVE
TRACK 01 AUDIO
TITLE "Who I Am"
PERFORMER "Laura Mvula"
INDEX 01 00:00:00
TRACK 02 AUDIO
TITLE "Overcome (feat. Nile Rodgers)"
PERFORMER "Laura Mvula"
INDEX 01 01:18:59
TRACK 03 AUDIO
TITLE "Bread"
PERFORMER "Laura Mvula"
INDEX 01 04:30:57
TRACK 04 AUDIO
TITLE "Lucky Man"
PERFORMER "Laura Mvula"
INDEX 01 07:52:70
TRACK 05 AUDIO
TITLE "Let Me Fall"
PERFORMER "Laura Mvula"
INDEX 01 10:45:45
TRACK 06 AUDIO
TITLE "Kiss My Feet"
PERFORMER "Laura Mvula"
INDEX 01 14:25:53
TRACK 07 AUDIO
TITLE "Show Me LOve"
PERFORMER "Laura Mvula"
INDEX 01 18:09:20
TRACK 08 AUDIO
TITLE "Renaissance Moon"
PERFORMER "Laura Mvula"
INDEX 01 24:12:25
TRACK 09 AUDIO
TITLE "Angel"
PERFORMER "Laura Mvula"
INDEX 01 24:57:68
TRACK 10 AUDIO
TITLE "People (feat. Wretch)"
PERFORMER "Laura Mvula"
INDEX 01 28:39:10
TRACK 11 AUDIO
TITLE "Nan"
PERFORMER "Laura Mvula"
INDEX 01 32:26:72
TRACK 12 AUDIO
TITLE "Phenomenal Woman"
PERFORMER "Laura Mvula"
INDEX 01 33:38:67
 
Лог проверки качества
fooCDtect - foobar2000 + auCDtect, baralgin.
auCDtect: CD records authenticity detector, version 0.8.2
Copyright (c) 2004 Oleg Berngardt. All rights reserved.
Copyright (c) 2004 Alexander Djourik. All rights reserved.
mode: 0
===========================================
Track: 01. Laura Mvula - Who I Am
Processing file: [01. Laura Mvula - Who I Am.aucdtect]
Detected average hi-boundary frequency: 2.034781e+004 Hz
Detected average lo-boundary frequency: 1.347606e+004 Hz
Detected average hi-cut frequency: 2.072047e+004 Hz
Detected average lo-cut frequency: 9.229090e+003 Hz
Maximum probablis boundary frequency: 2.189100e+004 Hz
Coefficient of nonlinearity of a phase: 5.041137e-002
First order smothness: 4.334511e-001
Second order smothness: 6.301531e-001
------------------------------------------------------------
This track looks like CDDA with probability 100%
===========================================
Track: 02. Laura Mvula - Overcome (feat. Nile Rodgers)
Processing file: [02. Laura Mvula - Overcome (feat. Nile Rodgers).aucdtect]
Detected average hi-boundary frequency: 2.027470e+004 Hz
Detected average lo-boundary frequency: 1.442552e+004 Hz
Detected average hi-cut frequency: 2.153766e+004 Hz
Detected average lo-cut frequency: 9.751040e+003 Hz
Maximum probablis boundary frequency: 2.189100e+004 Hz
Coefficient of nonlinearity of a phase: 1.146128e-001
First order smothness: 3.817126e-001
Second order smothness: 5.911950e-001
------------------------------------------------------------
This track looks like CDDA with probability 100%
===========================================
Track: 03. Laura Mvula - Bread
Processing file: [03. Laura Mvula - Bread.aucdtect]
Detected average hi-boundary frequency: 2.027445e+004 Hz
Detected average lo-boundary frequency: 1.247428e+004 Hz
Detected average hi-cut frequency: 2.149623e+004 Hz
Detected average lo-cut frequency: 9.350720e+003 Hz
Maximum probablis boundary frequency: 2.189100e+004 Hz
Coefficient of nonlinearity of a phase: 5.419802e-002
First order smothness: 4.138723e-001
Second order smothness: 6.375746e-001
------------------------------------------------------------
This track looks like CDDA with probability 100%
===========================================
Track: 04. Laura Mvula - Lucky Man
Processing file: [04. Laura Mvula - Lucky Man.aucdtect]
Detected average hi-boundary frequency: 2.016809e+004 Hz
Detected average lo-boundary frequency: 1.382816e+004 Hz
Detected average hi-cut frequency: 2.168425e+004 Hz
Detected average lo-cut frequency: 1.022670e+004 Hz
Maximum probablis boundary frequency: 2.189100e+004 Hz
Coefficient of nonlinearity of a phase: 1.242451e-001
First order smothness: 3.650538e-001
Second order smothness: 6.258065e-001
------------------------------------------------------------
This track looks like CDDA with probability 100%
===========================================
Track: 05. Laura Mvula - Let Me Fall
Processing file: [05. Laura Mvula - Let Me Fall.aucdtect]
Detected average hi-boundary frequency: 2.033425e+004 Hz
Detected average lo-boundary frequency: 1.412678e+004 Hz
Detected average hi-cut frequency: 2.134575e+004 Hz
Detected average lo-cut frequency: 8.328075e+003 Hz
Maximum probablis boundary frequency: 2.189100e+004 Hz
Coefficient of nonlinearity of a phase: 5.387672e-002
First order smothness: 3.755274e-001
Second order smothness: 5.489451e-001
------------------------------------------------------------
This track looks like CDDA with probability 100%
===========================================
Track: 06. Laura Mvula - Kiss My Feet
Processing file: [06. Laura Mvula - Kiss My Feet.aucdtect]
Detected average hi-boundary frequency: 2.023760e+004 Hz
Detected average lo-boundary frequency: 1.243666e+004 Hz
Detected average hi-cut frequency: 2.136837e+004 Hz
Detected average lo-cut frequency: 1.009037e+004 Hz
Maximum probablis boundary frequency: 2.189100e+004 Hz
Coefficient of nonlinearity of a phase: 7.808461e-002
First order smothness: 4.221022e-001
Second order smothness: 6.443706e-001
------------------------------------------------------------
This track looks like CDDA with probability 100%
===========================================
Track: 07. Laura Mvula - Show Me LOve
Processing file: [07. Laura Mvula - Show Me LOve.aucdtect]
Detected average hi-boundary frequency: 2.017665e+004 Hz
Detected average lo-boundary frequency: 1.379483e+004 Hz
Detected average hi-cut frequency: 2.161443e+004 Hz
Detected average lo-cut frequency: 1.206900e+004 Hz
Maximum probablis boundary frequency: 2.189100e+004 Hz
Coefficient of nonlinearity of a phase: 2.331424e-001
First order smothness: 3.425428e-001
Second order smothness: 7.413661e-001
------------------------------------------------------------
This track looks like CDDA with probability 100%
===========================================
Track: 08. Laura Mvula - Renaissance Moon
Processing file: [08. Laura Mvula - Renaissance Moon.aucdtect]
Detected average hi-boundary frequency: 2.102763e+004 Hz
Detected average lo-boundary frequency: 1.409564e+004 Hz
Detected average hi-cut frequency: 2.137578e+004 Hz
Detected average lo-cut frequency: 2.028997e+004 Hz
Maximum probablis boundary frequency: 2.094400e+004 Hz
Coefficient of nonlinearity of a phase: 1.070831e+000
First order smothness: 2.627291e-001
Second order smothness: 8.798371e-001
------------------------------------------------------------
This track looks like CDDA with probability 99%
===========================================
Track: 09. Laura Mvula - Angel
Processing file: [09. Laura Mvula - Angel.aucdtect]
Detected average hi-boundary frequency: 2.034317e+004 Hz
Detected average lo-boundary frequency: 1.454107e+004 Hz
Detected average hi-cut frequency: 2.105751e+004 Hz
Detected average lo-cut frequency: 9.789400e+003 Hz
Maximum probablis boundary frequency: 2.189100e+004 Hz
Coefficient of nonlinearity of a phase: 1.003227e-001
First order smothness: 3.795130e-001
Second order smothness: 6.628883e-001
------------------------------------------------------------
This track looks like CDDA with probability 100%
===========================================
Track: 10. Laura Mvula - People (feat. Wretch)
Processing file: [10. Laura Mvula - People (feat. Wretch).aucdtect]
Detected average hi-boundary frequency: 2.023628e+004 Hz
Detected average lo-boundary frequency: 1.389282e+004 Hz
Detected average hi-cut frequency: 2.139238e+004 Hz
Detected average lo-cut frequency: 9.968124e+003 Hz
Maximum probablis boundary frequency: 2.189100e+004 Hz
Coefficient of nonlinearity of a phase: 1.009995e-001
First order smothness: 3.640440e-001
Second order smothness: 6.616388e-001
------------------------------------------------------------
This track looks like CDDA with probability 100%
===========================================
Track: 11. Laura Mvula - Nan
Processing file: [11. Laura Mvula - Nan.aucdtect]
Detected average hi-boundary frequency: 1.979639e+004 Hz
Detected average lo-boundary frequency: 1.094985e+004 Hz
Detected average hi-cut frequency: 1.987872e+004 Hz
Detected average lo-cut frequency: 5.311388e+003 Hz
Maximum probablis boundary frequency: 2.189100e+004 Hz
Coefficient of nonlinearity of a phase: 2.070427e-002
First order smothness: 5.148387e-001
Second order smothness: 4.090323e-001
------------------------------------------------------------
This track looks like CDDA with probability 100%
===========================================
Track: 12. Laura Mvula - Phenomenal Woman
Processing file: [12. Laura Mvula - Phenomenal Woman.aucdtect]
Detected average hi-boundary frequency: 2.037018e+004 Hz
Detected average lo-boundary frequency: 1.381727e+004 Hz
Detected average hi-cut frequency: 2.164385e+004 Hz
Detected average lo-cut frequency: 1.448680e+004 Hz
Maximum probablis boundary frequency: 2.189100e+004 Hz
Coefficient of nonlinearity of a phase: 2.923154e-001
First order smothness: 4.095023e-001
Second order smothness: 7.019231e-001
------------------------------------------------------------
This track looks like CDDA with probability 100%
===========================================
 
Динамический диапазон
foobar2000 1.3.8 / Dynamic Range Meter 1.1.1
log date: 2016-06-17 18:21:58
--------------------------------------------------------------------------------
Analyzed: Laura Mvula / The Dream Room
--------------------------------------------------------------------------------
DR Peak RMS Duration Track
--------------------------------------------------------------------------------
DR11 -1.46 dB -18.42 dB 1:19 01-Who I Am
DR5 -0.21 dB -7.35 dB 3:12 02-Overcome (feat. Nile Rodgers)
DR7 -0.71 dB -11.72 dB 3:22 03-Bread
DR6 -0.89 dB -9.67 dB 2:53 04-Lucky Man
DR5 -0.72 dB -7.97 dB 3:40 05-Let Me Fall
DR6 -0.71 dB -10.75 dB 3:44 06-Kiss My Feet
DR7 -0.75 dB -12.91 dB 6:03 07-Show Me LOve
DR11 -8.84 dB -23.50 dB 0:46 08-Renaissance Moon
DR8 -0.68 dB -12.15 dB 3:41 09-Angel
DR6 -0.70 dB -8.77 dB 3:48 10-People (feat. Wretch)
DR15 -1.20 dB -20.91 dB 1:12 11-Nan
DR6 -0.66 dB -8.13 dB 2:44 12-Phenomenal Woman
--------------------------------------------------------------------------------
Number of tracks: 12
Official DR value: DR8
Samplerate: 44100 Hz
Channels: 2
Bits per sample: 16
Bitrate: 762 kbps
Codec: FLAC
================================================================================
http://www.lauramvula.com/
https://en.wikipedia.org/wiki/Laura_Mvula
https://www.youtube.com/user/lauramvulaVEVO
Приватный:
Нет (DHT включён)
Размер:
199.90 Мб (209,612,258 байт) » файлов: 8
Участники:
0 раздают, 0 качают (0 участников всего)
Внешние участники:
1 раздают, 0 качают (1 участников всего) [ Обновить ]
Есть вопросы - пишите личное сообщение пользователю M0p94ok.
10:55
96
Нет комментариев. Ваш будет первым!