Поиск

(Funk, Soul) [CD] Rufus Thomas - Do The Funky Chicken (1970) - 2014, FLAC (tracks+.cue), lossless

(Funk, Soul) [CD] Rufus Thomas - Do The Funky Chicken (1970) - 2014, FLAC (tracks+.cue), lossless
Треклист:
Rufus Thomas - Do The Funky Chicken (1970) Жанр: Funk, Soul
Носитель: CD
Страна-производитель диска: Japan
Год издания: 2014
Издатель (лейбл): Stax/Universal Music Japan
Номер по каталогу: UCCO-90355
Аудиокодек: FLAC (*.flac)
Тип рипа: tracks+.cue
Битрейт аудио: lossless
Продолжительность: 64:48
Rip by JET 1
Наличие сканов в содержимом раздачи: да
Треклист:
01. Do the Funky Chicken (3:19)
02. Let the Good Times Roll (3:40)
03. Sixty Minute Man (7:20)
04. Lookin' For Love (3:47)
05. Bear Cat (Hound Dog) (2:55)
06. Old McDonald Had a Farm (Part 1) (3:45)
07. Old McDonald Had a Farm (Part 2) (2:49)
08. Rufus Rastus Johnson Brown (2:43)
09. Soul Food (4:32)
10. Turn Your Damper Down (2:55)
11. The Preacher and the Bear (3:55)
12. Funky Mississippi (2:58)
13. So Hard to Get Along With (3:05)
14. Funky Way (2:59)
15. I Want to Hold You (2:10)
16. Itch and Scratch (Part 1) (3:14)
17. Itch and Scratch (Part 2) (3:03)
18. Boogie Ain't Nuttin' (But Gettin' Down) (Part 1) (2:58)
19. Boogie Ain't Nuttin' (But Gettin' Down) (Part 2) (2:44)
 
 
Лог создания рипа
Exact Audio Copy V1.0 beta 3 from 29. August 2011
EAC extraction logfile from 19. June 2016, 11:15
Rufus Thomas / Funky Chicken
Used drive : GENERIC CDRCB05 Adapter: 4 ID: 0
Read mode : Secure
Utilize accurate stream : Yes
Defeat audio cache : Yes
Make use of C2 pointers : No
Read offset correction : 102
Overread into Lead-In and Lead-Out : No
Fill up missing offset samples with silence : Yes
Delete leading and trailing silent blocks : No
Null samples used in CRC calculations : Yes
Used interface : Native Win32 interface for Win NT & 2000
Gap handling : Appended to previous track
Used output format : User Defined Encoder
Selected bitrate : 1024 kBit/s
Quality : High
Add ID3 tag : No
Command line compressor : C:\Program Files\FLAC\flac.exe
Additional command line options : -8 -V -T "ARTIST=%artist%" -T "TITLE=%title%" -T "ALBUM=%albumtitle%" -T "DATE=%year%" -T "TRACKNUMBER=%tracknr%" -T "GENRE=%genre%" -T "PERFORMER=%albuminterpret%" -T "COMPOSER=%composer%" %haslyrics%--tag-from-file=LYRICS="%lyricsfile%"%haslyrics% -T "ALBUMARTIST=%albumartist%" -T "DISCNUMBER=%cdnumber%" -T "TOTALDISCS=%totalcds%" -T "TOTALTRACKS=%numtracks%" -T "COMMENT=%comment%" %source% -o %dest%
TOC of the extracted CD
Track | Start | Length | Start sector | End sector
---------------------------------------------------------
1 | 0:00.00 | 3:18.47 | 0 | 14896
2 | 3:18.47 | 3:39.45 | 14897 | 31366
3 | 6:58.17 | 7:19.55 | 31367 | 64346
4 | 14:17.72 | 3:47.10 | 64347 | 81381
5 | 18:05.07 | 2:55.25 | 81382 | 94531
6 | 21:00.32 | 3:44.40 | 94532 | 111371
7 | 24:44.72 | 2:48.67 | 111372 | 124038
8 | 27:33.64 | 2:42.48 | 124039 | 136236
9 | 30:16.37 | 4:31.60 | 136237 | 156621
10 | 34:48.22 | 2:55.05 | 156622 | 169751
11 | 37:43.27 | 3:54.63 | 169752 | 187364
12 | 41:38.15 | 2:57.47 | 187365 | 200686
13 | 44:35.62 | 3:04.62 | 200687 | 214548
14 | 47:40.49 | 2:58.58 | 214549 | 227956
15 | 50:39.32 | 2:10.17 | 227957 | 237723
16 | 52:49.49 | 3:13.60 | 237724 | 252258
17 | 56:03.34 | 3:03.08 | 252259 | 265991
18 | 59:06.42 | 2:57.43 | 265992 | 279309
19 | 62:04.10 | 2:43.47 | 279310 | 291581
Track 1
Filename F:\.........POSTS\Rufus Thomas - Do The Funky Chicken (1970) [2014 Japan]\01 - Do the Funky Chicken.wav
Pre-gap length 0:00:02.00
Peak level 97.7 %
Extraction speed 2.3 X
Track quality 100.0 %
Test CRC FD9935FF
Copy CRC FD9935FF
Accurately ripped (confidence 1) [B261FB5E] (AR v2)
Copy OK
Track 2
Filename F:\.........POSTS\Rufus Thomas - Do The Funky Chicken (1970) [2014 Japan]\02 - Let the Good Times Roll.wav
Pre-gap length 0:00:03.13
Peak level 97.7 %
Extraction speed 2.5 X
Track quality 100.0 %
Test CRC FE803F68
Copy CRC FE803F68
Accurately ripped (confidence 1) [A6FDF209] (AR v2)
Copy OK
Track 3
Filename F:\.........POSTS\Rufus Thomas - Do The Funky Chicken (1970) [2014 Japan]\03 - Sixty Minute Man.wav
Pre-gap length 0:00:04.15
Peak level 97.7 %
Extraction speed 3.1 X
Track quality 100.0 %
Test CRC 2855FF89
Copy CRC 2855FF89
Accurately ripped (confidence 1) [A460A795] (AR v2)
Copy OK
Track 4
Filename F:\.........POSTS\Rufus Thomas - Do The Funky Chicken (1970) [2014 Japan]\04 - Lookin' For Love.wav
Pre-gap length 0:00:02.62
Peak level 97.7 %
Extraction speed 3.1 X
Track quality 100.0 %
Test CRC B6BDF24D
Copy CRC B6BDF24D
Accurately ripped (confidence 1) [D465BDE4] (AR v2)
Copy OK
Track 5
Filename F:\.........POSTS\Rufus Thomas - Do The Funky Chicken (1970) [2014 Japan]\05 - Bear Cat (Hound Dog).wav
Pre-gap length 0:00:03.35
Peak level 97.7 %
Extraction speed 3.1 X
Track quality 100.0 %
Test CRC 7D1ACF3C
Copy CRC 7D1ACF3C
Accurately ripped (confidence 1) [AE00737D] (AR v2)
Copy OK
Track 6
Filename F:\.........POSTS\Rufus Thomas - Do The Funky Chicken (1970) [2014 Japan]\06 - Old McDonald Had a Farm (Part 1).wav
Pre-gap length 0:00:03.02
Peak level 97.7 %
Extraction speed 3.4 X
Track quality 100.0 %
Test CRC 107E76D0
Copy CRC 107E76D0
Accurately ripped (confidence 1) [A76936B2] (AR v2)
Copy OK
Track 7
Filename F:\.........POSTS\Rufus Thomas - Do The Funky Chicken (1970) [2014 Japan]\07 - Old McDonald Had a Farm (Part 2).wav
Pre-gap length 0:00:02.05
Peak level 97.7 %
Extraction speed 3.3 X
Track quality 100.0 %
Test CRC 25CBFD56
Copy CRC 25CBFD56
Accurately ripped (confidence 1) [0F7354C5] (AR v2)
Copy OK
Track 8
Filename F:\.........POSTS\Rufus Thomas - Do The Funky Chicken (1970) [2014 Japan]\08 - Rufus Rastus Johnson Brown.wav
Pre-gap length 0:00:03.14
Peak level 97.7 %
Extraction speed 2.9 X
Track quality 99.9 %
Test CRC 2A8EBB2F
Copy CRC 2A8EBB2F
Accurately ripped (confidence 1) [3DE4C303] (AR v2)
Copy OK
Track 9
Filename F:\.........POSTS\Rufus Thomas - Do The Funky Chicken (1970) [2014 Japan]\09 - Soul Food.wav
Pre-gap length 0:00:03.35
Peak level 97.7 %
Extraction speed 3.9 X
Track quality 100.0 %
Test CRC 36356CAE
Copy CRC 36356CAE
Accurately ripped (confidence 1) [BA328F70] (AR v2)
Copy OK
Track 10
Filename F:\.........POSTS\Rufus Thomas - Do The Funky Chicken (1970) [2014 Japan]\10 - Turn Your Damper Down.wav
Pre-gap length 0:00:03.57
Peak level 97.7 %
Extraction speed 3.7 X
Track quality 100.0 %
Test CRC 61959ED8
Copy CRC 61959ED8
Accurately ripped (confidence 1) [1CC77CF7] (AR v2)
Copy OK
Track 11
Filename F:\.........POSTS\Rufus Thomas - Do The Funky Chicken (1970) [2014 Japan]\11 - The Preacher and the Bear.wav
Pre-gap length 0:00:03.72
Peak level 97.7 %
Extraction speed 4.1 X
Track quality 100.0 %
Test CRC 74B302E3
Copy CRC 74B302E3
Accurately ripped (confidence 1) [63DF7C3B] (AR v2)
Copy OK
Track 12
Filename F:\.........POSTS\Rufus Thomas - Do The Funky Chicken (1970) [2014 Japan]\12 - Funky Mississippi.wav
Pre-gap length 0:00:02.43
Peak level 97.7 %
Extraction speed 3.4 X
Track quality 99.9 %
Test CRC D9D66348
Copy CRC D9D66348
Accurately ripped (confidence 1) [26A83B48] (AR v2)
Copy OK
Track 13
Filename F:\.........POSTS\Rufus Thomas - Do The Funky Chicken (1970) [2014 Japan]\13 - So Hard to Get Along With.wav
Pre-gap length 0:00:02.15
Peak level 97.7 %
Extraction speed 4.2 X
Track quality 100.0 %
Test CRC 7DD0AF64
Copy CRC 7DD0AF64
Accurately ripped (confidence 1) [B5D69B59] (AR v2)
Copy OK
Track 14
Filename F:\.........POSTS\Rufus Thomas - Do The Funky Chicken (1970) [2014 Japan]\14 - Funky Way.wav
Pre-gap length 0:00:02.74
Peak level 97.7 %
Extraction speed 4.3 X
Track quality 100.0 %
Test CRC 7694342A
Copy CRC 7694342A
Accurately ripped (confidence 1) [5AF73279] (AR v2)
Copy OK
Track 15
Filename F:\.........POSTS\Rufus Thomas - Do The Funky Chicken (1970) [2014 Japan]\15 - I Want to Hold You.wav
Pre-gap length 0:00:03.12
Peak level 97.7 %
Extraction speed 4.0 X
Track quality 100.0 %
Test CRC 9864A20A
Copy CRC 9864A20A
Accurately ripped (confidence 1) [3FFB1D40] (AR v2)
Copy OK
Track 16
Filename F:\.........POSTS\Rufus Thomas - Do The Funky Chicken (1970) [2014 Japan]\16 - Itch and Scratch (Part 1).wav
Pre-gap length 0:00:02.37
Peak level 97.7 %
Extraction speed 4.4 X
Track quality 100.0 %
Test CRC 1845C71A
Copy CRC 1845C71A
Accurately ripped (confidence 1) [519D65F7] (AR v2)
Copy OK
Track 17
Filename F:\.........POSTS\Rufus Thomas - Do The Funky Chicken (1970) [2014 Japan]\17 - Itch and Scratch (Part 2).wav
Pre-gap length 0:00:01.47
Peak level 97.7 %
Extraction speed 4.4 X
Track quality 100.0 %
Test CRC 95C7592A
Copy CRC 95C7592A
Accurately ripped (confidence 1) [F799FA55] (AR v2)
Copy OK
Track 18
Filename F:\.........POSTS\Rufus Thomas - Do The Funky Chicken (1970) [2014 Japan]\18 - Boogie Ain't Nuttin' (But Gettin' Down) (Part 1).wav
Pre-gap length 0:00:02.55
Peak level 97.7 %
Extraction speed 4.5 X
Track quality 100.0 %
Test CRC 631343D1
Copy CRC 631343D1
Accurately ripped (confidence 1) [089C7918] (AR v2)
Copy OK
Track 19
Filename F:\.........POSTS\Rufus Thomas - Do The Funky Chicken (1970) [2014 Japan]\19 - Boogie Ain't Nuttin' (But Gettin' Down) (Part 2).wav
Pre-gap length 0:00:02.48
Peak level 97.7 %
Extraction speed 4.5 X
Track quality 100.0 %
Test CRC 68505A9A
Copy CRC 68505A9A
Accurately ripped (confidence 1) [EB77B988] (AR v2)
Copy OK
All tracks accurately ripped
No errors occurred
End of status report
==== Log checksum 4E50583A914886A53A96BCA4405F28646E9C8466CCF6ACB8431DE029B5FC58CE ====
 
Содержание индексной карты (.CUE)
REM GENRE R&B
REM DATE 1997
REM DISCID 060F2F13
REM COMMENT "ExactAudioCopy v1.0b3"
PERFORMER "Rufus Thomas"
TITLE "Funky Chicken"
FILE "01 - Do the Funky Chicken.wav" WAVE
TRACK 01 AUDIO
TITLE "Do the Funky Chicken"
PERFORMER "Rufus Thomas"
INDEX 01 00:00:00
TRACK 02 AUDIO
TITLE "Let the Good Times Roll"
PERFORMER "Rufus Thomas"
INDEX 00 03:15:34
FILE "02 - Let the Good Times Roll.wav" WAVE
INDEX 01 00:00:00
TRACK 03 AUDIO
TITLE "Sixty Minute Man"
PERFORMER "Rufus Thomas"
INDEX 00 03:35:30
FILE "03 - Sixty Minute Man.wav" WAVE
INDEX 01 00:00:00
TRACK 04 AUDIO
TITLE "Lookin' For Love"
PERFORMER "Rufus Thomas"
INDEX 00 07:16:68
FILE "04 - Lookin' For Love.wav" WAVE
INDEX 01 00:00:00
TRACK 05 AUDIO
TITLE "Bear Cat (Hound Dog)"
PERFORMER "Rufus Thomas"
INDEX 00 03:43:50
FILE "05 - Bear Cat (Hound Dog).wav" WAVE
INDEX 01 00:00:00
TRACK 06 AUDIO
TITLE "Old McDonald Had a Farm (Part 1)"
PERFORMER "Rufus Thomas"
INDEX 00 02:52:23
FILE "06 - Old McDonald Had a Farm (Part 1).wav" WAVE
INDEX 01 00:00:00
TRACK 07 AUDIO
TITLE "Old McDonald Had a Farm (Part 2)"
PERFORMER "Rufus Thomas"
INDEX 00 03:42:35
FILE "07 - Old McDonald Had a Farm (Part 2).wav" WAVE
INDEX 01 00:00:00
TRACK 08 AUDIO
TITLE "Rufus Rastus Johnson Brown"
PERFORMER "Rufus Thomas"
INDEX 00 02:45:53
FILE "08 - Rufus Rastus Johnson Brown.wav" WAVE
INDEX 01 00:00:00
TRACK 09 AUDIO
TITLE "Soul Food"
PERFORMER "Rufus Thomas"
INDEX 00 02:39:13
FILE "09 - Soul Food.wav" WAVE
INDEX 01 00:00:00
TRACK 10 AUDIO
TITLE "Turn Your Damper Down"
PERFORMER "Rufus Thomas"
INDEX 00 04:28:03
FILE "10 - Turn Your Damper Down.wav" WAVE
INDEX 01 00:00:00
TRACK 11 AUDIO
TITLE "The Preacher and the Bear"
PERFORMER "Rufus Thomas"
INDEX 00 02:51:08
FILE "11 - The Preacher and the Bear.wav" WAVE
INDEX 01 00:00:00
TRACK 12 AUDIO
TITLE "Funky Mississippi"
PERFORMER "Rufus Thomas"
INDEX 00 03:52:20
FILE "12 - Funky Mississippi.wav" WAVE
INDEX 01 00:00:00
TRACK 13 AUDIO
TITLE "So Hard to Get Along With"
PERFORMER "Rufus Thomas"
INDEX 00 02:55:32
FILE "13 - So Hard to Get Along With.wav" WAVE
INDEX 01 00:00:00
TRACK 14 AUDIO
TITLE "Funky Way"
PERFORMER "Rufus Thomas"
INDEX 00 03:01:63
FILE "14 - Funky Way.wav" WAVE
INDEX 01 00:00:00
TRACK 15 AUDIO
TITLE "I Want to Hold You"
PERFORMER "Rufus Thomas"
INDEX 00 02:55:46
FILE "15 - I Want to Hold You.wav" WAVE
INDEX 01 00:00:00
TRACK 16 AUDIO
TITLE "Itch and Scratch (Part 1)"
PERFORMER "Rufus Thomas"
INDEX 00 02:07:55
FILE "16 - Itch and Scratch (Part 1).wav" WAVE
INDEX 01 00:00:00
TRACK 17 AUDIO
TITLE "Itch and Scratch (Part 2)"
PERFORMER "Rufus Thomas"
INDEX 00 03:12:13
FILE "17 - Itch and Scratch (Part 2).wav" WAVE
INDEX 01 00:00:00
TRACK 18 AUDIO
TITLE "Boogie Ain't Nuttin' (But Gettin' Down) (Part 1)"
PERFORMER "Rufus Thomas"
INDEX 00 03:00:28
FILE "18 - Boogie Ain't Nuttin' (But Gettin' Down) (Part 1).wav" WAVE
INDEX 01 00:00:00
TRACK 19 AUDIO
TITLE "Boogie Ain't Nuttin' (But Gettin' Down) (Part 2)"
PERFORMER "Rufus Thomas"
INDEX 00 02:54:70
FILE "19 - Boogie Ain't Nuttin' (But Gettin' Down) (Part 2).wav" WAVE
INDEX 01 00:00:00
 
CUETools log
[CUETools log; Date: 20.06.2016 8:06:24; Version: 2.0.9]
[CTDB TOCID: VADMaBMEm8An1_fftAwPyYZidLE-] found.
[ CTDBID ] Status
[46f91d8c] (1/1) Accurately ripped
[AccurateRip ID: 002ff154-02916f54-060f2f13] found.
Track [ CRC ] Status
01 [780234e1] (1/2) Accurately ripped
02 [d5cb3809] (1/2) Accurately ripped
03 [bdbd76fb] (1/2) Accurately ripped
04 [a5fdad98] (1/2) Accurately ripped
05 [bf0a5ba1] (1/2) Accurately ripped
06 [0b0d7700] (1/2) Accurately ripped
07 [2006b09b] (1/2) Accurately ripped
08 [ea1ec115] (1/2) Accurately ripped
09 [3a369acf] (1/2) Accurately ripped
10 [453c04af] (1/2) Accurately ripped
11 [c2e3c843] (1/2) Accurately ripped
12 [48bf15a5] (1/2) Accurately ripped
13 [d8079f72] (1/2) Accurately ripped
14 [df6015e1] (1/2) Accurately ripped
15 [df406a99] (1/2) Accurately ripped
16 [198cd46a] (1/2) Accurately ripped
17 [34504b65] (1/2) Accurately ripped
18 [f8e517d7] (1/2) Accurately ripped
19 [a23a29fa] (1/2) Accurately ripped
Track Peak [ CRC32 ] [W/O NULL] [ LOG ]
-- 97,7 [1A4C3B06] [FF0D82B5]
01 97,7 [FD9935FF] [013FD186] CRC32
02 97,7 [FE803F68] [ED7F4D5B] CRC32
03 97,7 [2855FF89] [5F05B06A] CRC32
04 97,7 [B6BDF24D] [AE7F854A] CRC32
05 97,7 [7D1ACF3C] [6DE64A14] CRC32
06 97,7 [107E76D0] [9450EF40] CRC32
07 97,7 [25CBFD56] [95A84CF0] CRC32
08 97,7 [2A8EBB2F] [913CDE59] CRC32
09 97,7 [36356CAE] [0E2EDEB4] CRC32
10 97,7 [61959ED8] [E3A2129B] CRC32
11 97,7 [74B302E3] [4A374DD9] CRC32
12 97,7 [D9D66348] [E18D81CC] CRC32
13 97,7 [7DD0AF64] [05DA3BCB] CRC32
14 97,7 [7694342A] [C28C8ACF] CRC32
15 97,7 [9864A20A] [AA649869] CRC32
16 97,7 [1845C71A] [AE50760B] CRC32
17 97,7 [95C7592A] [155B8D27] CRC32
18 97,7 [631343D1] [FEB1EFB2] CRC32
19 97,7 [68505A9A] [9FD571D7] CRC32
 
Об альбоме (сборнике)
Rufus Thomas' first album following Stax's break from the Atlantic had "Do the Funky Chicken" as its centerpiece, so the emphasis upon good-humored dance tunes was unsurprising. There were some weird moments, particularly the down-and-bestial seven-minute update of "Sixty Minute Man" (on which Rufus sounds like he's singing in tongues), a remake of "Bear Cat", and a two-part version of "Old McDonald Had a Farm".
Приватный:
Нет (DHT включён)
Размер:
495.67 Мб (519,747,468 байт) » файлов: 43
Участники:
0 раздают, 1 качают (1 участников всего)
Внешние участники:
5 раздают, 1 качают (6 участников всего) [ Обновить ]
Скорость:
1.35 Мб/c 0/c
Есть вопросы - пишите личное сообщение пользователю M0p94ok.
10:58
126
Нет комментариев. Ваш будет первым!