Поиск

(Funk, Soul) [CD] Curtis Mayfield - Give, Get, Take And Have (1976) - 2009 {Japan SHM-CD, VICP-70095}, FLAC (tracks+.cue), lossless

(Funk, Soul) [CD] Curtis Mayfield - Give, Get, Take And Have (1976) - 2009 {Japan SHM-CD, VICP-70095}, FLAC (tracks+.cue), lossless
Треклист:
Curtis Mayfield - Give, Get, Take And Have (1976) Жанр: Funk, Soul
Носитель: CD
Страна-производитель диска: Japan
Год издания: 2009
Издатель (лейбл): Victor Entertainment
Номер по каталогу: VICP-70095
Аудиокодек: FLAC (*.flac)
Тип рипа: tracks+.cue
Битрейт аудио: lossless
Продолжительность: 36:42
Rip by JET 1
Наличие сканов в содержимом раздачи: да
Треклист:
01. In Your Arms Again (Shake It) (4:27)
02. This Love Is Sweet (3:11)
03. P.S. I Love You (4:00)
04. Party Night (3:53)
05. Get A Little Bit (Give, Get, Take And Have) (3:37)
06. Soul Music (4:02)
07. Only You Babe (4:22)
08. Mr. Welfare Man (5:36)
09. Only You Babe (Single Edit) (3:34)
 
 
Лог создания рипа
Exact Audio Copy V1.0 beta 3 from 29. August 2011
EAC extraction logfile from 30. May 2016, 1:15
Curtis Mayfield / Give,Get,Take, And Have +1
Used drive : GENERIC CDRCB05 Adapter: 4 ID: 0
Read mode : Secure
Utilize accurate stream : Yes
Defeat audio cache : Yes
Make use of C2 pointers : No
Read offset correction : 102
Overread into Lead-In and Lead-Out : No
Fill up missing offset samples with silence : Yes
Delete leading and trailing silent blocks : No
Null samples used in CRC calculations : Yes
Used interface : Native Win32 interface for Win NT & 2000
Gap handling : Appended to previous track
Used output format : User Defined Encoder
Selected bitrate : 1024 kBit/s
Quality : High
Add ID3 tag : No
Command line compressor : C:\Program Files\FLAC\flac.exe
Additional command line options : -8 -V -T "ARTIST=%artist%" -T "TITLE=%title%" -T "ALBUM=%albumtitle%" -T "DATE=%year%" -T "TRACKNUMBER=%tracknr%" -T "GENRE=%genre%" -T "PERFORMER=%albuminterpret%" -T "COMPOSER=%composer%" %haslyrics%--tag-from-file=LYRICS="%lyricsfile%"%haslyrics% -T "ALBUMARTIST=%albumartist%" -T "DISCNUMBER=%cdnumber%" -T "TOTALDISCS=%totalcds%" -T "TOTALTRACKS=%numtracks%" -T "COMMENT=%comment%" %source% -o %dest%
TOC of the extracted CD
Track | Start | Length | Start sector | End sector
---------------------------------------------------------
1 | 0:00.37 | 4:27.20 | 37 | 20081
2 | 4:27.57 | 3:11.05 | 20082 | 34411
3 | 7:38.62 | 3:59.65 | 34412 | 52401
4 | 11:38.52 | 3:52.43 | 52402 | 69844
5 | 15:31.20 | 3:36.45 | 69845 | 86089
6 | 19:07.65 | 4:01.40 | 86090 | 104204
7 | 23:09.30 | 4:22.30 | 104205 | 123884
8 | 27:31.60 | 5:36.22 | 123885 | 149106
9 | 33:08.07 | 3:34.35 | 149107 | 165191
Track 1
Filename F:\.........POSTS\Curtis Mayfield - Give, Get, Take And Have (1976) [2009 Japan Mini-CD]\01 - In Your Arms Again (Shake It).wav
Pre-gap length 0:00:02.37
Peak level 99.2 %
Extraction speed 1.3 X
Track quality 99.9 %
Test CRC 0C9B8BC4
Copy CRC 0C9B8BC4
Accurately ripped (confidence 1) [4EC226C3] (AR v2)
Copy OK
Track 2
Filename F:\.........POSTS\Curtis Mayfield - Give, Get, Take And Have (1976) [2009 Japan Mini-CD]\02 - This Love Is Sweet.wav
Pre-gap length 0:00:01.64
Peak level 99.2 %
Extraction speed 1.5 X
Track quality 100.0 %
Test CRC 39E97BE9
Copy CRC 39E97BE9
Accurately ripped (confidence 1) [B55DE321] (AR v2)
Copy OK
Track 3
Filename F:\.........POSTS\Curtis Mayfield - Give, Get, Take And Have (1976) [2009 Japan Mini-CD]\03 - P.S. I Love You.wav
Pre-gap length 0:00:01.44
Peak level 99.2 %
Extraction speed 1.7 X
Track quality 100.0 %
Test CRC 87AAEF53
Copy CRC 87AAEF53
Accurately ripped (confidence 1) [6C6EE1C6] (AR v2)
Copy OK
Track 4
Filename F:\.........POSTS\Curtis Mayfield - Give, Get, Take And Have (1976) [2009 Japan Mini-CD]\04 - Party Night.wav
Pre-gap length 0:00:03.19
Peak level 99.2 %
Extraction speed 1.8 X
Track quality 100.0 %
Test CRC 63252BFA
Copy CRC 63252BFA
Accurately ripped (confidence 1) [4A07616C] (AR v2)
Copy OK
Track 5
Filename F:\.........POSTS\Curtis Mayfield - Give, Get, Take And Have (1976) [2009 Japan Mini-CD]\05 - Get A Little Bit (Give,Get,Take And Have).wav
Pre-gap length 0:00:02.59
Peak level 99.2 %
Extraction speed 1.9 X
Track quality 100.0 %
Test CRC FC4D1A4A
Copy CRC FC4D1A4A
Accurately ripped (confidence 1) [2B4782C6] (AR v2)
Copy OK
Track 6
Filename F:\.........POSTS\Curtis Mayfield - Give, Get, Take And Have (1976) [2009 Japan Mini-CD]\06 - Soul Music.wav
Pre-gap length 0:00:01.52
Peak level 99.2 %
Extraction speed 2.0 X
Track quality 100.0 %
Test CRC 3C4B751A
Copy CRC 3C4B751A
Accurately ripped (confidence 1) [2C31DD52] (AR v2)
Copy OK
Track 7
Filename F:\.........POSTS\Curtis Mayfield - Give, Get, Take And Have (1976) [2009 Japan Mini-CD]\07 - Only You Babe.wav
Pre-gap length 0:00:02.29
Peak level 99.2 %
Extraction speed 2.2 X
Track quality 100.0 %
Test CRC DE12EEB5
Copy CRC DE12EEB5
Accurately ripped (confidence 1) [C575DC35] (AR v2)
Copy OK
Track 8
Filename F:\.........POSTS\Curtis Mayfield - Give, Get, Take And Have (1976) [2009 Japan Mini-CD]\08 - Mr.Welfare Man.wav
Pre-gap length 0:00:01.64
Peak level 99.2 %
Extraction speed 2.2 X
Track quality 99.9 %
Test CRC 16AD9D9A
Copy CRC 16AD9D9A
Accurately ripped (confidence 1) [041D50F3] (AR v2)
Copy OK
Track 9
Filename F:\.........POSTS\Curtis Mayfield - Give, Get, Take And Have (1976) [2009 Japan Mini-CD]\09 - Only You Babe (Single Edit).wav
Pre-gap length 0:00:01.04
Peak level 92.7 %
Extraction speed 2.0 X
Track quality 99.9 %
Test CRC 3EAFF9D0
Copy CRC 3EAFF9D0
Accurately ripped (confidence 1) [0334AD73] (AR v2)
Copy OK
All tracks accurately ripped
No errors occurred
End of status report
==== Log checksum 93E85BE7A071A86902F066969AF5EC2794BF1B35C8FFC82B1FBAF4B610CBE44D ====
 
Содержание индексной карты (.CUE)
REM GENRE Soul
REM DATE 1976
REM DISCID 72089A09
REM COMMENT "ExactAudioCopy v1.0b3"
PERFORMER "Curtis Mayfield"
TITLE "Give, Get, Take And Have"
FILE "01 - In Your Arms Again (Shake It).wav" WAVE
TRACK 01 AUDIO
TITLE "In Your Arms Again (Shake It)"
PERFORMER "Curtis Mayfield"
PREGAP 00:00:37
INDEX 01 00:00:00
TRACK 02 AUDIO
TITLE "This Love Is Sweet"
PERFORMER "Curtis Mayfield"
INDEX 00 04:25:31
FILE "02 - This Love Is Sweet.wav" WAVE
INDEX 01 00:00:00
TRACK 03 AUDIO
TITLE "P.S. I Love You"
PERFORMER "Curtis Mayfield"
INDEX 00 03:09:36
FILE "03 - P.S. I Love You.wav" WAVE
INDEX 01 00:00:00
TRACK 04 AUDIO
TITLE "Party Night"
PERFORMER "Curtis Mayfield"
INDEX 00 03:56:46
FILE "04 - Party Night.wav" WAVE
INDEX 01 00:00:00
TRACK 05 AUDIO
TITLE "Get A Little Bit (Give, Get, Take And Have)"
PERFORMER "Curtis Mayfield"
INDEX 00 03:49:59
FILE "05 - Get A Little Bit (Give, Get, Take And Have).wav" WAVE
INDEX 01 00:00:00
TRACK 06 AUDIO
TITLE "Soul Music"
PERFORMER "Curtis Mayfield"
INDEX 00 03:34:68
FILE "06 - Soul Music.wav" WAVE
INDEX 01 00:00:00
TRACK 07 AUDIO
TITLE "Only You Babe"
PERFORMER "Curtis Mayfield"
INDEX 00 03:59:11
FILE "07 - Only You Babe.wav" WAVE
INDEX 01 00:00:00
TRACK 08 AUDIO
TITLE "Mr. Welfare Man"
PERFORMER "Curtis Mayfield"
INDEX 00 04:20:41
FILE "08 - Mr. Welfare Man.wav" WAVE
INDEX 01 00:00:00
TRACK 09 AUDIO
TITLE "Only You Babe (Single Edit)"
PERFORMER "Curtis Mayfield"
INDEX 00 05:35:18
FILE "09 - Only You Babe (Single Edit).wav" WAVE
INDEX 01 00:00:00
Приватный:
Нет (DHT включён)
Размер:
350.53 Мб (367,554,614 байт) » файлов: 29
Участники:
0 раздают, 0 качают (0 участников всего)
Внешние участники:
7 раздают, 2 качают (9 участников всего) [ Обновить ]
Скорость:
19.98 Кб/c 0/c
Есть вопросы - пишите личное сообщение пользователю M0p94ok.
10:59
69
Нет комментариев. Ваш будет первым!