Поиск

(Soul) [CD] Tyrone Davis - In The Mood (1979) - 2014, FLAC (tracks+.cue), lossless

(Soul) [CD] Tyrone Davis - In The Mood (1979) - 2014, FLAC (tracks+.cue), lossless
Треклист:
Tyrone Davis - In The Mood (1979) Жанр: Soul
Носитель: CD
Страна-производитель диска (релиза): Japan
Год издания: 2014
Издатель (лейбл): Sony Music
Номер по каталогу: SICP 30696
Аудиокодек: FLAC (*.flac)
Тип рипа: tracks+.cue
Битрейт аудио: lossless
Продолжительность: 41:44
Rip by JET 1
Наличие сканов в содержимом раздачи: да
Треклист:
01. In The Mood (4:12)
02. You Know What To Do (5:50)
03. I Can't Wait (3:55)
04. Keep On Dancing (3:41)
05. I Don't Think You Heard Me (4:02)
06. Ain't Nothing I Can Do (4:47)
07. All The Love I Need (3:43)
08. We Were In Love Then (4:06)
09. In The Mood (Single Version) (3:55)
10. Ain't Nothing I Can Do (Single Version) (3:32)
 
 
Лог создания рипа
Exact Audio Copy V1.0 beta 3 from 29. August 2011
EAC extraction logfile from 3. February 2016, 12:25
Tyrone Davis / In The Mood
Used drive : GENERIC CDRCB05 Adapter: 4 ID: 0
Read mode : Secure
Utilize accurate stream : Yes
Defeat audio cache : Yes
Make use of C2 pointers : No
Read offset correction : 102
Overread into Lead-In and Lead-Out : No
Fill up missing offset samples with silence : Yes
Delete leading and trailing silent blocks : No
Null samples used in CRC calculations : Yes
Used interface : Native Win32 interface for Win NT & 2000
Gap handling : Appended to previous track
Used output format : User Defined Encoder
Selected bitrate : 1024 kBit/s
Quality : High
Add ID3 tag : No
Command line compressor : C:\Program Files\FLAC\flac.exe
Additional command line options : -8 -V -T "ARTIST=%artist%" -T "TITLE=%title%" -T "ALBUM=%albumtitle%" -T "DATE=%year%" -T "TRACKNUMBER=%tracknr%" -T "GENRE=%genre%" -T "PERFORMER=%albuminterpret%" -T "COMPOSER=%composer%" %haslyrics%--tag-from-file=LYRICS="%lyricsfile%"%haslyrics% -T "ALBUMARTIST=%albumartist%" -T "DISCNUMBER=%cdnumber%" -T "TOTALDISCS=%totalcds%" -T "TOTALTRACKS=%numtracks%" -T "COMMENT=%comment%" %source% -o %dest%
TOC of the extracted CD
Track | Start | Length | Start sector | End sector
---------------------------------------------------------
1 | 0:00.00 | 4:11.51 | 0 | 18875
2 | 4:11.51 | 5:50.34 | 18876 | 45159
3 | 10:02.10 | 3:54.68 | 45160 | 62777
4 | 13:57.03 | 3:41.11 | 62778 | 79363
5 | 17:38.14 | 4:02.20 | 79364 | 97533
6 | 21:40.34 | 4:47.15 | 97534 | 119073
7 | 26:27.49 | 3:42.47 | 119074 | 135770
8 | 30:10.21 | 4:06.36 | 135771 | 154256
9 | 34:16.57 | 3:54.56 | 154257 | 171862
10 | 38:11.38 | 3:32.31 | 171863 | 187793
Track 1
Filename G:\POSTS\Modern Deep Soul [2014 Japan]\Tyrone Davis - In The Mood (1979) [2014 Japan]\01 - In The Mood.wav
Pre-gap length 0:00:02.00
Peak level 100.0 %
Extraction speed 2.0 X
Track quality 99.9 %
Test CRC C1F9ABE9
Copy CRC C1F9ABE9
Track not present in AccurateRip database
Copy OK
Track 2
Filename G:\POSTS\Modern Deep Soul [2014 Japan]\Tyrone Davis - In The Mood (1979) [2014 Japan]\02 - You Know What To Do.wav
Pre-gap length 0:00:02.05
Peak level 100.0 %
Extraction speed 2.7 X
Track quality 100.0 %
Test CRC DAD202D3
Copy CRC DAD202D3
Track not present in AccurateRip database
Copy OK
Track 3
Filename G:\POSTS\Modern Deep Soul [2014 Japan]\Tyrone Davis - In The Mood (1979) [2014 Japan]\03 - I Can't Wait.wav
Pre-gap length 0:00:01.71
Peak level 100.0 %
Extraction speed 2.6 X
Track quality 100.0 %
Test CRC AA368A0F
Copy CRC AA368A0F
Track not present in AccurateRip database
Copy OK
Track 4
Filename G:\POSTS\Modern Deep Soul [2014 Japan]\Tyrone Davis - In The Mood (1979) [2014 Japan]\04 - Keep On Dancing.wav
Pre-gap length 0:00:01.46
Peak level 100.0 %
Extraction speed 2.7 X
Track quality 100.0 %
Test CRC 82CF951D
Copy CRC 82CF951D
Track not present in AccurateRip database
Copy OK
Track 5
Filename G:\POSTS\Modern Deep Soul [2014 Japan]\Tyrone Davis - In The Mood (1979) [2014 Japan]\05 - I Don't Think You Heard Me.wav
Pre-gap length 0:00:03.10
Peak level 100.0 %
Extraction speed 3.1 X
Track quality 100.0 %
Test CRC 61C22CA6
Copy CRC 61C22CA6
Track not present in AccurateRip database
Copy OK
Track 6
Filename G:\POSTS\Modern Deep Soul [2014 Japan]\Tyrone Davis - In The Mood (1979) [2014 Japan]\06 - Ain't Nothing I Can Do.wav
Pre-gap length 0:00:01.38
Peak level 100.0 %
Extraction speed 3.4 X
Track quality 100.0 %
Test CRC 3B39480F
Copy CRC 3B39480F
Track not present in AccurateRip database
Copy OK
Track 7
Filename G:\POSTS\Modern Deep Soul [2014 Japan]\Tyrone Davis - In The Mood (1979) [2014 Japan]\07 - All The Love I Need.wav
Pre-gap length 0:00:01.46
Peak level 100.0 %
Extraction speed 3.4 X
Track quality 100.0 %
Test CRC 88559805
Copy CRC 88559805
Track not present in AccurateRip database
Copy OK
Track 8
Filename G:\POSTS\Modern Deep Soul [2014 Japan]\Tyrone Davis - In The Mood (1979) [2014 Japan]\08 - We Were In Love Then.wav
Pre-gap length 0:00:01.74
Peak level 100.0 %
Extraction speed 3.7 X
Track quality 100.0 %
Test CRC F2C0EA3A
Copy CRC F2C0EA3A
Track not present in AccurateRip database
Copy OK
Track 9
Filename G:\POSTS\Modern Deep Soul [2014 Japan]\Tyrone Davis - In The Mood (1979) [2014 Japan]\09 - In The Mood (Single Version).wav
Pre-gap length 0:00:06.11
Peak level 100.0 %
Extraction speed 3.7 X
Track quality 100.0 %
Test CRC AFBDFE60
Copy CRC AFBDFE60
Track not present in AccurateRip database
Copy OK
Track 10
Filename G:\POSTS\Modern Deep Soul [2014 Japan]\Tyrone Davis - In The Mood (1979) [2014 Japan]\10 - Ain't Nothing I Can Do (Single Version).wav
Pre-gap length 0:00:02.03
Peak level 100.0 %
Extraction speed 4.0 X
Track quality 100.0 %
Test CRC EAB425E3
Copy CRC EAB425E3
Track not present in AccurateRip database
Copy OK
None of the tracks are present in the AccurateRip database
No errors occurred
End of status report
==== Log checksum 9765B189A1CFF8D4DE8EDE2CFE43AC01B755BE8FFB9EDD49919E43F8F53ECEEC ====
 
Содержание индексной карты (.CUE)
REM GENRE R&B
REM DATE 1979
REM DISCID 7909C70A
REM COMMENT "ExactAudioCopy v1.0b3"
PERFORMER "Tyrone Davis"
TITLE "In The Mood"
FILE "01 - In The Mood.wav" WAVE
TRACK 01 AUDIO
TITLE "In The Mood"
PERFORMER "Tyrone Davis"
INDEX 01 00:00:00
TRACK 02 AUDIO
TITLE "You Know What To Do"
PERFORMER "Tyrone Davis"
INDEX 00 04:09:46
FILE "02 - You Know What To Do.wav" WAVE
INDEX 01 00:00:00
TRACK 03 AUDIO
TITLE "I Can't Wait"
PERFORMER "Tyrone Davis"
INDEX 00 05:48:38
FILE "03 - I Can't Wait.wav" WAVE
INDEX 01 00:00:00
TRACK 04 AUDIO
TITLE "Keep On Dancing"
PERFORMER "Tyrone Davis"
INDEX 00 03:53:22
FILE "04 - Keep On Dancing.wav" WAVE
INDEX 01 00:00:00
TRACK 05 AUDIO
TITLE "I Don't Think You Heard Me"
PERFORMER "Tyrone Davis"
INDEX 00 03:38:01
FILE "05 - I Don't Think You Heard Me.wav" WAVE
INDEX 01 00:00:00
TRACK 06 AUDIO
TITLE "Ain't Nothing I Can Do"
PERFORMER "Tyrone Davis"
INDEX 00 04:00:57
FILE "06 - Ain't Nothing I Can Do.wav" WAVE
INDEX 01 00:00:00
TRACK 07 AUDIO
TITLE "All The Love I Need"
PERFORMER "Tyrone Davis"
INDEX 00 04:45:44
FILE "07 - All The Love I Need.wav" WAVE
INDEX 01 00:00:00
TRACK 08 AUDIO
TITLE "We Were In Love Then"
PERFORMER "Tyrone Davis"
INDEX 00 03:40:48
FILE "08 - We Were In Love Then.wav" WAVE
INDEX 01 00:00:00
TRACK 09 AUDIO
TITLE "In The Mood (Single Version)"
PERFORMER "Tyrone Davis"
INDEX 00 04:00:25
FILE "09 - In The Mood (Single Version).wav" WAVE
INDEX 01 00:00:00
TRACK 10 AUDIO
TITLE "Ain't Nothing I Can Do (Single Version)"
PERFORMER "Tyrone Davis"
INDEX 00 03:52:53
FILE "10 - Ain't Nothing I Can Do (Single Version).wav" WAVE
INDEX 01 00:00:00
Приватный:
Нет (DHT включён)
Размер:
392.57 Мб (411,641,452 байт) » файлов: 34
Участники:
0 раздают, 0 качают (0 участников всего)
Внешние участники:
2 раздают, 1 качают (3 участников всего) [ Обновить ]
Есть вопросы - пишите личное сообщение пользователю M0p94ok.
10:59
145
Нет комментариев. Ваш будет первым!